#TITLE:Marjoram;
#ARTIST:BEMANI Sound Team "SYUNN";
#ARTISTTRANSLIT:SYUNN;
#BANNER:Marjoram.png;
#BACKGROUND:Marjoram-bg.png;
#JACKET:Marjoram-jacket.png;
#CDTITLE:./CDTITLES/GITADORA.PNG;
#MUSIC:Marjoram.ogg;
#SAMPLESTART:54.545;
#SAMPLELENGTH:15;
#BPMS:0=110;

//---------------dance-single - t7r----------------
#NOTES:
     dance-single:
     t7r:
     Beginner:
     4:
     :
0000
0000
0000
0000
,
0000
0000
0000
0000
,
0000
0000
0000
0000
,
0000
0000
0000
0000
,
0000
0000
0000
0000
,
0001
0000
0000
0000
,
1000
0000
0000
0000
,
0010
0000
0000
0000
,
0100
0000
0000
0000
,
0010
0000
0000
0000
,
1000
0000
0000
0000
,
0100
0000
0100
0000
,
0100
0000
0000
0000
,
0010
0000
0000
0000
,
0001
0000
0001
0000
,
0100
0000
0100
0000
,
0010
0010
0010
0000
,
1000
0000
1000
0000
,
0100
0000
0100
0000
,
0010
0000
0010
0000
,
0001
0001
0001
0000
,
1000
0000
0000
0000
,
0010
0000
0000
0100
,
0100
0000
0000
0000
,
0001
0000
0000
0000
,
0010
0000
0000
0000
,
0100
0000
1000
0000
,
0010
0000
0000
0000
,
0100
0000
0001
0000
,
0010
0000
0000
0000
,
0100
0000
1000
0000
,
0001
0000
0100
0000
,
0010
0000
1000
0000
,
0100
0100
0100
0000
,
0100
0100
0100
0000
,
0010
0010
0010
0000
,
0010
0010
0010
0000
,
0001
0001
0001
0001
,
0001
0001
0001
0000
,
1000
1000
1000
1000
,
1000
1000
1000
0000
,
0010
0000
0000
0000
,
0100
0000
0000
0000
,
0001
0000
0000
0000
,
1000
0000
0000
0000
,
0100
0000
0000
0000
,
0000
0000
0000
0000
,
1000
0000
1000
0000
,
0001
0000
0001
0000
,
0100
0100
0100
0000
,
0010
0010
0010
0000
;

//---------------dance-single - t7r----------------
#NOTES:
     dance-single:
     t7r:
     Easy:
     9:
     :
0000
0000
0000
0000
,
0000
0000
0000
0000
,
0000
0000
0000
0000
,
0000
0000
0000
0000
,
0000
0000
0000
0000
,
1000
0000
0100
0000
0010
0000
0000
0001
0000
0010
0000
0000
0001
0000
0000
0001
,
0000
0000
1000
0000
0000
0001
0000
0100
0000
0000
0100
0000
0010
0000
1000
0000
,
0001
0000
0010
0000
0100
0000
0000
1000
0000
0100
0000
0000
1000
0000
0000
1000
,
0000
0001
1000
0000
0010
0100
0001
0000
,
2000
0000
0000
0000
,
3002
0000
0000
0000
,
0103
0000
0000
0000
0010
0000
0000
0100
0000
0000
0100
0000
0001
0000
0000
1000
,
0000
1000
0100
0000
2000
0000
3002
0000
,
2003
0000
3010
1000
0002
0000
0003
0000
,
1000
0010
1000
0010
0100
0001
0100
0001
,
1000
0100
0010
0001
0010
0100
1000
0100
,
0010
0001
1000
0001
0200
0000
0310
0000
,
1000
0010
1000
0010
0001
0010
0001
0010
,
1000
0010
0001
0010
1000
0100
0010
0001
,
0200
0000
0310
1000
0002
0000
0013
0100
,
2000
0000
0100
0000
3001
0100
0010
1000
,
0001
0000
0100
0000
0010
0000
0000
1000
0000
0010
0000
0000
1000
0000
0000
1000
,
0000
0000
0001
0000
0000
1000
0000
0100
0000
0000
0100
0000
0010
0000
0001
0000
,
1000
0000
0010
0000
0100
0000
0000
0001
0000
0100
0000
0000
0001
0000
0000
0001
,
0000
1000
0001
0000
0010
0100
1000
0000
,
0002
0000
0103
0010
2000
0000
3100
0020
,
0000
0130
1000
0001
1000
0100
0010
0001
,
2000
0000
3010
0100
0002
0000
0013
0200
,
0000
0310
0001
1000
0010
0100
0010
0010
,
2000
0000
0100
0000
3001
0200
0000
0320
,
0000
0130
0001
1000
0001
0010
0100
1000
,
0002
0000
0013
2000
0000
3010
0001
1000
,
0000
0010
0100
0001
1000
0100
0020
0000
,
0031
0100
0010
1000
0001
0001
0010
0001
,
1000
0100
0010
0001
1000
1000
0001
0000
,
1000
0010
0100
0001
1000
1000
0010
1000
,
0001
0010
0100
1000
0001
0001
1000
0000
,
0001
0100
1000
0100
0010
0010
0100
0001
,
1000
0100
0001
0100
0010
0010
0100
0000
,
1000
0010
0001
0010
0100
0100
0010
1000
,
0001
0010
1000
0010
0100
0100
0010
0000
,
0001
0000
0100
0000
1000
0000
0000
0100
0000
0010
0000
0000
1000
0000
0000
0100
,
0000
0010
0001
1000
0001
0000
0100
0010
,
1000
0000
0100
0000
0001
0000
0000
0100
0000
0010
0000
0000
0001
0000
0000
0100
,
0000
0010
1000
0001
1000
0100
0010
0001
,
2000
0000
0000
0000
,
0000
0000
3001
0100
,
0001
0010
0100
1000
0001
0001
0010
0001
,
1000
0010
0100
0001
1000
1000
0010
1000
,
0001
0010
0100
1000
0100
0010
0001
1000
,
0001
0100
0010
1000
0010
0100
0001
1001
;

//---------------dance-single - t7r----------------
#NOTES:
     dance-single:
     t7r:
     Medium:
     13:
     :
0000
0000
0000
0000
,
0000
0000
0000
0000
,
0000
0000
0000
0000
,
0000
0000
0000
0000
,
0000
0000
0000
0000
,
0001
0000
0100
0000
0001
0000
1000
0010
0000
1000
0000
0001
0010
0000
0100
1000
,
0000
0001
0010
0000
0001
1000
0000
0002
0000
1003
0010
0000
0100
0000
0110
0000
,
1000
0000
0100
0000
1000
0000
0001
0010
0000
0001
0000
1000
0010
0000
0100
0001
,
0000
1000
0010
0000
1000
0001
0000
1000
0100
0000
0010
0000
0001
0000
1001
0000
,
2000
0000
0000
3020
0000
0000
0230
0000
0000
0302
0000
0000
0000
0000
0000
0000
,
0023
0000
0000
0230
0000
0000
2300
0000
0000
3002
0000
0000
0000
0000
0000
0000
,
1003
0000
0000
0010
0100
0000
0001
1000
0000
0100
0000
0010
0001
0000
1000
0010
,
0000
0100
0000
0001
1000
0000
0001
0000
0010
0200
0000
1300
0002
0000
0000
0000
,
1003
0000
0010
0000
0100
0000
0010
2000
0000
0000
0000
0000
3001
0000
1000
0000
,
0001
0000
0010
0100
1000
0000
0100
0000
0010
0000
0001
1000
0010
0000
0100
0000
,
0001
0000
1000
0100
1000
0000
0001
0000
1000
0000
0001
0100
0001
0000
1000
0000
,
0001
0000
1000
0010
1000
0000
0001
0000
0020
0000
0000
1000
0000
0000
0130
0000
,
1000
0000
0010
0000
0001
0000
0010
0000
0100
0000
0001
0000
0010
0100
1000
0000
,
0001
0000
0010
0000
1000
0000
0010
0000
0100
0000
1000
0000
0010
0100
0001
0000
,
2000
0010
0000
3001
1000
0000
0001
0000
2000
0100
0000
3001
1000
0000
0010
0100
,
0020
0001
0000
0130
0010
0000
1000
0001
1000
0000
0001
0010
0100
0000
1000
0000
,
0001
0000
0100
0000
1000
0000
0100
0010
0000
0100
0000
0001
0010
0000
0100
1000
,
0000
0100
0010
0000
0001
1000
0000
0020
0000
0000
1030
0001
1000
0000
1001
0000
,
1000
0000
0100
0000
0001
0000
0100
0010
0000
0100
0000
1000
0010
0000
0100
0001
,
0000
0100
0010
0000
1000
0001
0000
0010
0001
0000
0100
0010
1000
0000
0110
0000
,
2000
0000
0000
3100
0010
0000
0001
0000
0200
0000
0000
0310
1000
0000
0002
0000
,
0013
0000
0002
0000
0203
0000
0320
0000
1030
0000
0100
0010
0001
0000
1000
0000
,
0002
0000
0000
0103
0010
0000
0200
0000
0301
0000
0000
0010
0100
0000
2000
0000
,
3010
0000
0100
0000
0010
0100
0010
0000
1000
0000
0001
0000
0010
0000
0001
1000
,
0002
0000
0000
0103
1000
0000
0100
0000
0010
0000
0200
0000
0301
0000
0200
0000
,
1300
0000
0200
0000
0320
0000
2030
0000
3001
0000
0010
0000
0100
0000
1000
0001
,
2000
0000
0000
3010
0001
0000
0020
0000
0130
0000
0002
0000
0023
0000
0230
0000
,
1300
0000
0100
0000
1000
0010
0100
0000
0001
0000
0010
0000
0001
2000
0000
0000
,
3100
0000
1000
0000
0001
1000
0100
0010
0001
0000
1000
0000
0001
0000
1000
0010
,
0000
0100
0000
0001
1000
0001
0000
1000
0100
0000
1000
0000
1001
0000
0000
0000
,
0001
0000
0010
0000
0100
1000
0001
0010
0100
0000
1000
0000
0001
0000
0100
0010
,
0000
1000
0000
0001
0100
0010
0000
1000
0100
0000
0010
0000
0110
0000
0000
0000
,
1000
0010
1000
0010
0100
0001
0100
0001
1000
0000
0100
0000
0010
0000
0001
1000
,
0001
0100
0001
0100
0010
1000
0010
1000
0001
0000
0010
0000
0100
1000
0001
0000
,
1000
0010
1000
0010
0100
0001
0100
0001
1000
0000
0100
0000
0010
0000
0001
1000
,
0100
0000
0010
0001
0000
1000
0010
0000
0100
0001
1000
0001
0100
0000
0010
0000
,
1000
0000
0100
0010
0100
0000
0001
0100
0000
0010
0000
1000
0010
0000
0100
0010
,
0000
1000
0010
0000
0100
1000
0000
0001
0100
0000
0010
1000
0001
0000
1001
0000
,
0001
0000
0100
0010
0100
0000
1000
0100
0000
0010
0000
0001
0010
0000
0100
0010
,
0000
0001
0010
0000
0100
0001
0000
1000
0010
0000
0100
0001
1000
0100
0010
0001
,
2000
0000
0000
0000
,
0000
0000
0000
0000
0000
0000
0000
0000
3001
0010
0100
1000
0001
0000
0100
0000
,
0001
1000
0100
0000
1000
0001
0100
0001
1000
0000
0001
0010
0100
1000
0100
0010
,
0001
1000
0010
0000
1000
0001
0010
0001
1000
0000
0001
0100
0010
1000
0010
0100
,
0001
0010
0100
1000
0100
0010
0001
0010
0100
0000
1000
0001
1000
0010
0100
0001
,
1000
0100
0010
0001
0010
0100
1000
0001
1000
0000
0001
0100
1000
0100
0010
0010
;

//---------------dance-single - t7r----------------
#NOTES:
     dance-single:
     t7r:
     Hard:
     16:
     :
0000
0000
0000
0000
,
0000
0000
0000
0000
,
0000
0000
0000
0000
,
0000
0000
0000
0000
,
0000
0000
0000
0000
,
1000
0000
0100
0010
0001
0010
0100
2000
0000
3200
0000
1300
0020
0000
0130
0002
,
0000
1003
0001
0010
0001
0200
0000
0302
0000
1003
0001
0100
0001
0000
1001
0000
,
0101
0000
0100
0010
1000
0010
0100
0002
0000
0203
0000
0301
0020
0000
0130
2000
,
0000
3001
1000
0010
1000
0200
0000
1300
0001
1000
0100
0010
0100
1000
0001
0100
,
0020
0000
0000
0230
0000
0000
0302
0000
0000
2003
0000
0000
0000
0000
0000
0000
,
3002
0000
0000
0023
0000
0000
0230
0000
0000
2300
0000
0000
0000
0000
0000
0000
,
3100
1000
0000
0100
0010
0000
0100
0001
0000
0100
1000
0000
0001
0000
0100
0010
,
0000
0000
0000
0100
0000
0000
1000
0000
0000
0000
0000
0000
0100
0000
0000
0000
0000
0000
0010
0000
0000
1000
0000
0000
0002
0000
0000
0010
0000
0000
0000
0000
0000
1003
0000
0000
0100
0000
1000
0000
0001
0000
1000
0000
0001
0000
1000
0000
,
0001
0020
0000
1030
0020
0000
0130
0010
0001
1000
0000
0000
1001
0000
0002
0000
,
1003
0010
1000
0001
1000
0100
0010
0001
1000
0100
0010
0100
1000
0010
0100
0010
,
1000
0100
1000
0100
0010
0100
0001
0100
1000
0010
1000
0010
0100
0010
0001
0010
,
1000
0000
0000
0000
0100
0000
0010
0000
0000
0000
0001
0000
0010
0000
0000
0000
0100
0000
1000
0000
0000
0000
0100
0000
0020
0000
0000
0001
0000
0000
0000
0000
0000
0130
0000
0000
1000
0000
0000
0001
0000
0000
0200
0000
0000
0000
0000
0000
,
0301
0010
0001
0010
0100
0010
1000
0010
0100
0010
0001
1000
0010
0100
0001
1000
,
0001
0100
0010
0000
0001
0000
0010
0000
1000
0100
0010
0100
1000
0010
0100
0001
,
2000
0100
0000
3001
1000
0000
0001
1000
0002
0010
0000
1003
0001
0000
0100
0010
,
0200
0000
0000
1000
0000
0000
0000
0000
0000
0310
0000
0000
0100
0000
0000
0000
0000
0000
0001
0000
0000
0010
0000
0000
0100
0000
0000
0000
0000
0000
1000
0000
0000
0001
0000
0000
0100
0000
0001
0000
1000
0000
0010
0000
1000
0000
0001
0000
,
1000
0000
0100
0010
0100
0001
0100
0020
0000
0230
0000
1300
0020
0000
0130
0020
,
0000
0031
0010
0100
0010
2000
0000
3200
0000
0301
0100
1000
0001
0000
1001
0000
,
0101
0000
0100
0010
0100
1000
0100
0020
0000
0230
0000
0301
0020
0000
0130
0020
,
0000
0000
0000
0130
0000
0000
1000
0000
0000
0000
0001
0000
0100
0000
0000
0000
0010
0000
1000
0000
0000
0000
0001
0000
1000
0000
0000
0000
0100
0000
1000
0000
0001
0000
1000
0000
0100
0000
0010
0000
0001
0000
0010
0000
0100
0000
1000
0000
,
0002
0000
0000
0013
0100
0000
0010
0001
2000
0000
0000
3010
0200
0000
0320
0000
,
1000
0000
0000
0230
0000
0000
0302
0000
0000
0023
0000
0000
0130
0000
1000
0001
0000
0100
0001
0010
0100
1000
0100
0010
,
0002
0000
0000
0103
0001
0000
0010
0100
2000
0000
0000
3010
0100
0000
0002
0000
,
0010
0000
1003
0100
0010
0100
2000
0000
3001
0100
0010
0000
1001
0000
1000
0001
,
2000
0000
0000
3100
0010
0000
0100
0001
0100
0000
2000
0000
0010
0000
3002
0000
,
0010
0000
2003
0000
3002
0000
0203
0000
1300
0000
0100
0010
0100
0001
0010
0100
,
2000
0000
0000
3010
0001
0000
0020
0000
0100
0000
1030
0100
0020
0000
0032
0000
,
1003
0001
0100
0000
0001
0010
1000
0010
0100
1000
0001
0000
1000
0020
0100
0000
,
1030
0000
0100
0010
0001
1000
0100
0010
0010
0000
0001
0000
1000
0010
0100
0001
,
0000
0010
0000
1000
0010
0100
0000
1000
1000
0000
0110
0000
1000
0100
0100
1000
,
0001
0010
0000
0100
1000
0001
0010
0100
0100
0000
1000
0000
0010
0001
0010
0100
,
0000
0001
0000
1000
0100
0010
0000
0100
0100
0000
0110
0000
0001
0010
0010
0001
,
1000
0010
0100
0001
0001
0001
1000
0010
0010
0100
1000
0100
0010
0100
0001
0001
,
0010
0000
0100
0000
0010
0000
1000
0000
1000
0000
1000
0000
0010
0000
0100
0000
0100
0000
1000
0000
0010
0000
0100
0000
0010
0000
1000
0000
0001
0000
0100
0001
,
1000
0100
0010
0100
0001
0100
1000
0001
0001
0100
0010
1000
0001
0010
0100
1000
,
0001
0010
0001
0000
1000
0000
0001
0000
0000
0000
1000
0100
1000
0000
0000
0000
0001
0010
0001
0000
1000
0000
0001
0000
0100
0010
0100
0000
0001
0000
1000
0000
,
0002
0000
0103
0010
0100
1000
0100
0020
0000
0230
0000
0301
0020
0000
1030
0020
,
0000
0130
0010
0100
1000
0020
0000
0230
0000
1300
0100
0010
0100
0000
1001
0000
,
2100
0000
3100
0010
0100
0001
0100
0020
0000
0230
0000
1300
0020
0000
0031
0020
,
0000
0000
0130
0000
0010
0000
0100
0000
0001
0000
0020
0000
0000
0000
0130
0000
0010
0000
0100
1000
0001
0000
0100
0001
1000
0000
0100
0000
1000
0000
0001
0000
,
0020
0000
0000
0000
,
0000
0000
0000
0000
0000
0000
0000
0000
0000
0000
0000
0000
0000
0000
0000
0000
0031
0000
0100
0010
1000
0000
0001
0000
1000
0100
1000
0000
0001
0100
0001
0000
,
1000
0010
0100
0001
0100
0010
1000
0010
0100
0001
0100
0010
1000
0000
1001
1000
,
0001
0010
0100
1000
0100
0010
0001
0010
0100
1000
0100
0010
0001
0000
1001
0001
,
1000
0010
0100
1000
0001
0010
0100
1000
0100
0001
0010
0100
1000
0001
1000
1000
,
0001
0000
0100
0000
0010
0000
0001
0000
1000
0000
0100
0000
0010
0000
1000
0000
0001
0000
0010
0100
1000
0000
0100
0010
0001
0000
0000
0000
1001
0000
1000
0000
;

//---------------dance-double - t7r----------------
#NOTES:
     dance-double:
     t7r:
     Easy:
     9:
     :
00000000
00000000
00000000
00000000
,
00000000
00000000
00000000
00000000
,
00000000
00000000
00000000
00000000
,
00000000
00000000
00000000
00000000
,
00000000
00000000
00000000
00000000
,
10000000
00000000
01000000
00000000
00100000
00000000
00000000
00010000
00000000
00100000
00000000
00000000
00010000
00000000
00000000
00010000
,
00000000
00000000
10000000
00000000
00100000
00000000
00000000
00010000
00000000
00000000
00001000
00000000
00010000
00000000
00000100
00000000
,
00001000
00000000
00000000
00000000
00000010
00000000
00000000
00000100
00000000
00000001
00000000
00000000
00000100
00000000
00000000
00000100
,
00000000
00000001
00000010
00000000
00001000
00010000
00001000
01000000
,
00020000
00000000
00000000
00000000
,
20030000
00000000
00000000
00000000
,
31000000
00000000
00000000
00000000
00100000
00000000
00000000
00001000
00000000
00000000
00001000
00000000
00010000
00000000
00000000
00000010
,
00000000
00000010
00000100
00000000
00000002
00000000
00002003
00000000
,
00003002
00000000
00000013
00000100
00002000
00000000
00003000
00000000
,
00000001
00000000
00000100
00000010
00001000
00000000
00010000
00000000
,
00100000
01000000
10000000
00000000
01000000
00000000
00100000
00000000
,
00010000
00000000
00001000
00000010
00000200
00000000
00000301
00000000
,
00001000
00000100
00001000
00000000
00000001
00000100
00000001
00000000
,
00001000
00000010
00010000
00000000
00001000
00100000
00010000
00000000
,
20000000
01000000
30020000
01000000
,
10030000
00000000
00100000
00000000
00010000
00001000
00010000
00000000
,
00011000
00000000
00000000
00000000
00001000
00000000
00000000
01000000
00000000
00010000
00000000
00000000
10000000
00000000
00000000
10000000
,
00000000
01000000
00100000
00000000
00010000
00000000
00001000
00000010
,
00000100
00000000
00000001
00000000
00001000
00000000
00000000
00000001
00000000
00000010
00000000
00000000
00000001
00000000
00000000
00000100
,
00000000
00000010
00001000
00000000
00010000
00100000
01000000
10000000
,
00020000
00000000
10030000
00100000
02000000
00000000
03010000
20000000
,
00000000
31000000
00010000
00001000
00010000
00000100
00001000
00000010
,
00002000
00000000
00003100
00000010
00000002
00000000
00000103
00000020
,
00000000
00000130
00000001
00001000
00000100
00010000
00001000
00010000
,
02000000
00000000
00010000
00000000
03100000
00020000
00000000
20030000
,
00000000
30100000
01000000
00010000
00001000
00000000
00000010
00000000
,
00002000
00000000
00003100
00000020
00000000
00000031
00001000
00000010
,
00000000
00000100
00000001
00000000
00001000
00000100
00010000
00000000
,
00011000
00000000
00001000
01000000
00010000
00100000
01000000
10000000
,
00010000
10000000
01000000
00000000
00010000
00001000
00010000
00000000
,
00011000
00000000
00010000
00000100
00001000
00000010
00000100
00000001
,
00001000
00000001
00000100
00000000
00001000
00010000
00001000
00000000
,
00011000
00000000
00001000
00100000
00010000
01000000
00100000
10000000
,
00010000
10000000
00100000
00000000
00010000
00001000
00010000
00000000
,
00011000
00000000
00010000
00000010
00001000
00000100
00000010
00000001
,
00001000
00000001
00000010
00000000
00001000
00010000
00001000
00000000
,
00011000
00000000
00000000
00000000
00001000
00000000
00000000
01000000
00000000
00010000
00000000
00000000
10000000
00000000
00000000
00100000
,
00000000
00000000
01000000
00000000
00010000
00000000
00000000
10000000
00000000
00000000
01000000
00000000
00100000
00000000
00010000
00000000
,
00001000
00000000
00000000
00000000
00000001
00000000
00000000
00000010
00000000
00000100
00000000
00000000
00001000
00000000
00000000
00000001
,
00000000
00000100
00001000
00000000
00010000
01000000
10000000
00000000
,
00200000
00000000
00000000
00000000
,
00000000
00000000
10300000
00010000
,
10000000
00100000
01000000
00010000
00001000
00000100
00000010
00000001
,
00001000
00000010
00000100
00000001
00000010
00000100
00001000
00001000
,
00000001
00000010
00000100
00001000
00010000
00100000
01000000
10000000
,
01000000
00100000
00010000
00001000
00000100
00000010
00000001
00001001
;

//---------------dance-double - t7r----------------
#NOTES:
     dance-double:
     t7r:
     Medium:
     13:
     :
00000000
00000000
00000000
00000000
,
00000000
00000000
00000000
00000000
,
00000000
00000000
00000000
00000000
,
00000000
00000000
00000000
00000000
,
00000000
00000000
00000000
00000000
,
00010000
00000000
00000100
00000000
00001000
00000000
00000001
00000010
00000000
00000100
00000000
00001000
00000010
00000000
00000100
00000001
,
00000000
00001000
00000100
00000000
00010000
00001000
00000000
00020000
00000000
00031000
01000000
00000000
00100000
00000000
01100000
00000000
,
10000000
00000000
01000000
00000000
00100000
00000000
00010000
10000000
00000000
00100000
00000000
01000000
00010000
00000000
10000000
01000000
,
00000000
00100000
00010000
00000000
00001000
00000010
00000000
00000100
00000001
00000000
00000010
00000000
00000100
00000000
00001100
00000000
,
00002000
00000000
00000000
00003002
00000000
00000000
00000203
00000000
00000000
00000320
00000000
00000000
00000000
00000000
00000000
00000000
,
00002030
00000000
00000000
00003200
00000000
00000000
00020300
00000000
00000000
00032000
00000000
00000000
00000000
00000000
00000000
00000000
,
01003000
00000000
00000000
00010000
00100000
00000000
01000000
10000000
00000000
00010000
00000000
10000000
01000000
00000000
00100000
00010000
,
00000000
00001000
00000000
00000010
00000100
00000000
00000001
00000000
00001000
00000200
00000000
00001300
00000002
00000000
00000000
00000000
,
00000103
00000000
00000001
00000000
00001000
00000000
00000001
00000020
00000000
00000000
00000000
00000000
00000031
00000000
00001000
00000000
,
00000001
00000000
00000010
00000100
00001000
00000000
00000001
00000000
00000100
00000000
00001000
00010000
00001000
00000000
00010000
00000000
,
00001000
00000000
01000000
00010000
10000000
00000000
00010000
00000000
10000000
00000000
01000000
10000000
00010000
00000000
10000000
00000000
,
01000000
00000000
00010000
00000000
00001000
00000000
00000010
00000000
00000200
00000000
00000000
00000001
00000000
00000000
00000310
00000000
,
00000001
00000000
00000100
00000000
00000010
00000000
00001000
00000000
00000001
00000000
00000010
00000000
00001000
00010000
00001000
00000000
,
00010000
00000000
00100000
00000000
10000000
00000000
00100000
00000000
01000000
00000000
00010000
00000000
10000000
01000000
00100000
00000000
,
00020000
01000000
00000000
10030000
00010000
00000000
10000000
00000000
00020000
00100000
00000000
10030000
00010000
00000000
10000000
00000000
,
00100000
00010000
00000000
00001000
00010000
00000000
00001000
00000000
00000010
00000000
00000100
00001000
00000001
00000000
00001000
00000000
,
00000001
00000000
00000100
00000000
00001000
00000000
00000100
00000010
00000000
00000100
00000000
00000001
00000010
00000000
00000100
00001000
,
00000000
00010000
00100000
00000000
01000000
10000000
00000000
00010000
10000000
00000000
00100000
01000000
00010000
00000000
10010000
00000000
,
10000000
00000000
01000000
00000000
00010000
00000000
01000000
00100000
00000000
01000000
00000000
10000000
00100000
00000000
01000000
00010000
,
00000000
00001000
00000010
00000000
00000100
00000001
00000000
00001000
00000001
00000000
00000010
00000100
00001000
00000000
00001001
00000000
,
00000002
00000000
00000000
00000013
00000100
00000000
00000010
00000000
00000002
00000000
00000000
00000103
00000010
00000000
00002000
00000000
,
00003100
00000000
00020000
00000000
00032000
00000000
02003000
00000000
03010000
00000000
00100000
01000000
10000000
00000000
00010000
00000000
,
20000000
00000000
00000000
30100000
01000000
00000000
00200000
00000000
10300000
00000000
00000000
01000000
00100000
00000000
00020000
00000000
,
10030000
00000000
00200000
00000000
00310000
00001000
00010000
00000000
00001000
00000000
00000010
00000000
00000100
00001000
00000001
00000000
,
00002000
00000000
00000000
00003100
00001000
00000000
00000001
00000000
00000100
00000000
00000020
00000000
00001030
00000000
00020000
00000000
,
00130000
00000000
00020000
00000000
02030000
00000000
03200000
00000000
10300000
00000000
01000000
00100000
00010000
00000000
00001000
00000000
,
00000020
00000000
00000000
00000130
00000001
00000000
00000020
00000000
00000130
00000000
00002000
00000000
00003020
00000000
00000230
00000000
,
00000301
00000000
00000010
00000000
00000100
00001000
00000001
00000000
00000100
00000000
00001000
00000000
00010000
02000000
00000000
00000000
,
03100000
00000000
00010000
00000000
10000000
00100000
00000000
01000000
00010000
00000000
10000000
00000000
01000000
00000000
00100000
00010000
,
00000000
00001000
00000000
00000100
00000010
00000001
00000000
00001000
00000001
00000000
00000100
00000000
00000110
00000000
00000000
00000000
,
00000010
00000000
00001000
00000000
00000001
00000010
00000000
00000100
00001000
00000000
00000001
00000000
00000100
00000000
00000010
00001000
,
00000000
00010000
00000000
01000000
00100000
10000000
00000000
00010000
10000000
00000000
01000000
00000000
01100000
00000000
00000000
00000000
,
10000000
00000000
01000000
00100000
00010000
10000000
00000000
01000000
00100000
00000000
00010000
00000000
00001000
00000000
00000010
00000100
,
00000000
00000001
00000000
00001000
00000100
00000010
00000000
00000001
00000100
00000000
00001000
00000000
00010000
00000100
00001000
00000000
,
00000001
00000000
00000010
00000100
00001000
00000001
00000000
00000010
00000100
00000000
00001000
00000000
00010000
00000000
01000000
00100000
,
10000000
00000000
00010000
01000000
00000000
00001000
00010000
00000000
00001000
00000100
00000000
00000001
00001000
00000000
00000100
00000000
,
00010000
00000000
00001000
01000000
00001000
00000000
00100000
00010000
00000000
10000000
00000000
00010000
00100000
00000000
00001000
00010000
,
00000000
00001000
00000100
00000000
00000010
00000001
00000000
00000010
00000100
00000000
00000001
00001000
00000100
00000000
00010000
00000000
,
00001000
00000000
00010000
00000010
00010000
00000000
00000100
00001000
00000000
00000001
00000000
00001000
00000100
00000000
00010000
00001000
,
00000000
00010000
00100000
00000000
01000000
10000000
00000000
01000000
00100000
00000000
10000000
00010000
00100000
00000000
00001000
00000000
,
00020000
00000000
00000000
00000000
,
00000000
00000000
00000000
00000000
00031000
01000000
00010000
10000000
,
01000000
00100000
01000000
00000000
00010000
00000000
00001000
00000000
00000100
00000000
00000001
00000010
00000100
00000000
00001000
00000000
,
00000001
00000100
00000001
00000000
00000010
00000000
00001000
00000000
00010000
00000000
00100000
01000000
00010000
00000000
10000000
00000000
,
01000000
00100000
00010000
00000000
00001000
00000100
00000010
00000000
00000001
00000000
00001000
00000010
00000100
00000000
00000001
00000000
,
00000010
00000100
00001000
00000000
00010000
00100000
01000000
00000000
10000000
00000000
00100000
01000000
00001000
00000000
00010000
00010000
;

//---------------dance-double - t7r----------------
#NOTES:
     dance-double:
     t7r:
     Hard:
     16:
     :
00000000
00000000
00000000
00000000
,
00000000
00000000
00000000
00000000
,
00000000
00000000
00000000
00000000
,
00000000
00000000
00000000
00000000
,
00000000
00000000
00000000
00000000
,
00010000
00000000
00000100
00001000
00000001
00000010
00000100
00000020
00000000
00000032
00000000
00000103
00000020
00000000
00001030
00000200
,
00000000
00010300
00001000
00010000
00000010
00000200
00000000
00000302
00000000
00000013
00001000
00010000
00001000
00000000
00011000
00000000
,
01001000
00000000
01000000
00010000
10000000
00100000
01000000
00200000
00000000
20300000
00000000
31000000
00200000
00000000
00310000
02000000
,
00000000
03001000
00010000
00001000
00100000
02000000
00000000
13000000
00100000
00000000
00010000
00001000
00010000
00000000
00011000
00000000
,
00010200
00000000
00000000
00002300
00000000
00000000
00003020
00000000
00000000
00000230
00000000
00000000
00000000
00000000
00000000
00000000
,
00000302
00000000
00000000
00000023
00000000
00000000
00000230
00000000
00000000
00002300
00000000
00000000
00000000
00000000
00000000
00000000
,
00003001
00000100
00000000
00000001
00000010
00000000
00000100
00001000
00000000
00000100
00010000
00000000
00001000
00000000
00100000
00010000
,
00000000
00000000
00000000
01000000
00000000
00000000
00100000
00000000
00000000
00000000
00000000
00000000
10000000
00000000
00000000
00000000
00000000
00000000
00010000
00000000
00000000
00100000
00000000
00000000
00020000
00000000
00000000
01000000
00000000
00000000
00000000
00000000
00000000
10030000
00000000
00000000
00010000
00000000
10000000
00000000
00010000
00000000
10000000
00000000
00010000
00000000
10000000
00000000
,
00010000
20000000
00000000
31000000
00200000
00000000
00310000
10000000
00010000
01000000
00000000
00000000
01100000
00000000
00200000
00000000
,
10300000
00100000
10000000
00010000
10000000
01000000
00100000
00010000
00001000
00000010
00000100
00000001
00001000
00000100
00000010
00000001
,
00001000
00000000
00000001
00000100
00000010
00000000
00001000
00000100
00000010
00000000
00000100
00010000
00001000
00000000
01000000
00001000
,
00010000
00000000
00001000
00100000
00010000
00000000
10000000
00100000
20000000
01000000
00000000
30010000
10000000
00000000
00020000
00000000
,
10030000
00000000
00100000
00010000
00001000
00100000
00010000
00000000
00001000
00000010
00000100
00000001
00001000
00000100
00000010
00000001
,
00001000
00000001
00000010
00000000
00001000
00000000
00010000
00000000
00000100
00001000
00000001
00000100
00001000
00010000
00001000
00100000
,
00020000
01000000
00000000
10030000
00010000
00000000
10000000
00100000
20000000
00010000
00000000
31000000
10000000
00000000
01000000
00100000
,
00002000
00000000
00000000
00010000
00000000
00000000
00000000
00000000
00000000
01003000
00000000
00000000
00010000
00000000
00000000
00000000
00000000
00000000
00100000
00000000
00000000
00001000
00000000
00000000
00010000
00000000
00000000
00000000
00000000
00000000
00000010
00000000
00000000
00001000
00000000
00000000
00000001
00000000
00000100
00000000
00000001
00000000
00001000
00000000
00000001
00000000
00001000
00000000
,
00000001
00000000
00000010
00000100
00001000
00000100
00000010
00000002
00000000
00000203
00000000
00001300
00020000
00000000
01030000
20000000
,
00000000
30100000
01000000
00100000
10000000
00020000
00000000
20030000
00000000
30100000
01000000
00010000
10000000
00000000
01100000
00000000
,
10010000
00000000
10000000
01000000
00100000
00010000
10000000
00200000
00000000
02300000
00000000
03010000
00200000
00000000
00301000
00020000
,
00000000
00000000
00000000
00031000
00000000
00000000
00000100
00000000
00000000
00000010
00000000
00000000
00000100
00000000
00000000
00000001
00000000
00000000
00001000
00000000
00000000
00000000
00000001
00000000
00000010
00000000
00000000
00000000
00000100
00000000
00001000
00000000
00000000
00000000
00010000
00000000
00100000
00000000
00000000
00000000
01000000
00000000
10000000
00000000
00010000
00000000
10000000
00000000
,
00020000
00000000
00000000
00130000
01000000
00000000
00100000
00010000
20000000
00000000
00000000
30100000
01000000
00000000
00020000
00000000
,
00100000
00000000
00000000
20030000
00000000
00000000
32000000
00000000
00000000
03020000
00000000
00000000
00031000
00000000
00000000
00000100
00000000
00000001
00000010
00000100
00001000
00000100
00000010
00000001
,
00000020
00000000
00000000
00000130
00001000
00000000
00000010
00000100
00000002
00000000
00000000
00001003
00000100
00000000
00002000
00000000
,
00000010
00000000
00003002
00000000
00000203
00000000
00002300
00000000
00013000
01000000
00100000
00000000
10010000
00000000
10000000
00010000
,
20000000
00000000
00000000
31000000
00100000
00000000
00010000
01000000
00010000
00000000
20000000
00000000
00100000
00000000
30020000
00000000
,
00100000
00000000
20030000
00000000
30200000
00000000
00320000
00000000
00031000
00000000
00000100
00000010
00001000
00000100
00000010
00000001
,
00002000
00000000
00000000
00003010
00000100
00000000
00000002
00000000
00000010
00000000
00001003
00000001
00000020
00000000
00000032
00000000
,
00001003
00000001
00000100
00000000
00001000
00010000
00001000
00100000
00010000
00000000
10000000
00100000
01000000
00020000
10000000
00000000
,
00130000
00000000
00010000
00000000
10000000
01000000
00100000
00010000
00001000
00000000
00000001
00000000
00001000
00000000
00000001
00000010
,
00000100
00001000
00000000
00000001
00000100
00001000
00000000
00010000
01000000
00000000
00110000
00000000
00001000
00010000
00010000
00001000
,
00000100
00000001
00001000
00000000
00000001
00000010
00000100
00001000
00010000
00000000
10000000
00000000
00010000
00000000
10000000
01000000
,
00100000
00010000
00000000
10000000
00100000
00010000
00000000
00001000
00000010
00000000
00001100
00000000
00010000
00001000
00001000
01000000
,
00010000
00100000
01000000
10000000
00010000
00100000
00001000
00010000
00010000
00001000
00000010
00000100
00000010
00000000
00000001
00000001
,
00000100
00000001
00000010
00000100
00001000
00000001
00000100
00001000
00001000
00010000
00000100
00001000
00000001
00000010
00000100
00000100
,
00001000
00000100
00010000
00000000
00001000
01000000
00010000
10000000
10000000
00000000
00100000
00010000
00001000
00000100
00000001
00001000
,
00000001
00000010
00000001
00000000
00001000
00000000
00000001
00000000
00000000
00000000
00000100
00000000
00001000
00000000
00010000
00000000
00001000
00000000
00010000
00001000
00010000
00000000
00001000
00000000
01000000
00000000
00010000
00000000
10000000
00000000
01000000
00000000
,
20000000
00000000
31000000
00100000
01000000
00010000
00001000
00000200
00000000
00000320
00000000
00000130
00000002
00000000
00001003
00000020
,
00000000
00000130
00000010
00001000
00000001
00000020
00000000
00002030
00000000
00013000
00000100
00001000
00000001
00000000
00001001
00000000
,
00000102
00000000
00000103
00000010
00000100
00001000
00010000
02000000
00000000
03200000
00000000
01300000
20000000
00000000
30010000
00200000
,
00000000
00000000
01300000
00000000
00100000
00000000
00010000
00000000
10000000
00000000
00200000
00000000
00000000
00000000
00310000
00000000
00001000
00000000
00000010
00000100
00001000
00000000
00000001
00000100
00000010
00000000
00001000
00000000
00000001
00000000
00001000
00000000
,
00000002
00000000
00000000
00000000
,
00000000
00000000
00000000
00000000
00000000
00000000
00000000
00000000
00000000
00000000
00000000
00000000
00000000
00000000
00000000
00000000
00001003
00000000
00000100
00001000
00000001
00000000
00001000
00000000
00000001
00000000
00000010
00000000
00000100
00000000
00001000
00000000
,
00000001
00000100
00000010
00001000
00000001
00000010
00000100
00001000
00010000
00100000
01000000
10000000
00010000
00000000
01100000
00100000
,
10000000
01000000
00100000
00010000
10000000
00100000
01000000
00010000
00001000
00000010
00000100
00000001
00001000
00000000
00001001
00001000
,
00000001
00000010
00000100
00001000
00010000
00100000
01000000
10000000
01000000
00100000
00010000
00001000
00000100
00000010
00000001
00001000
,
00000001
00000000
00000100
00000000
00001000
00000000
00010000
00000000
00100000
00000000
10000000
00000000
01000000
00000000
00010000
00000000
00001000
00000000
00010000
00000100
00010000
00000000
00001000
01000000
00001000
00000000
00000000
00000000
00011000
00000000
00010000
00000000
;
