#VERSION:0.83;
#TITLE:Magical Flavor;
#SUBTITLE:;
#ARTIST:DECO*27 feat.Tia;
#TITLETRANSLIT:;
#SUBTITLETRANSLIT:;
#ARTISTTRANSLIT:;
#GENRE:;
#ORIGIN:;
#TAGS:;
#CREDIT:;
#BANNER:Magical Flavor.png;
#BACKGROUND:Magical Flavor-bg.png;
#PREVIEWVID:;
#JACKET:Magical Flavor-jacket.png;
#CDIMAGE:;
#DISCIMAGE:;
#LYRICSPATH:;
#CDTITLE:cdtitle.png;
#MUSIC:Magical Flavor.ogg;
#OFFSET:0.299000;
#SAMPLESTART:63.374001;
#SAMPLELENGTH:9.796000;
#SELECTABLE:YES;
#BPMS:0.000000=98.000000;
#STOPS:;
#DELAYS:;
#WARPS:;
#TIMESIGNATURES:0.000000=4=4;
#TICKCOUNTS:0.000000=4;
#COMBOS:0.000000=1;
#SPEEDS:0.000000=1.000000=0.000000=0;
#SCROLLS:0.000000=1.000000;
#FAKES:;
#LABELS:0.000000=Song Start;
#BGCHANGES:0.000=Magical Flavor.mp4=1.000=0=0=0=StretchNoLoop====,
99999=-nosongbg-=1.000=0=0=0 // don't automatically add -songbackground-
;
#KEYSOUNDS:;
#ATTACKS:
;

//---------------dance-single - MEGAtive----------------
#NOTEDATA:;
#CHARTNAME:;
#CHARTHASH:661949130:
#STEPSTYPE:dance-single;
#BANNER:;
#DESCRIPTION:MEGAtive;
#CHARTSTYLE:;
#DIFFICULTY:Beginner;
#METER:1;
#METERF:0.000000;
#RADARVALUES:0.073907,0.097983,0.007839,0.094064,0.000000,66.000000,65.000000,1.000000,12.000000,0.000000,0.000000,0.000000,0.000000,0.000000,0.073907,0.097983,0.007839,0.094064,0.000000,66.000000,65.000000,1.000000,12.000000,0.000000,0.000000,0.000000,0.000000,0.000000;
#CREDIT:MEGAtive;
#NOTES:
0000
0000
0000
0000
,
0000
0000
0000
0000
,
0000
0000
0000
0000
,
0001
0000
0000
0000
,
1000
0000
0000
0000
,
0001
0000
1000
0000
,
0010
0000
0100
0000
,
0001
0000
0010
0000
,
0100
0000
1000
0000
,
0001
0000
0000
0000
,
0001
0000
0000
0000
,
1000
0000
0000
0000
,
1000
0000
0000
0000
,
0002
0000
0003
0000
,
0020
0000
0030
0000
,
0200
0000
0300
0000
,
2000
0000
3000
0000
,
0001
0000
0000
0000
,
0001
0000
0000
0000
,
1000
0000
0000
0000
,
1000
0000
0000
0000
,
0002
0000
0003
0000
,
2000
0000
3000
0000
,
0020
0000
0030
0000
,
0200
0000
0300
0000
,
0000
0000
0000
0000
,
0001
0000
0001
0000
,
1000
0000
1000
0000
,
0100
0000
0100
0000
,
0010
0000
0010
0000
,
0001
0000
0001
0000
,
0100
0000
0100
0000
,
0010
0000
0010
0000
,
2000
0000
3000
0000
,
1000
0000
1000
0000
,
1000
0000
1000
0000
,
0010
0000
0010
0000
,
0010
0000
0010
0000
,
0100
0000
0100
0000
,
0100
0000
0100
0000
,
0001
0000
0001
0000
,
0001
0000
0001
0000
,
1000
0000
0000
0000
,
0001
0000
0000
0000
,
0010
0000
0000
0000
,
0200
0000
0300
0000
,
1000
0000
0000
0000
,
0001
0000
0000
0000
,
0100
0000
0000
0000
,
0000
2002
0000
0000
0000
0000
0000
0000
,
3003
0000
0000
0000
;

//---------------dance-single - MEGAtive----------------
#NOTEDATA:;
#CHARTNAME:;
#CHARTHASH:2147483647:
#STEPSTYPE:dance-single;
#BANNER:;
#DESCRIPTION:MEGAtive;
#CHARTSTYLE:;
#DIFFICULTY:Easy;
#METER:6;
#METERF:0.000000;
#RADARVALUES:0.208284,0.254756,0.054871,0.054871,0.019597,186.000000,179.000000,7.000000,7.000000,0.000000,0.000000,0.000000,0.000000,0.000000,0.208284,0.254756,0.054871,0.054871,0.019597,186.000000,179.000000,7.000000,7.000000,0.000000,0.000000,0.000000,0.000000,0.000000;
#CREDIT:MEGAtive;
#NOTES:
0000
0000
0000
0000
,
0000
0000
0000
0000
,
0000
0000
0000
0000
,
1000
0000
0001
0000
0000
0010
0100
0000
,
2000
0000
3001
0000
,
1000
0010
0100
0001
,
1000
0001
0010
0100
,
1000
0001
1000
0010
,
0100
0001
1000
0100
,
0010
0000
0000
0000
0000
0010
0000
0000
0000
0000
0000
0000
0000
0000
0000
0000
0000
0000
0000
0000
0000
0000
0000
0000
,
0001
0000
0000
0000
0000
0001
0000
0000
0000
0000
0000
0000
0000
0000
0000
0000
0000
0000
0000
0000
0000
0000
0000
0000
,
1000
0000
0000
0000
0000
1000
0000
0000
0000
0000
0000
0000
0000
0000
0000
0000
0000
0000
0000
0000
0000
0000
0000
0000
,
0010
0000
0000
0000
0000
0010
0000
0000
0000
0000
0000
0000
0000
0000
0000
0000
0000
0000
0000
0000
0000
0000
0000
0000
,
1000
0010
0100
0001
,
1000
0001
0010
0100
,
1000
0001
1000
0100
,
0010
0001
1000
0010
,
0100
0110
0000
0000
,
0001
1001
0000
0000
,
0100
0110
0000
0000
,
1000
1001
0000
0000
,
0001
0001
0001
0001
,
1000
1000
1000
1000
,
0010
0100
0010
0100
,
0001
1000
0001
1000
,
0100
0000
0000
1001
,
1000
0010
0000
0010
1000
0100
0000
0010
,
0001
1000
0000
1000
0010
0100
0000
0001
,
1000
0100
0000
0100
1000
0010
0000
0100
,
0001
1000
0000
1000
0100
0000
1001
0000
,
0001
0100
0000
0100
0001
0010
0000
0100
,
1000
0001
0000
0001
0100
0010
0000
1000
,
0001
0100
0000
0100
0001
0010
0000
0100
,
2000
0000
0002
3003
,
1000
0100
0001
0100
,
1000
0100
0001
0100
,
1000
0010
0001
0010
,
1000
0010
0001
0010
,
1000
0100
0001
0100
,
1000
0010
0001
0010
,
1000
0100
0001
0100
,
1000
0010
0100
0000
,
0001
0010
0100
1000
,
0001
0100
0010
1000
,
0001
1000
0100
0010
,
0002
0000
0000
0000
0000
0000
0000
0000
0000
0000
0000
0000
0000
0000
0000
0000
0000
0000
0000
0000
0000
0000
0000
0000
0000
0000
0000
0000
0000
0000
0000
0000
0000
0000
0000
0000
0000
0000
0000
0000
0000
0000
0000
0000
0000
0000
0000
0000
0000
0000
0000
0000
0000
0000
0000
0000
0000
0000
0000
0000
0000
0000
0000
0000
0000
0000
0000
0000
0000
0000
0000
0000
0000
0000
0000
0000
0000
0000
0000
0000
0000
0000
0000
0000
0000
0000
0000
0000
0000
0000
0000
0000
0000
0000
0000
0000
2000
0000
0000
0000
0000
0003
0000
0000
0000
0000
0000
0000
0000
0000
0000
0000
0000
0000
0000
0000
0000
0000
0000
0000
0000
0000
0000
0000
0000
0000
0000
0000
0000
0000
0000
0000
0000
0000
0000
0000
0000
0000
0000
0000
0000
0000
0000
0000
3020
0000
0000
0000
0000
0000
0000
0000
0000
0000
0000
0000
0000
0000
0000
0000
0000
0000
0000
0000
0000
0000
0000
0000
0000
0000
0000
0000
0000
0000
0000
0000
0000
0000
0000
0000
0000
0000
0000
0000
0000
0000
0000
0000
0000
0000
0000
0000
,
0130
0001
1000
0001
,
0010
0100
0010
0001
,
1000
0001
0100
0010
,
0000
2001
0000
0000
3010
0100
0001
1000
,
0001
0000
0000
0000
;

//---------------dance-single - MEGAtive----------------
#NOTEDATA:;
#CHARTNAME:;
#CHARTHASH:1689633445:
#STEPSTYPE:dance-single;
#BANNER:;
#DESCRIPTION:MEGAtive;
#CHARTSTYLE:;
#DIFFICULTY:Medium;
#METER:9;
#METERF:0.000000;
#RADARVALUES:0.366177,0.352445,0.078386,0.352739,0.043113,327.000000,317.000000,10.000000,45.000000,0.000000,0.000000,0.000000,0.000000,0.000000,0.366177,0.352445,0.078386,0.352739,0.043113,327.000000,317.000000,10.000000,45.000000,0.000000,0.000000,0.000000,0.000000,0.000000;
#CREDIT:MEGAtive;
#NOTES:
0000
0000
0000
0000
,
0000
0000
0000
0000
,
0000
0000
0000
0000
,
1000
0000
0001
0000
0000
0100
0010
1000
,
0002
0000
0013
0100
1000
0000
0000
0000
,
0001
0010
0100
0010
0001
1000
0001
0100
,
0010
1000
0010
0100
0001
1000
0001
0010
,
0100
1000
0001
1000
0100
0010
0001
1000
,
0001
0100
0010
0100
0001
1000
0001
0010
,
0100
0000
0000
0000
0000
1001
0000
0000
0000
0000
0000
0000
1000
0000
0000
0000
0000
0000
1000
0000
0000
0000
0000
0000
,
0010
0000
0000
0000
0000
1001
0000
0000
0000
0000
0000
0000
0001
0000
0000
0000
0000
0000
0001
0000
0000
0000
0000
0000
,
0010
0000
0000
0000
0000
1001
0000
0000
0000
0000
0000
0000
1000
0000
0000
0000
0000
0000
1000
0000
0000
0000
0000
0000
,
0010
0000
0000
0000
0000
1001
0000
0000
0000
0000
0000
0000
0001
0000
0000
0000
0000
0000
0001
0000
0000
0100
0000
0000
,
0010
1000
0001
0000
1000
0100
0010
0000
,
0100
1000
0001
0000
0100
0010
1000
0000
,
0001
1000
0200
0000
0320
0000
0130
1000
,
0001
0100
0010
0000
1000
0001
0010
0000
,
0021
0000
1030
0000
0010
0100
1000
0000
,
1020
0000
0031
0000
0010
0100
0001
0000
,
0021
0000
1030
0000
0010
0100
1000
0000
,
1020
0000
0031
0000
0010
0100
0001
1000
,
0020
0130
0020
1030
0001
0100
0010
1000
,
0200
0310
0200
1300
0001
0010
0100
1000
,
0001
0100
1000
0100
0001
0010
1000
0010
,
0001
0001
0100
0100
0010
0010
1000
1000
,
0200
0000
0300
1001
,
2000
0000
0000
3020
0000
0000
0000
0000
0130
0001
0000
0000
0010
0000
0000
0100
0000
0000
0010
0000
0000
0001
0000
0000
,
2000
0000
0000
3200
0000
0000
0000
0000
0310
0001
0000
0000
0100
0000
0000
1000
0000
0000
0100
0000
0000
0010
0000
0000
,
2000
3001
0200
0301
2000
3001
0020
0130
,
2000
0001
0001
3001
0200
0310
0002
0013
,
2000
0000
0000
3002
0000
0000
0000
0000
0013
0100
0000
0000
1000
0000
0000
0001
0000
0000
1000
0000
0000
0200
0000
0000
,
0310
0002
0203
0320
1030
0200
0302
0203
,
0310
0001
0200
0000
0310
1000
0001
0010
,
0200
2300
3002
2003
3010
0010
0100
0100
,
0001
0010
1000
0010
0001
0010
0100
1000
,
0010
0000
0000
0001
0000
0000
0010
0000
0000
1000
0000
0000
0010
0000
0000
0001
0000
0000
0010
0000
0000
0100
0000
0010
,
1000
0100
0001
0100
1000
0100
0010
0001
,
0100
0000
0000
0010
0000
0000
0100
0000
0000
1000
0000
0000
0100
0000
0000
0010
0000
0000
0100
0000
0000
0001
0000
0010
,
0001
1000
0100
0001
0100
1000
0010
0100
,
0001
0100
1000
0100
0010
1000
0001
0010
,
0100
1000
0100
0001
0100
0010
0001
0100
,
0010
0000
0000
1000
0000
0000
0010
0000
0000
0100
0000
0001
0000
0000
0000
0000
0000
0000
0000
0000
0000
0000
0000
0000
,
1000
0001
0010
0100
0010
0001
0200
0000
,
0301
1000
0010
0100
0010
1000
0200
0000
,
0310
0001
1000
0001
0100
0010
2000
0000
,
3002
0000
0000
0000
0103
0010
0100
1000
,
0100
0001
0010
0100
0010
0001
2000
0000
,
3100
0010
0001
0100
0010
0100
0002
0000
,
1003
0010
0100
0001
0010
0100
0020
0000
,
0030
0000
0000
1002
0000
0000
0000
0000
0000
0013
0000
0000
0100
0000
0000
1000
0000
0000
0010
0000
0000
0100
0000
1000
;

//---------------dance-single - MEGAtive----------------
#NOTEDATA:;
#CHARTNAME:;
#CHARTHASH:2147483647:
#STEPSTYPE:dance-single;
#BANNER:;
#DESCRIPTION:MEGAtive;
#CHARTSTYLE:;
#DIFFICULTY:Hard;
#METER:12;
#METERF:0.000000;
#RADARVALUES:0.559904,0.549163,0.415448,0.595737,0.419368,500.000000,447.000000,53.000000,76.000000,0.000000,0.000000,0.000000,0.000000,0.000000,0.559904,0.549163,0.415448,0.595737,0.419368,500.000000,447.000000,53.000000,76.000000,0.000000,0.000000,0.000000,0.000000,0.000000;
#CREDIT:MEGAtive;
#NOTES:
// measure 0
0000
0000
0000
0000
,  // measure 1
0000
0000
0000
0000
,  // measure 2
0000
0000
0000
0000
,  // measure 3
0001
0000
0000
1000
0000
0010
0000
0000
0000
1000
0000
0100
0000
0000
0000
0011
0000
0000
1001
0000
0000
1000
0000
0000
,  // measure 4
2010
0000
3010
1000
0100
0000
0000
0000
,  // measure 5
0012
0000
0000
1000
0000
0000
0100
0000
0000
1000
0000
0000
0013
0000
0001
0010
0000
0100
1000
0000
0000
0001
0000
0000
,  // measure 6
2000
0000
0000
0010
0000
0000
0001
0000
0000
0100
0000
0000
3001
0000
0100
0010
0000
1000
0001
0000
0000
0010
0000
0000
,  // measure 7
1002
0000
0000
0100
0000
0000
1000
0000
0000
0010
0000
0000
1003
0000
0100
0010
0000
0001
1000
0000
0000
0010
0000
0000
,  // measure 8
2000
0000
0000
0001
0000
0000
0100
0000
0000
0001
0000
0000
3010
0000
1000
0010
0000
0100
0001
0000
0000
1000
0000
0000
,  // measure 9
2200
0000
0000
3300
0000
1100
0000
0000
0000
0001
0000
0000
1000
0000
0000
0100
0000
0000
1000
0000
0000
0001
0000
0000
,  // measure 10
0202
0000
0000
0303
0000
0101
0000
0000
0000
1000
0000
0000
0001
0000
0000
0100
0000
0000
0001
0000
0000
1000
0000
0000
,  // measure 11
2200
0000
0000
3300
0000
1100
0000
0000
0000
0001
0000
0000
0010
0000
0000
0100
0000
0000
1000
0000
0000
0001
0000
0000
,  // measure 12
0202
0000
0000
0303
0000
0101
0000
0000
0000
1000
0000
0000
0010
0000
0000
0100
0000
0000
0001
0000
1000
0001
0000
0010
,  // measure 13
0100
0000
0000
1000
0000
0000
0100
0000
0000
0010
0000
0001
1000
0000
0000
0010
0000
1000
0001
0000
0000
0010
0000
0000
,  // measure 14
0010
0000
0000
0001
0000
0000
0010
0000
0000
0100
0000
1000
0001
0000
0000
0100
0000
0001
1000
0000
0000
0100
0000
0000
,  // measure 15
0010
0000
0000
0001
0000
0000
0200
0000
0000
0001
0000
0000
0320
0000
0000
1000
0000
0000
0230
0000
0000
0301
0000
1000
,  // measure 16
0200
0010
2300
0001
3200
0010
2300
3001
,  // measure 17
0101
0000
0000
1000
0000
0010
2000
0000
0000
0000
0000
0000
0001
0000
0000
0001
0000
0000
3001
0000
0000
1000
0000
0000
,  // measure 18
1100
0000
0000
0001
0000
0010
0002
0000
0000
0000
0000
0000
1000
0000
0000
1003
0000
0001
0010
0000
0100
1000
0000
0000
,  // measure 19
1010
0000
0000
0001
0000
0100
0002
0000
0000
0000
0000
0000
1000
0000
0000
1000
0000
0000
1003
0000
0000
0001
0000
0000
,  // measure 20
0011
0000
0000
1000
0000
0100
2000
0000
0000
0000
0000
0000
0001
0000
0000
3001
0000
1000
0010
0000
0100
0001
0000
0000
,  // measure 21
1000
0000
0000
0100
0000
0000
0010
0000
0000
0100
0000
0010
0001
0000
0000
1000
0000
0001
0100
0000
0000
0010
0000
0000
,  // measure 22
1000
0000
0000
0010
0000
0000
0100
0000
0000
0010
0000
0100
0001
0000
0000
1000
0000
0001
0010
0000
0000
0100
0000
0000
,  // measure 23
2000
0010
3002
0100
2003
0100
3002
0013
,  // measure 24
0011
0001
1001
1000
1010
0010
0110
0100
,  // measure 25
0020
0000
0030
1001
,  // measure 26
0001
0000
0000
1000
0000
0000
0100
0000
0000
0020
0000
0000
0000
0000
0000
0000
0031
0000
1000
0000
0000
0000
0100
0000
1000
0000
0000
0000
0001
0000
1000
0000
0000
0000
0010
0000
0100
0000
0000
0000
0001
0000
0020
0000
0000
0000
0000
0000
,  // measure 27
0130
0000
0000
1000
0000
0000
0001
0000
0000
0200
0000
0000
0000
0000
0000
0000
0301
0000
1000
0000
0000
0000
0200
0000
0000
0000
0000
0000
0000
0000
0301
0000
0000
0000
0000
0000
0100
0000
0000
0000
1000
0000
0100
0000
0000
0000
0010
0000
,  // measure 28
0001
0000
0000
0100
0000
0000
1000
0000
0100
0010
0000
1000
0001
0000
0000
0010
0000
0000
1000
0000
0010
0100
0000
1000
,  // measure 29
0001
0000
0000
0100
0000
0000
0010
0000
1000
0100
0000
0010
0001
0000
0000
1000
0000
0000
1010
0000
0000
0001
0000
0000
,  // measure 30
1000
0000
0000
0001
0000
0000
0010
0000
0000
0200
0000
0000
0000
0000
0000
0300
1000
0000
0001
0000
0000
0000
0010
0000
0001
0000
0000
0000
1000
0000
0001
0000
0000
0000
0100
0000
0010
0000
0000
0000
1000
0000
0200
0000
0000
0000
0000
0000
,  // measure 31
0010
0000
0000
2300
0000
0000
3020
0000
0000
0230
0000
0000
1000
0000
0000
0302
0000
0000
0013
0000
0100
1000
0000
0000
,  // measure 32
1010
0000
0000
0010
0000
0100
0010
0000
0000
1000
0000
0001
1000
0000
0000
0001
0000
0010
0001
0000
0000
1000
0000
0001
,  // measure 33
2000
3002
0023
0230
1300
1000
0001
0001
,  // measure 34
2010
0000
0000
3001
0000
0000
2100
0000
0000
3001
0000
0000
2010
0000
0000
3001
0000
0000
1100
0000
1000
0100
0000
0010
,  // measure 35
0002
0000
0000
1003
0000
0000
0102
0000
0000
1003
0000
0000
0012
0000
0000
1003
0000
0000
0101
0000
0100
0001
0000
1000
,  // measure 36
0200
0000
0000
0310
0000
0000
2100
0000
0000
3001
0000
0000
1200
0000
0000
0310
0000
0000
1100
0000
0100
1000
0000
0001
,  // measure 37
0200
0000
0000
0310
0000
0000
0102
0000
0000
0013
0000
0000
0201
0000
0000
0310
0000
0000
0101
0000
0001
1000
0000
0100
,  // measure 38
2000
0000
0000
3001
0000
0000
2010
0000
0000
3001
0000
0000
2100
0000
0000
3001
0000
0000
1010
0000
1000
0010
0000
0100
,  // measure 39
0002
0000
0000
1003
0000
0000
0012
0000
0000
1003
0000
0000
0102
0000
0000
1003
0000
0000
0011
0000
0010
0001
0000
1000
,  // measure 40
0020
0000
0000
0130
0000
0000
2010
0000
0000
3001
0000
0000
1020
0000
0000
0130
0000
0000
1010
0000
0010
1000
0000
0001
,  // measure 41
0020
0000
0000
0130
0000
0000
0011
0000
0001
2000
0000
3010
0000
0000
0000
0000
0000
0000
0000
0000
0000
0000
0000
0000
,  // measure 42
2001
0000
0000
3010
0000
0100
0001
0000
0000
1000
0000
0001
0010
0000
0000
0001
0000
1000
0010
0000
0000
1000
0000
0001
,  // measure 43
0100
0000
0000
0010
0000
1000
0001
0000
0000
0010
0000
0100
1000
0000
0000
0001
0000
1000
0010
0000
0000
0100
0000
0000
,  // measure 44
0120
0000
0000
1030
0000
0001
0010
0000
0000
0100
0000
0010
0001
0000
0000
1000
0000
0001
0100
0000
0000
0010
0000
1000
,  // measure 45
0002
0010
1000
0100
2003
0010
3002
0010
,  // measure 46
1003
0000
0000
0100
0000
0010
0001
0000
0000
1000
0000
0001
0100
0000
0000
0010
0000
0100
0001
0000
0000
1000
0000
0100
,  // measure 47
0010
0000
0000
0001
0000
1000
0010
0000
0000
0100
0000
0010
1000
0000
0000
0001
0000
1000
0100
0000
0000
0010
0000
0000
,  // measure 48
1002
0000
0000
0103
0000
0010
1000
0000
0000
0001
0000
1000
0100
0000
0000
0010
0000
0100
1000
0000
0000
0002
0000
0000
,  // measure 49
0003
0000
0000
0202
0000
0000
0003
0000
1300
0100
0000
0010
0100
0000
0000
0101
0000
0000
1001
0000
0001
0010
0000
2000
,  // measure 50
0000
3000
0000
0000
0000
0000
0000
0000
0000
0000
0000
0000
0000
0000
0000
0000
0000
0000
0000
0000
0000
0000
0000
0000
;
