#TITLE:Magic Alec Presents Resonance;
#SUBTITLE:;
#ARTIST:Magic Alec;
#TITLETRANSLIT:;
#SUBTITLETRANSLIT:;
#ARTISTTRANSLIT:;
#GENRE:;
#CREDIT:;
#MUSIC:Magic Alec Presents Resonance.mp3;
#BANNER:Magic Alec Presents Resonance.png;
#BACKGROUND:Magic Alec Presents Resonance-bg.png;
#CDTITLE:;
#SAMPLESTART:0.010;
#SAMPLELENGTH:12.000;
#SELECTABLE:YES;
#OFFSET:-0.077;
#BPMS:0.000=140.130;
#STOPS:;
#DISPLAYBPM:140.000;
#BGCHANGES:;
#FGCHANGES:;

//--------------- dance-single - OrangeRight ----------------
#NOTES:
     dance-single:
     OrangeRight:
     Beginner:
     3:
     0,0,0,0,0:
0000
0000
0000
0000
,
0000
0000
0000
0000
,
0000
0000
0000
0000
,
0000
0000
0000
0000
,
1000
1000
0000
0000
,
0001
0001
0000
0000
,
1000
1000
0000
0000
,
1001
0000
1001
0000
,
1000
1000
0000
0000
,
0100
0100
0000
0000
,
0010
0010
0000
0000
,
0001
0000
1000
0000
,
0001
0001
0000
0000
,
1000
1000
0000
0000
,
0100
0100
0000
0000
,
0010
0000
0001
0000
,
1000
0000
0010
0000
,
0100
0000
0001
0000
,
0010
0000
0100
0000
,
1000
1000
1000
0000
,
0001
0000
0100
0000
,
0010
0000
1000
0000
,
0100
0000
1000
0000
,
1001
0000
1001
0000
,
1000
1000
0000
0000
,
0100
0000
1000
0000
,
0001
0001
0000
0000
,
0100
0000
0001
0000
,
1000
1000
0000
0000
,
0010
0010
0000
0000
,
0100
0100
0000
0000
,
0002
0000
0003
0000
,
1000
0000
1000
0000
,
0100
0000
1000
0000
,
0001
0000
0001
0000
,
0100
0000
0001
0000
,
1000
0000
0001
0000
,
0010
0000
0100
0000
,
1000
0000
0001
0000
,
1001
0000
1001
0000
,
1000
0000
1000
0000
,
1000
0000
1000
0000
,
0001
0000
0001
0000
,
0001
0000
0001
0000
,
0100
0000
0100
0000
,
0100
0000
0100
0000
,
0010
0000
0010
0000
,
0010
0000
0010
0000
,
1000
0000
1000
0000
,
0001
0000
0001
0000
,
0010
0000
0010
0000
,
0100
0000
0100
0000
,
1000
0000
0010
0000
,
0100
0000
0001
0000
,
0010
0000
0100
0000
,
1000
0001
1000
0001
,
1001
0000
0000
0000
;

//--------------- dance-single - OrangeRight ----------------
#NOTES:
     dance-single:
     OrangeRight:
     Easy:
     5:
     0,0,0,0,0:
0000
0000
0000
0000
,
0000
0000
0000
0000
,
0000
0000
0000
0000
,
0000
0000
0000
0000
,
1000
1000
0000
0000
,
0001
0001
0000
0000
,
1000
0001
0000
0000
,
0001
1000
0001
1000
,
0001
0001
0000
1000
,
0100
0100
0000
0010
,
0001
0001
0000
1000
,
0010
0010
0000
0100
,
0001
1000
0000
0100
,
1000
0001
0000
0100
,
0001
1000
0000
0010
,
0100
0001
0010
0100
,
1000
1000
0001
1000
,
0100
0100
0010
0100
,
1000
1000
0001
0100
,
0010
1000
0001
0010
,
0001
0001
1000
0001
,
0010
0010
0100
0010
,
0001
0001
1000
0001
,
1001
1001
1001
0000
,
1000
0100
0010
0100
,
1000
0010
0100
0010
,
1000
0001
0010
0001
,
1000
0001
0001
1000
,
0001
0100
0010
0100
,
0001
0010
0100
0010
,
0001
0100
0010
0000
,
2000
3000
0002
0003
,
1000
0100
0010
0000
,
0100
0010
0001
0000
,
0010
0001
0100
0000
,
0001
1000
0100
0000
,
1000
1000
1000
0000
,
0001
0001
0001
0000
,
1000
0000
0001
0000
,
1001
1001
1001
0000
,
1000
0000
0000
0001
0000
0000
1000
0000
,
0000
0001
0000
0000
0100
0000
0010
0000
,
1000
0000
0000
0001
0000
0000
1000
0000
,
0000
0001
0000
0000
0010
0000
0100
0000
,
1000
0000
0000
0010
0000
0000
0100
0000
,
0000
0010
0000
0000
1000
0000
1000
0000
,
0001
0000
0000
0010
0000
0000
0100
0000
,
0000
0010
0000
0000
0001
0000
0001
0000
,
1000
0010
1000
0100
,
0010
0000
0001
0000
0100
0001
0100
0000
,
0001
0010
0001
0100
,
0010
0000
1000
0000
0100
1000
0100
0000
,
1000
0001
0100
0010
,
1000
0000
0001
0000
0010
0100
0010
0000
,
0001
1000
0010
0100
,
0001
1000
0001
0000
1000
0001
1000
0000
,
2002
0000
0000
3003
;

//--------------- dance-single - OrangeRight ----------------
#NOTES:
     dance-single:
     OrangeRight:
     Medium:
     9:
     0,0,0,0,0:
0000
0000
0000
0000
,
0000
0000
0000
0000
,
0000
0000
0000
0000
,
0000
0000
0000
0000
,
1000
0000
0100
0000
0000
1000
0001
0100
,
0001
0000
0010
0100
0000
0100
1000
0000
,
0001
0000
0010
0000
0000
0001
1000
0010
,
1000
1100
1001
0101
,
0001
0001
0010
0000
0100
1000
0100
0000
,
1000
0000
0001
0100
0000
0100
0010
0000
,
1000
1000
0100
0000
0010
0001
0010
0000
,
0001
0000
1000
0010
0000
0100
0001
0000
,
1000
0001
1000
0000
0010
0100
0001
0000
,
0010
0000
0100
1000
0000
0001
0100
0000
,
0001
1000
0001
0000
0100
0010
1000
0000
,
0001
0010
0001
0000
1000
0010
1000
0010
,
2000
0000
3001
0000
0001
0100
0001
0000
,
0002
0000
1003
0000
1000
0010
1000
0000
,
2000
0000
3001
0000
1000
0100
0010
0000
,
0001
0000
1001
0000
0000
0001
0100
0010
,
2000
0000
3001
0000
0001
1000
0100
0000
,
0020
0000
0031
0000
0001
0100
0010
0000
,
0200
0000
0301
0000
0100
0001
1000
0000
,
1001
0110
0110
1001
,
1000
0100
0010
0100
1000
0000
0001
0000
,
1000
0010
0100
0010
1000
0000
0001
0000
,
1000
0001
0010
0001
1000
0000
0010
0000
,
0100
0001
1000
0000
0010
0100
0010
0100
,
0001
0010
0100
0010
0001
0000
0010
0000
,
0100
1000
0100
0010
0100
0000
1000
0000
,
0001
1000
0001
1000
0001
0000
0100
0000
,
0010
0010
1000
0000
0100
0000
0010
0000
,
0002
0000
0100
0000
0103
0001
0010
0000
,
0200
0000
1000
0000
1300
0010
0100
0000
,
0020
0000
1000
0000
1030
0100
0010
0000
,
0002
0000
1000
0000
1003
0001
1000
0001
,
1000
1000
0010
0000
0100
0000
0001
0000
,
0010
0010
0100
0000
1000
0000
0001
0000
,
0100
0100
0001
0000
1000
0000
0100
0000
,
1000
1001
1001
1001
,
1000
0000
0100
0010
0000
0100
1000
0000
,
0100
0001
0000
0100
1000
0001
1000
0000
,
0001
0000
0100
0010
0000
0100
0001
0000
,
0100
1000
0000
0100
0001
1000
0001
0000
,
1000
0000
0010
0100
0000
0010
0001
0000
,
0010
0100
0000
0010
1000
0100
0010
0000
,
0001
0000
0100
1000
0000
0100
0010
0000
,
0100
0001
0000
0001
0010
0100
1000
0000
,
0001
0000
0001
1000
0001
1000
0100
0000
,
1000
0000
1000
0001
1000
0001
0100
0000
,
0001
0000
0001
0010
0001
0010
0100
0000
,
1000
0000
1000
0010
0100
0010
1000
0000
,
0001
1000
1000
0001
1000
1000
0001
1000
,
1000
0001
1000
1000
0001
1000
0001
0000
,
1000
0100
0100
0010
0001
0001
1000
0010
,
0010
0100
0001
0001
1000
0001
1000
0000
,
2002
0000
0000
3003
;

//--------------- dance-single - OrangeRight ----------------
#NOTES:
     dance-single:
     OrangeRight:
     Hard:
     12:
     0,0,0,0,0:
0000
0000
0000
0000
,
0000
0000
0000
0000
,
0000
0000
0000
0000
,
0000
0000
0000
0000
,
1000
0010
0010
0100
0001
0010
0001
0000
,
0001
0010
0010
0001
0100
0010
1000
0000
,
0100
0010
0010
0100
1000
0001
1000
0000
,
1001
0110
0110
1001
,
1000
0000
0100
1000
0100
0000
1000
0000
0010
0000
0100
0000
0100
0000
0000
0000
,
0001
0000
0010
0001
0010
0000
0001
0000
0100
0000
0010
0000
0010
0000
0000
0000
,
1000
0000
0010
1000
0010
0000
0100
0000
0010
0000
1000
0000
1000
0000
0000
0000
,
0001
0000
0100
0001
0100
0000
0010
0000
0100
0000
0001
0000
0001
0000
0000
0000
,
1000
0000
0100
0000
0010
0000
0001
0100
0000
0001
0100
0000
0010
0000
0000
0000
,
1000
0000
0010
0000
0100
0000
0001
0010
0000
0001
0010
0000
0100
0000
0000
0000
,
1000
0000
0001
0000
1000
0000
0010
0100
0000
0100
0010
0000
1000
0000
0001
0000
,
0100
0000
0010
0000
0100
0000
0001
1000
0000
1000
0001
0000
0010
0000
0100
0000
,
1100
0000
1010
0000
1000
0100
0010
0001
,
0101
0000
0011
0000
0001
0100
0010
1000
,
1100
0000
1001
0000
0001
0100
1000
0100
,
0101
0000
1001
0000
0001
0001
1000
1000
,
1002
0000
0103
0000
0100
0010
1000
0001
,
2001
0000
3100
0000
0100
0010
0001
0100
,
0120
0000
1030
0000
0010
1000
0100
0010
,
0011
0101
1010
1100
,
1000
0100
0010
0100
1000
0010
0100
0001
,
0010
0100
0010
0001
0100
0010
1000
0001
,
1000
0100
0001
0100
1000
0010
0100
0001
,
1000
0000
0010
0000
0100
0000
0000
0100
0001
0000
0001
0000
1000
0000
1000
0000
,
0001
0000
0010
0000
0010
0000
0001
0100
0000
0100
0001
0000
1000
0000
0000
0000
,
1000
0000
0100
0000
0100
0000
1000
0010
0000
0010
1000
0000
0001
0000
0000
0000
,
0001
0010
1000
0010
0001
0100
0010
1000
,
0001
0000
0000
0000
0001
0000
0000
0001
1000
0000
1000
0000
0001
0000
0001
0000
,
2000
0010
0001
0100
,
3010
0000
1000
0000
0010
0000
0000
0100
0001
0000
0100
0000
0001
0000
0000
0000
,
0002
0010
1000
0100
,
0013
0000
0001
0000
0100
0000
0000
0010
1000
0000
0100
0000
1000
0000
0000
0000
,
0100
0000
0000
1000
0000
0000
0010
0000
0100
0000
0001
0000
1000
0000
0001
0000
,
0010
0000
0000
0001
0000
0000
0100
0000
0010
0000
1000
0000
0001
0000
1000
0000
,
0100
0000
0000
0010
0000
0000
0100
0000
1000
0000
0001
0000
1000
0000
0010
0000
,
1000
0100
1100
0000
1001
0000
1010
0000
,
0010
1000
1000
0001
1000
1000
0100
1000
,
1000
0001
1000
1000
0010
1000
0100
0000
,
0010
0001
0001
1000
0001
0001
0100
0001
,
0001
1000
0001
0001
0010
0001
0100
0010
,
1000
0010
0001
0001
0010
1000
1000
0010
,
0001
0001
0010
1000
1000
0001
1000
0000
,
0001
0100
1000
1000
0100
0001
0001
0100
,
1000
1000
0100
0001
1000
0001
0010
0001
,
1000
0000
0010
1000
0010
0000
0100
0000
0100
0000
0001
0000
0001
0000
0000
0000
,
0001
0000
0010
0001
0010
0000
0100
0000
0100
0000
1000
0000
1000
0000
0000
0000
,
1000
0000
0010
0100
0010
0000
1000
0000
0100
0000
0010
0000
0010
0000
0000
0000
,
0001
0000
0100
0010
0100
0000
0001
0000
0010
0000
0100
0000
0100
0000
0000
0000
,
1000
0010
0001
0001
0010
1000
1000
0100
,
0001
0001
0100
1000
1000
0001
0100
0010
,
1000
0010
0001
1000
0100
0001
1000
0100
,
0001
0000
1000
0000
0010
0000
0001
0000
0100
0000
0010
0000
1000
0001
1000
0000
,
2002
0000
0000
3003
;

//--------------- dance-single - OrangeRight ----------------
#NOTES:
     dance-single:
     OrangeRight:
     Challenge:
     15:
     0,0,0,0,0:
0000
0000
0000
0000
,
0000
0000
0000
0000
,
0000
0000
0000
0000
,
0000
0000
0000
0000
,
1000
0000
0100
1000
0100
0000
1000
0000
0001
0000
1000
0000
0010
0000
1000
0000
,
0001
0000
0010
0001
0010
0000
0001
0000
1000
0000
0001
0000
0100
0000
0001
0000
,
1000
0000
0010
0100
0010
0000
1000
0000
0100
0000
0010
0000
0001
0000
0100
0000
,
0110
0000
0000
0000
1001
0000
0000
0001
1000
0001
1000
0001
0010
0100
0010
0100
,
2000
0000
0001
0000
3001
0000
1000
0100
0000
0100
0010
0000
0001
0000
0100
0000
,
0002
0000
1000
0000
1003
0000
0001
0100
0000
0100
0010
0000
0100
0000
0001
0000
,
0020
0000
0001
0000
0031
0000
0010
0001
0000
0001
0100
0000
0010
0000
1000
0000
,
0200
0000
1000
0000
1300
0000
0100
1000
0000
0010
0100
0000
0001
0000
1000
0000
,
0002
0000
1000
0000
1003
0000
0001
0010
0000
0100
1000
0000
0001
0000
0001
0000
,
2000
0000
0001
0000
3001
0000
1000
0010
0000
0100
0001
0000
1000
0000
1000
0000
,
0200
0000
0010
0000
0310
0000
0100
1000
0000
1000
0010
0000
0100
0000
0001
0000
,
0020
0000
0100
0000
0130
0000
0010
0001
0100
0010
0100
0010
1000
0001
1000
0001
,
1000
0000
0010
1000
0010
0000
1000
0100
0000
0010
0001
0000
1000
0100
1000
0000
,
0001
0000
0100
0001
0100
0000
0001
0010
0000
0100
1000
0000
0010
1000
0010
0000
,
0100
0000
0001
1000
0001
0000
0010
0100
0000
0010
0100
0000
1000
0001
1000
0000
,
0010
0000
1000
0001
1000
0000
0001
0010
0001
0000
0011
0000
1000
0000
1100
0000
,
0100
0000
1000
0010
1000
0000
0100
0010
0000
0010
0001
0000
0100
0010
0100
0000
,
0010
0000
1000
0100
1000
0000
0010
0100
0000
0100
0001
0000
1000
0001
1000
0000
,
0010
0000
1000
0100
1000
0000
0010
0100
0000
0100
0001
0000
0010
0100
0010
0000
,
0110
0000
0000
0000
1001
0000
0000
1000
0001
0100
0010
1000
0100
0010
0001
0000
,
1000
0000
0010
1000
0010
0000
0100
0010
0000
0100
0010
0000
0100
0001
0100
0001
,
0010
0000
0100
0010
0100
0000
1000
0100
0000
1000
0010
0100
0001
0100
0010
1000
,
0001
0000
0010
0001
0010
0000
0100
0010
0000
0100
0010
0000
0100
1000
0100
1000
,
0010
0000
0100
0010
0100
0000
0001
0100
0001
0000
1001
0000
1000
0000
1100
0000
,
1000
0000
0100
1000
0010
0000
0100
0001
0000
1000
0100
0010
0001
0010
0100
1000
,
0001
0000
0010
0001
0100
0000
0010
1000
0000
0001
0010
0100
1000
0100
0010
0001
,
1000
0000
0010
0100
0010
0000
1000
0000
0010
0000
0100
0000
0001
0000
0010
0000
,
0001
0000
0100
0000
0010
0000
0000
1000
0001
0000
1000
0000
0001
0000
1000
0000
,
1002
0000
0000
1000
0000
0000
0013
0001
1000
0000
0100
0000
1000
0000
0001
0000
,
2001
0000
0000
0001
0000
0000
3100
1000
0001
0000
0100
0000
0001
0000
0010
0000
,
0012
0000
0000
1000
0000
0000
0103
0001
0000
0001
0010
0000
0100
0000
1000
0000
,
2100
0000
0000
0001
0000
0000
3010
1000
0001
0000
0101
0000
1000
0000
1100
0000
,
1000
0000
0001
0100
0010
0000
1000
0000
0100
0000
0001
0000
0100
0000
1000
0000
,
0001
0000
1000
0010
0100
0000
0001
0000
0010
0000
1000
0000
0010
0000
0001
0000
,
0100
0000
0010
1000
0100
0000
1000
0000
0010
0000
0100
0000
0010
0000
0001
0000
,
0010
0000
1000
0010
0100
0000
0001
0010
0100
0000
1100
0000
1000
0000
1010
0000
,
1000
0100
01M0
0001
0010
0M10
1000
0100
,
01M0
0001
0010
0M10
1000
0100
0001
0100
,
1000
0010
0M10
0001
0100
01M0
1000
0010
,
0M10
0000
0001
0000
0100
0000
01M0
0000
1000
0000
0001
0000
1000
0001
1000
0001
,
1000
0001
0010
0M10
1000
0100
01M0
0001
,
0010
0M10
1000
0001
0100
1000
0100
0001
,
0001
1000
0100
01M0
0001
0010
0M10
1000
,
0100
01M0
0001
0100
1000
0100
0001
1000
,
0001
0000
0010
0000
0100
0000
1000
0001
1000
0001
1000
0001
1000
0000
0001
0000
,
1000
0000
0010
0000
0100
0000
0001
0100
0001
0100
0001
0100
0001
0000
0010
0000
,
0100
0000
1000
0100
1000
0000
0001
0100
0010
1000
0010
0100
0001
0000
1000
0000
,
0001
0000
1000
0100
1000
0000
0001
0010
0100
1000
0100
0010
0001
1000
0001
1000
,
0001
0000
0010
0000
0M10
0000
1000
0010
1000
0001
1000
0100
0010
0000
0001
0000
,
1000
0000
0100
0000
01M0
0000
0001
0010
0001
1000
0001
0100
0001
0000
1000
0000
,
0001
0000
0100
0000
01M0
0000
1000
0001
1000
0001
0010
0100
0010
0100
1000
0010
,
0100
0001
0010
0100
1000
0010
0100
0010
1000
0100
1000
0001
1000
0010
1000
0002
,
2000
0000
0000
3003
;

//--------------- dance-double - OrangeRight ----------------
#NOTES:
     dance-double:
     OrangeRight:
     Easy:
     5:
     0,0,0,0,0:
00000000
00000000
00000000
00000000
,
00000000
00000000
00000000
00000000
,
00000000
00000000
00000000
00000000
,
00000000
00000000
00000000
00000000
,
10000000
10000000
00000000
00000000
,
00010000
00010000
00000000
00000000
,
10000000
10000000
00000000
00000000
,
10010000
00000000
10000000
00010000
,
01000000
01000000
00010000
00000000
,
00010000
00010000
00100000
00000000
,
00100000
00100000
00001000
00000000
,
00001000
00010000
00000100
00001000
,
00000010
00000010
00001000
00000000
,
00001000
00001000
00000100
00000000
,
00000100
00000100
00010000
00000000
,
00001000
00100000
00010000
00100000
,
00010000
01000000
00010000
01000000
,
00100000
10000000
00100000
10000000
,
01000000
00100000
01000000
00100000
,
00010000
01000000
00001000
00010000
,
00000100
00001000
00000100
00001000
,
00000010
00001000
00000010
00001000
,
00000010
00000100
00000010
00000100
,
00000110
00000000
00000100
00000010
,
00001000
00000100
00010000
00010000
,
00001000
01000000
00010000
00010000
,
00100000
00001000
00010000
00010000
,
00000010
00001000
00000100
00000010
,
00000001
00000100
00000001
00000100
,
00000010
00001000
00000010
00001000
,
00000100
00010000
00001000
00000000
,
00100000
00000000
00010000
00000000
,
10000000
10000000
01000000
00000000
,
00100000
00100000
00010000
00000000
,
01000000
01000000
00001000
00000000
,
00010000
00010000
00000100
00000000
,
00001000
00000001
00001000
00000000
,
00000001
00000100
00000001
00000000
,
00001000
00000010
00001000
00000000
,
00000100
00010000
00001000
00100000
,
00010000
00000000
00000000
00010000
00000000
00000000
00010000
00000000
,
00000000
00010000
00000000
00000000
01000000
00000000
00000000
00000000
,
00001000
00000000
00000000
00001000
00000000
00000000
00001000
00000000
,
00000000
00001000
00000000
00000000
00010000
00000000
00000000
00000000
,
00000100
00000000
00000000
00000100
00000000
00000000
00000100
00000000
,
00000000
00000100
00000000
00000000
00001000
00000000
00000000
00000000
,
00000001
00000000
00000000
00001000
00000000
00000000
00000010
00000000
,
00000000
00000100
00000000
00000000
00000001
00000000
00000001
00000000
,
00001000
00000100
00010000
00010000
,
00001000
01000000
00010000
00010000
,
10000000
00100000
01000000
01000000
,
00010000
00100000
01000000
10000000
,
00010000
01000000
00001000
00001000
,
00010000
00000100
00001000
00001000
,
00000001
00000010
00001000
00001000
,
00000010
00000001
00001000
00000001
,
00002002
00000000
00000000
00003003
;

//--------------- dance-double - OrangeRight ----------------
#NOTES:
     dance-double:
     OrangeRight:
     Medium:
     9:
     0,0,0,0,0:
00000000
00000000
00000000
00000000
,
00000000
00000000
00000000
00000000
,
00000000
00000000
00000000
00000000
,
00000000
00000000
00000000
00000000
,
10000000
10000000
10000000
00000000
00000000
00000000
00000000
00000000
,
00000001
00000001
00000001
00000000
00000000
00000000
00000000
00000000
,
10000000
10000000
10000000
00000000
00010000
00000000
10000000
00000000
,
10010000
01100000
01100000
10010000
,
10000000
00000000
00100000
00000000
00000000
01000000
00010000
00000000
,
00100000
00000000
00010000
01000000
00000000
01000000
00001000
00000000
,
00010000
00000000
00000100
00000000
00000000
00001000
00000010
00000000
,
00000100
00000000
00000001
00001000
00000000
00000001
00000010
00000000
,
00000001
00000001
00000100
00000000
00000000
00000010
00001000
00000000
,
00000100
00000000
00001000
00000010
00000000
00000010
00010000
00000000
,
00001000
00001000
00100000
00000000
00000000
00010000
01000000
00000000
,
00100000
00100000
10000000
00000000
00010000
10000000
00010000
10000000
,
00020000
00100000
01030000
00010000
,
00200000
00001000
00310000
00100000
,
00001000
00010000
00001000
00000000
00010000
00000000
00000100
00000000
,
00001000
00000000
00000001
00000000
00001000
00000001
00001000
00000001
,
00002000
00000100
00003010
00001000
,
00000200
00010000
00001300
00000100
,
00001000
00000010
00000100
00000000
00000001
00000010
00000100
00000000
,
00000110
00001001
00001001
00000110
,
00000100
00001000
00000001
00001000
00000010
00000000
00010000
00000000
,
00001000
00010000
00001000
00100000
00010000
00000000
01000000
00000000
,
00100000
10000000
00010000
10000000
01000000
00000000
10000000
00000000
,
00010000
10000000
00010000
00000000
10000000
00010000
10000000
00010000
,
00100000
00010000
01000000
00010000
00100000
00000000
00001000
00000000
,
00010000
00001000
00010000
00000100
00001000
00000000
00000010
00000000
,
00000100
00000100
00000001
00000000
00001000
00000000
00000100
00000000
,
00001000
00001000
00000001
00000000
00000100
00000010
00000100
00000010
,
00002000
00000001
00003001
00001000
,
00000200
00010000
00010300
00000100
,
00020000
00001000
00031000
00010000
,
00002000
00100000
00103000
00001000
,
00100000
00010000
00100000
00000000
00010000
00000000
01000000
00000000
,
00100000
10000000
00100000
00000000
10000000
00000000
01000000
00000000
,
10000000
01000000
00100000
00000000
00010000
00000000
01000000
00000000
,
00010000
10010000
10010000
10010000
,
10000000
00000000
01000000
10000000
00000000
10000000
01000000
00000000
,
01000000
00100000
00000000
00100000
00010000
00100000
00001000
00000000
,
00010000
00000000
00001000
00010000
00000000
00010000
00001000
00000000
,
00010000
00000100
00000000
00000100
00001000
00000010
00001000
00000000
,
00000001
00000000
00000010
00000001
00000000
00000001
00000010
00000000
,
00000010
00000100
00000000
00000100
00001000
00000100
00010000
00000000
,
00001000
00000000
00010000
00001000
00000000
00001000
00010000
00000000
,
00001000
00100000
00000000
00100000
00010000
01000000
00100000
00000000
,
10000000
00000000
00100000
01000000
00100000
01000000
00010000
00000000
,
00100000
00000000
00010000
00100000
00010000
00100000
00001000
00000000
,
00010000
00000000
00001000
00010000
00001000
00010000
00000100
00000000
,
00001000
00000000
00000100
00001000
00000010
00000100
00000001
00000000
,
00001000
00000000
00000001
00000010
00000000
00000010
00000100
00000000
,
00000100
00001000
00000000
00000100
00010000
00001000
00100000
00000000
,
00010000
10000000
10000000
00010000
10000000
10000000
00010000
10000000
,
10000000
00100000
01000000
00010000
00100000
01000000
10000000
00000000
,
20020000
00000000
00000000
30030000
;

//--------------- dance-double - OrangeRight ----------------
#NOTES:
     dance-double:
     OrangeRight:
     Hard:
     11:
     0,0,0,0,0:
00000000
00000000
00000000
00000000
,
00000000
00000000
00000000
00000000
,
00000000
00000000
00000000
00000000
,
00000000
00000000
00000000
00000000
,
10000000
10000000
10000000
01000000
00100000
00010000
01000000
00000000
,
00010000
00010000
00010000
00100000
00001000
00010000
00001000
00000000
,
00010000
00010000
00010000
00000100
00001000
00000010
00000100
00000000
,
00000110
00001001
00000110
00001001
,
00000002
00000100
00000103
00000001
00001000
00000100
00001100
00000000
,
00000200
00010000
00010300
00000100
00010000
00001000
00011000
00000000
,
00002000
00100000
00103000
00001000
00100000
00010000
01010000
00000000
,
00020000
10000000
10030000
00010000
01000000
00100000
10100000
00000000
,
20000000
01000000
31000000
10000000
00010000
00100000
00110000
00000000
,
00200000
00001000
00301000
00100000
00001000
00010000
00010100
00000000
,
00020000
00000010
00030010
00010000
00000100
00001000
00001010
00000000
,
00002000
00000001
00003001
00001000
00000001
00001000
00000001
00001000
,
00001001
00000000
00001100
00000000
00000100
00010000
00001000
00000000
,
00011000
00000000
00101000
00000000
00100000
00010000
01000000
00010000
,
00110000
00000000
01100000
00000000
01000000
10000000
00100000
00000000
,
01100000
00000000
00000000
00000000
10010000
00000000
00000000
00010000
10000000
00000000
00010000
00000000
01000000
00000000
00100000
00000000
,
20100000
00000000
31000000
00000000
10000000
01000000
00100000
00000000
,
00120000
00000000
01030000
00000000
01000000
00001000
00010000
00000000
,
00021000
00000000
00030100
00000000
00000100
00010000
00001000
00000000
,
00011000
00010010
00011000
01001000
,
01000000
00010000
01000000
00001000
00010000
00000100
00001000
00000010
,
00001000
00000100
00010000
00001000
00000100
00001000
00010000
00010000
,
00000010
00001000
00000010
00010000
00001000
01000000
00010000
00100000
,
00010000
00000000
01000000
00000000
00001000
00000000
00000000
00001000
00010000
00000000
00001000
00000000
00010000
00000000
00001000
00000000
,
00100000
00000000
00010000
00100000
00010000
00000000
00100000
00000000
00001000
00000000
00010000
00000000
00000010
00000000
00001000
00000000
,
00000100
00000000
00001000
00000100
00001000
00000000
00000100
00000000
00010000
00000000
00001000
00000000
01000000
00000000
00010000
00000000
,
00100000
00010000
01000000
00000000
00010000
01000000
00001000
00000000
,
00010000
00000000
00000100
00000000
00001000
00000000
00000000
00001000
00000010
00000000
00000100
00000000
00000001
00000000
00001000
00000000
,
00002001
00000010
00000100
00003100
,
00000100
00010000
00001000
00000000
00010000
00001000
00100000
00000000
,
00120000
01000000
10000000
10030000
,
00010000
00000000
00100000
00000000
00001000
00000000
00000000
00001000
00010000
00000000
00000100
00000000
00001000
00000000
00000000
00000000
,
00000010
00000000
00000000
00001000
00000000
00000000
00000100
00000000
00010000
00000000
00001000
00000000
00100000
00000000
00000000
00000000
,
00100000
00000000
00000000
00010000
00000000
00000000
01000000
00000000
00001000
00000000
00010000
00000000
00000100
00000000
00000000
00000000
,
00001000
00000000
00000000
00000100
00000000
00000000
00010000
00000000
00001000
00000000
00100000
00000000
00010000
00000000
10000000
00000000
,
10010000
01100000
01100000
10010000
,
10000000
00100000
01000000
01000000
00100000
10000000
10000000
01000000
,
00100000
00100000
01000000
10000000
00010000
01000000
00001000
00000000
,
00010000
00001000
00100000
00100000
00001000
00010000
00010000
00000100
,
00001000
00001000
00000100
00010000
00001000
00010000
00000010
00000000
,
00001000
00000100
00000010
00000010
00000100
00001000
00001000
00000010
,
00000100
00000100
00000010
00001000
00000001
00000100
00000010
00000000
,
00001000
00000100
00010000
00010000
00001000
00100000
00100000
00010000
,
01000000
01000000
00100000
10000000
10000000
00010000
10000000
00010000
,
10000000
01000000
00010000
00010000
01000000
10000000
00100000
01000000
,
00010000
00100000
00001000
00010000
00000010
00001000
00000001
00000000
,
00000001
00000010
00001000
00001000
00000010
00000001
00000100
00000010
,
00001000
00000100
00010000
00001000
01000000
00010000
10000000
00000000
,
00010000
00000000
00100000
00000000
01000000
00000000
10000000
01000000
10000000
00000000
01000000
00000000
00100000
00000000
00000000
00000000
,
00010000
00000000
00100000
00000000
00001000
00000000
00010000
00001000
00010000
00000000
00000100
00000000
00001000
00000000
00000000
00000000
,
00000010
00000000
00001000
00000000
00000100
00000000
00000010
00000001
00000010
00000000
00000100
00000000
00001000
00000000
00000001
00001000
,
00000001
00000000
00001000
00000000
00000010
00000000
00000100
00000001
00000100
00000000
00000010
00000000
00001000
00000000
00000001
00000000
,
00002002
00000000
00000000
00003003
;

//--------------- dance-double - OrangeRight ----------------
#NOTES:
     dance-double:
     OrangeRight:
     Challenge:
     15:
     0,0,0,0,0:
00000000
00000000
00000000
00000000
,
00000000
00000000
00000000
00000000
,
00000000
00000000
00000000
00000000
,
00000000
00000000
00000000
00000000
,
10000000
00000000
00100000
10000000
00100000
00000000
01000000
00000000
00010000
00000000
00100000
00000000
00010000
00000000
00000000
00000000
,
00100000
00000000
00010000
01000000
00010000
00000000
00100000
00000000
00001000
00000000
00010000
00000000
00000100
00000000
00000000
00000000
,
00001000
00000000
00000010
00000100
00000010
00000000
00001000
00000000
00000100
00000000
00000010
00000000
00000001
00000000
00000000
00000000
,
00001001
00000000
00000000
00000000
00000110
00000000
00000000
00000010
00001000
00000100
00001000
00000100
00000010
00000001
00000010
00000001
,
00001000
00000000
00000100
00001000
00000100
00000000
00001000
00000000
00000010
00000000
00010000
00000000
00001000
00000000
00100000
00000000
,
00010000
00000000
01000000
00010000
01000000
00000000
00100000
00000000
10000000
00000000
01000000
00000000
00100000
00000000
00010000
00000000
,
10000000
00000000
00100000
10000000
00100000
00000000
01000000
00000000
00010000
00000000
00100000
00000000
00010000
00000000
01000000
00000000
,
00010000
00000000
00100000
01000000
00100000
00000000
00010000
10000000
00000000
00010000
10000000
00000000
00100000
00000000
01000000
00000000
,
00010000
00000000
00100000
00010000
00100000
00000000
00010000
00000000
01000000
00000000
00001000
00000000
00010000
00000000
00000100
00000000
,
00001000
00000000
00000010
00001000
00000010
00000000
00000100
00000000
00000001
00000000
00000010
00000000
00000100
00000000
00001000
00000000
,
00000001
00000000
00000100
00000001
00000100
00000000
00000010
00000000
00001000
00000000
00000100
00000000
00001000
00000000
00000010
00000000
,
00001000
00000000
00000100
00000010
00000100
00000000
00001000
00000001
00000100
00000010
00000100
00000010
00001000
00000001
00001000
00000001
,
00001000
00000000
00000100
00001000
00000100
00000000
00010000
00001000
00000000
00010000
00001000
00000000
00100000
00010000
00100000
00000000
,
00010000
00000000
01000000
00010000
01000000
00000000
00001000
00010000
00000000
00001000
00010000
00000000
00000010
00001000
00000010
00000000
,
00000100
00000000
00000001
00001000
00000001
00000000
00000010
00000100
00000000
00000100
00001000
00000000
00000100
00010000
00001000
00000000
,
00010000
00000000
00001000
00100000
00010000
00000000
01000000
00100000
10000000
00000000
10100000
00000000
01100000
00000000
01010000
00000000
,
00010000
00000000
00100000
00010000
00100000
00000000
00010000
01000000
00000000
00001000
00010000
00000000
00001000
00010000
00000100
00000000
,
00001000
00000000
00000010
00001000
00000010
00000000
00001000
00000100
00000000
00010000
00001000
00000000
00010000
00001000
01000000
00000000
,
00010000
00000000
01000000
00100000
01000000
00000000
00010000
00100000
00000000
00100000
00010000
00000000
01000000
00100000
10000000
00000000
,
11000000
00000000
00000000
00000000
00110000
00000000
00000000
00100000
00010000
01000000
00010000
01000000
00001000
00010000
00001000
00010000
,
00000100
00000000
00001000
00000100
00001000
00000000
00000001
00000100
00000000
00000001
00000100
00000000
00000001
00000010
00000001
00000010
,
00000001
00000000
00001000
00000010
00001000
00000000
00000100
00010000
00000000
00000100
00010000
00000000
00001000
00010000
00001000
00010000
,
00001000
00000000
00100000
00001000
00100000
00000000
00010000
00100000
00000000
00010000
10000000
00000000
00100000
01000000
00100000
01000000
,
00010000
00000000
00100000
01000000
10000000
00000000
00100000
01000000
00010000
00000000
10010000
00000000
10000000
00000000
11000000
00000000
,
10000000
00000000
00010000
10000000
00010000
00000000
10000000
00100000
00000000
10000000
00100000
00000000
10000000
01000000
10000000
01000000
,
10000000
00000000
00010000
01000000
00010000
00000000
00100000
00001000
00000000
00100000
00001000
00000000
00010000
00001000
00010000
00001000
,
00010000
00000000
00000100
00001000
00000100
00000000
00001000
00000000
00000001
00000000
00001000
00000000
00000010
00000000
00010000
00000000
,
00001000
00000000
00000000
00000000
00100000
00000000
00000000
00010000
01000000
00000000
00100000
00000000
10000000
00000000
00010000
00000000
,
20010000
00000000
00000000
00000000
31000000
00000000
00000000
10000000
01000000
00000000
00100000
00000000
00010000
00000000
01000000
00000000
,
02010000
00000000
00000000
00000000
03001000
00000000
00000000
00001000
00010000
00000000
00000100
00000000
00001000
00000000
00000010
00000000
,
00002010
00000000
00000000
00000000
00003001
00000000
00000000
00001000
00000001
00000000
00000010
00000000
00000100
00000000
00001000
00000000
,
00001020
00000000
00000000
00000000
00000130
00000000
00000000
00000100
00000001
00000000
00000101
00000000
00001000
00000000
00001010
00000000
,
00001000
00000000
00000100
00001000
00000100
00000000
00010000
00000000
00000100
00000000
00010000
00000000
00001000
00000000
01000000
00000000
,
00010000
00000000
00100000
00010000
00100000
00000000
00001000
00000000
00010000
00000000
00000010
00000000
00001000
00000000
00000001
00000000
,
00001000
00000000
00000001
00000100
00000001
00000000
00000010
00000000
00000100
00000000
00001000
00000000
00000010
00000000
00010000
00000000
,
00001000
00100000
00010000
01000000
00100000
10100000
10000000
11000000
,
10000000
01000000
00010000
00001000
00010000
00100000
00010000
00001000
,
00000010
00000001
00000100
00001000
00000100
00000001
00001000
00001000
,
00000001
00000010
00001000
00010000
00001000
00000100
00001000
00010000
,
01000000
00000000
10000000
00000000
00100000
00000000
00010000
00000000
00100000
00000000
10000000
00000000
00010000
10000000
00010000
10000000
,
00010000
00100000
10000000
10000000
00100000
00010000
00010000
01000000
,
00001000
00001000
00010000
00000100
00001000
00000001
00000100
00000010
,
00001000
00000010
00000001
00000001
00000010
00001000
00001000
00000100
,
00000001
00000001
00000100
00001000
00000010
00000100
00000001
00001000
,
00000001
00000000
00000010
00000000
00000100
00000000
00001000
00000100
00001000
00000100
00001000
00000100
00001000
00000000
00000100
00000000
,
00010000
00000000
00001000
00000000
00100000
00000000
00010000
00100000
00010000
00100000
00010000
00100000
00010000
00000000
01000000
00000000
,
00100000
00000000
10000000
00000000
00010000
00000000
00100000
00010000
10000000
00010000
01000000
00010000
10000000
00000000
01000000
00000000
,
10000000
00000000
00100000
00000000
01000000
00000000
00100000
10000000
00010000
10000000
01000000
10000000
00100000
01000000
00100000
01000000
,
00010000
00000000
00100000
00010000
00100000
00000000
01000000
10000000
00100000
01000000
00010000
10000000
00010000
00000000
00100000
00000000
,
00001000
00000000
00010000
00000100
00010000
00000000
00001000
01000000
00001000
00010000
00000010
00001000
00000100
00000000
00000010
00000000
,
00000001
00000000
00000100
00000010
00001000
00000000
00000100
00010000
00001000
01000000
00001000
00010000
00000010
00010000
00001000
00100000
,
00010000
01000000
00100000
10000000
01000000
00100000
00010000
01000000
00100000
10000000
00010000
10000000
01000000
10000000
00010000
20000000
,
00020000
00000000
00000000
30030000
;
