#TITLE:MY FAVOURITE GAME;
#ARTIST:The Cardigans;
#BANNER:MY FAVOURITE GAME.png;
#BACKGROUND:MY FAVOURITE GAME-bg.png;
#JACKET:MY FAVOURITE GAME-jacket.png;
#MUSIC:MY FAVOURITE GAME.ogg;
#SAMPLESTART:38.495;
#SAMPLELENGTH:15;
#DISPLAYBPM:72:144;
#BPMS:0=71.693,11.75=76.923,12=137.3,16=143.612,128=71.63,152=136.9,156=143.607,203=71.804;

//---------------dance-single - hdm300----------------
#NOTES:
     dance-single:
     hdm300:
     Beginner:
     1:
     :
0000
0000
0000
0000
,
0000
0000
0000
0000
,
0000
0000
0000
0000
,
0000
0000
0000
0000
,
1000
0000
0000
0000
,
0001
0000
0000
0000
,
1000
0000
0000
0000
,
0001
0000
0000
0000
,
0100
0000
0000
0000
,
0010
0000
0000
0000
,
0100
0000
0000
0000
,
0010
0000
0000
0000
,
0100
0000
0001
0000
,
1000
0000
0000
0000
,
0001
0000
0010
0000
,
0100
0000
0000
0000
,
0010
0000
0001
0000
,
1000
0000
0000
0000
,
0001
0000
0100
0000
,
0010
0000
0000
0000
,
0100
0000
0000
0000
,
0010
0000
0000
0000
,
0100
0000
0000
0000
,
0010
0000
0000
0000
,
0100
0000
0001
0000
,
1000
0000
0000
0000
,
0100
0000
0010
0000
,
0001
0000
0000
0000
,
1000
0000
0001
0000
,
0100
0000
0000
0000
,
0010
0000
1000
0000
,
0001
0000
0000
0000
,
1000
0000
0000
0000
,
0001
0000
0000
0000
,
0010
0000
0000
0000
,
0100
0000
0000
0000
,
1000
0000
1000
0000
,
0001
0000
0001
0000
,
1001
0000
0000
0000
,
1000
0000
0000
0000
,
0001
0000
0000
0000
,
1000
0000
0000
0000
,
0010
0000
0000
0000
,
0100
0000
0000
0000
,
0010
0000
0000
0000
,
0100
0000
0000
0000
,
0010
0000
0000
0000
,
0100
0000
0000
0000
,
0010
0000
0000
0000
,
1000
0000
0000
0000
,
0001
0000
0000
1000
;

//---------------dance-single - hdm300----------------
#NOTES:
     dance-single:
     hdm300:
     Easy:
     5:
     :
0000
0000
0000
0000
,
0000
0000
0000
0000
,
0000
0000
0000
0000
,
0000
0000
0000
0000
,
1000
0000
1000
0000
,
0001
0000
0001
0000
,
1000
0000
1000
0000
,
0001
0001
0000
1000
,
0010
0000
0010
0000
,
0100
0000
0100
0000
,
0010
0000
0010
0000
,
0100
0100
0000
0010
,
0100
0001
0001
0010
,
0100
0000
0100
0000
,
0010
0001
0001
0100
,
0010
0000
0010
0000
,
1000
0100
0100
0010
,
0001
0000
0001
0000
,
1000
0010
0010
0100
,
0001
0000
0001
0000
,
1000
0000
1000
0000
,
0001
0000
0001
0000
,
1000
0000
1000
0000
,
0001
0001
0000
1000
,
0001
0010
0100
0100
,
1000
0000
1000
0000
,
0001
0100
0010
0010
,
1000
0000
1000
0000
,
0100
0010
0001
0001
,
0100
0000
0100
0000
,
0010
0100
0001
0001
,
0010
0000
0010
0000
,
0200
0000
2300
0000
,
3002
0000
0003
0000
,
2000
0000
3020
0000
,
0230
0000
0300
0000
,
0010
0110
1000
1010
,
0001
1001
0010
0011
,
1000
0000
0000
0001
0000
0000
0001
0000
,
1000
0000
1000
0000
,
0001
0000
0001
0000
,
1000
0000
1000
0000
,
0001
0001
0000
1000
,
0010
0000
0010
0000
,
0100
0000
0100
0000
,
0010
0000
0010
0000
,
0100
0100
0000
0100
,
0001
0000
0001
0000
,
1000
1000
0000
0001
,
0010
0010
0000
0100
,
0010
0000
0010
0000
0000
0000
0200
0300
;

//---------------dance-single - t7r----------------
#NOTES:
     dance-single:
     t7r:
     Medium:
     7:
     :
0000
0000
0000
0000
,
0000
0000
0000
0000
,
0000
0000
0000
0000
,
0000
0000
0000
0000
,
1000
0000
0100
0000
1000
0002
0000
0000
,
0003
0000
1000
0000
0100
2000
0000
0000
,
3000
0000
0001
0000
0100
0002
0000
0000
,
0003
2000
3000
0020
,
1030
0000
0001
0000
0010
0200
0000
0000
,
0300
0000
1000
0000
0010
0200
0000
0000
,
0300
0000
0001
0000
0010
0002
0000
0000
,
0003
2000
3000
0020
,
1030
0000
0100
0000
0000
1000
0001
0000
,
0100
0000
0001
0000
0000
1000
0010
0000
,
1000
0000
0100
0000
0000
0010
0100
0000
,
1000
0001
0200
0000
,
0301
0000
0010
0000
0000
0001
1000
0000
,
0010
0000
1000
0000
0000
0001
0100
0000
,
0001
0000
0010
0000
0000
0100
0010
0000
,
0001
1000
0020
0001
,
0130
0000
0101
0000
0001
2000
0000
0000
,
3000
0000
1100
0000
1000
0002
0000
0000
,
0003
0000
0101
0000
0001
2000
0000
0000
,
3000
0020
0030
0200
,
0301
0000
1000
0000
0010
1000
0001
0000
,
1000
0000
0100
0020
0000
0000
0000
0000
,
0031
0000
0100
0000
0010
0100
0001
0000
,
1000
0000
0100
0000
1000
0001
0100
0000
,
0001
0000
0010
0000
0100
0010
0001
0000
,
1000
0000
0010
0200
0000
0000
0000
0000
,
0310
0000
1000
0000
0001
0010
0100
0000
,
1000
0000
0010
0000
0100
0001
1000
0000
,
0002
0003
2000
3000
,
0020
0000
0230
0302
,
2003
3000
0200
0300
,
0020
0032
2003
3020
,
0130
0000
0110
0000
0100
0001
1000
0000
,
0100
0000
0110
0000
0010
0001
1000
0000
,
0001
0000
0100
0001
0000
1000
0100
0000
,
1000
0000
1001
0000
1000
0002
0100
0000
,
1003
0000
1001
0000
1000
0002
0100
0000
,
1003
0000
1001
0000
1000
0002
0010
0000
,
1003
2010
3001
0021
,
0031
0000
1001
0000
0001
2000
0100
0000
,
3001
0000
1001
0000
0001
2000
0100
0000
,
3001
0000
1001
0000
0001
2000
0010
0000
,
3001
0201
0310
2010
,
3100
0000
0110
0000
0010
0002
1000
0000
,
0103
2010
3100
0012
,
1003
0000
1100
0000
1000
0020
0100
0000
,
1030
0001
0200
0000
0301
0000
2000
3000
;

//---------------dance-single - [R] (hdm300 / t7r)----------------
#NOTES:
     dance-single:
     [R] (hdm300 / t7r):
     Hard:
     11:
     :
0000
0000
0000
0000
,
0000
0000
0000
0000
,
0000
0000
0000
0000
,
0000
0000
0000
0000
,
1000
0100
0010
0000
0010
0001
0100
2000
,
0000
3100
0001
0000
0001
0010
0100
1000
,
0001
0100
0010
0000
0010
1000
0100
0002
,
0000
0103
2000
0000
3000
0000
0002
0000
,
1003
0000
1010
0000
1000
0200
0010
0000
,
1300
0000
1001
0000
0001
0200
0010
0000
,
0301
0000
1001
0000
1000
0020
0100
0000
,
1030
0001
0200
0000
0301
0000
2000
0000
,
3001
0100
0010
0000
0010
0100
1000
0000
,
1000
0100
0010
2000
0001
0000
0010
0000
,
3001
0000
0010
0000
0100
0010
0000
0100
0000
0000
0100
0000
1000
0000
0000
0000
,
0001
0010
0100
0000
0100
1000
0001
0000
,
1000
0100
0010
0000
0010
0100
0001
0000
,
0200
0000
1300
0020
0001
0000
0130
0000
,
0001
0010
0100
0000
0001
0100
1000
0000
,
0010
0010
0100
0001
1000
1000
0100
0010
,
0001
0100
0010
0000
0010
1000
0100
0002
,
0000
0103
1000
0000
1000
0010
0100
0001
,
1000
0100
0010
0000
0010
0001
0100
2000
,
0000
3100
0002
0000
0003
0000
2000
0000
,
3001
0000
0010
0000
0001
0000
0010
0000
1000
0000
0010
0100
0000
0000
0010
0000
,
0002
0000
0100
2003
0100
0000
3001
0000
,
1000
0010
0001
0010
1000
0200
0010
0000
,
1300
0000
0000
0100
0010
0000
0001
0000
1000
0000
0010
0000
1000
0000
0001
0000
,
0001
0000
1000
0000
0100
0000
0000
0000
0010
0000
0100
0010
0000
0000
0100
0000
,
0010
0001
1000
0000
1000
0010
0100
0000
,
0100
0001
1000
0100
0001
0100
1000
0000
,
1000
0100
0010
0000
0010
0001
1000
1000
,
0002
0103
2000
3100
,
0002
0013
2000
3020
,
0031
0000
0001
0000
0100
0000
0000
0000
0010
0000
0010
0000
1000
0000
0010
0100
,
0001
0001
1000
0001
0200
0000
0320
0000
,
1030
0000
1001
0000
0100
0100
0110
0000
,
0001
0000
1001
0000
0100
0100
0110
0000
,
0001
0100
0001
0000
0001
0000
1000
0001
1000
0000
1000
0000
0100
1000
0100
0000
,
0010
0100
1100
0000
1000
0002
0100
0000
,
1003
0010
1010
0000
1000
0002
0010
0000
,
1003
0010
0110
0000
1000
0002
0100
0000
,
1003
0100
0120
0000
0031
0100
0120
0000
,
1030
0100
1100
0000
0100
0010
0110
1000
,
0001
0001
1000
0010
0001
0001
0010
1000
,
0001
0010
0011
0000
0010
0100
0110
0001
,
1000
1000
0001
0100
1000
1000
1100
0000
,
0100
0001
0101
0000
1001
2000
0100
0000
,
3001
0010
0021
0000
0031
1000
1002
0000
,
1003
0010
1010
0000
0010
0100
0110
1000
,
0001
0001
0021
0000
0130
1000
0002
0003
;

//---------------dance-double - hdm300----------------
#NOTES:
     dance-double:
     hdm300:
     Easy:
     6:
     :
00000000
00000000
00000000
00000000
,
00000000
00000000
00000000
00000000
,
00000000
00000000
00000000
00000000
,
00000000
00000000
00000000
00000000
,
00000001
00000000
00000001
00000000
,
00000100
00000000
00000100
00000000
,
00001000
00000000
00001000
00000000
,
00010000
00010000
00000000
00001000
,
00010000
00000000
00010000
00000000
,
01000000
00000000
01000000
00000000
,
10000000
00000000
10000000
00000000
,
00010000
00010000
00000000
10000000
,
00010000
00100000
00100000
01000000
,
10000000
00000000
10000000
00000000
,
00010000
01000000
01000000
00100000
,
00010000
00000000
00010000
00000000
,
00001000
00010000
00010000
00000100
,
00001000
00000000
00001000
00000000
,
00000001
00001000
00001000
00000100
,
00000010
00000000
00000010
00000000
,
00000001
00000000
00000001
00000000
,
00000100
00000000
00000100
00000000
,
00001000
00000000
00001000
00000000
,
00010000
00010000
00000000
00001000
,
00010000
00100000
00100000
01000000
,
00010000
00000000
00010000
00000000
,
10000000
00010000
00010000
00100000
,
01000000
00000000
01000000
00000000
,
00010000
01000000
01000000
00100000
,
00001000
00000000
00001000
00000000
,
00010000
00001000
00001000
00000100
,
00000001
00000000
00000001
00000000
,
00002000
00000000
00003200
00000000
,
00000320
00000000
00000030
00000000
,
00000200
00000000
00020300
00000000
,
00032000
00000000
00003000
00000000
,
00010000
00011000
00100000
00110000
,
10000000
10010000
00100000
10100000
,
10000000
00000000
00000000
00010000
00000000
00000000
00010000
00000000
,
10000000
00000000
10000000
00000000
,
01000000
00000000
01000000
00000000
,
00010000
00000000
00010000
00000000
,
00001000
00001000
00000000
00010000
,
00001000
00000000
00001000
00000000
,
00000100
00000000
00000100
00000000
,
00000001
00000000
00000001
00000000
,
00001000
00001000
00000000
00000001
,
00001000
00000000
00001000
00000000
,
00010000
00010000
00000000
10000000
,
00010000
00000000
00010000
00000000
,
00001000
00000000
00001000
00000000
00000000
00000000
00000002
00000003
;

//---------------dance-double - t7r----------------
#NOTES:
     dance-double:
     t7r:
     Medium:
     8:
     :
00000000
00000000
00000000
00000000
,
00000000
00000000
00000000
00000000
,
00000000
00000000
00000000
00000000
,
00000000
00000000
00000000
00000000
,
00010000
00000000
00000010
00000000
00001000
00000002
00000000
00000000
,
00000003
00000000
00000100
00000000
00000010
00002000
00000000
00000000
,
00003000
00000000
00000001
00000000
00000010
00002000
00000000
00000000
,
00003000
00020000
00030000
00002000
,
00013000
00000000
01000000
00000000
10000000
00200000
00000000
00000000
,
00300000
00000000
01000000
00000000
00001000
00020000
00000000
00000000
,
00030000
00000000
00000100
00000000
00010000
00002000
00000000
00000000
,
00003000
00000200
00000300
00000020
,
00001030
00000000
00000100
00000000
00000000
00000010
00000001
00000000
,
00000100
00000000
00000001
00000000
00000000
00001000
00000100
00000000
,
00010000
00000000
00001000
00000000
00000000
01000000
00010000
00000000
,
10000000
00100000
02000000
00000000
,
03010000
00000000
00100000
00000000
00000000
01000000
10000000
00000000
,
00010000
00000000
00100000
00000000
00000000
00001000
00010000
00000000
,
00001000
00000000
00000010
00000000
00000000
00000001
00000100
00000000
,
00001000
00010000
00002000
01000000
,
00013000
00000000
00011000
00000000
00001000
02000000
00000000
00000000
,
03000000
00000000
01010000
00000000
00010000
20000000
00000000
00000000
,
30000000
00000000
11000000
00000000
01000000
00200000
00000000
00000000
,
00300000
00002000
00003000
00020000
,
00031000
00000000
00000100
00000000
00000000
00000010
00001000
00000000
,
00000001
00000000
00000010
00000100
00002000
00000000
00000000
00000000
,
00003001
00000000
00000100
00000000
00000000
00001000
00010000
00000000
,
01000000
00000000
00100000
00010000
20000000
00000000
00000000
00000000
,
30100000
00000000
01000000
00000000
00000000
00010000
10000000
00000000
,
01000000
00000000
00100000
00002000
00010000
00000000
01003000
00000000
,
00001000
00000000
00010000
00000000
00000000
00001000
00000100
00000000
,
00000001
00000000
00001000
00000200
00000010
00000000
00001300
00000000
,
00000001
00000000
00000100
00000000
,
00001000
00000000
02000000
03020000
,
20030000
30000000
02000000
03000000
,
00020000
00030000
00000020
00002030
,
00003002
00000000
00000013
00000000
00000001
00001000
00001100
00000000
,
00000200
00000000
00010300
00000000
00001000
01000000
01010000
00000000
,
00010000
00000000
10000000
01000000
00000000
00100000
00010000
00000000
,
00001000
00000000
00001010
00000000
00000010
00000200
00000001
00000000
,
00000310
00000000
00001010
00000000
00001000
00000002
00000100
00000000
,
00001003
00000000
00001100
00000000
00000100
00020000
00001000
00000000
,
00030100
00021000
00031000
02001000
,
03010000
00000000
00110000
00000000
00010000
20000000
00100000
00000000
,
30010000
00000000
10010000
00000000
10000000
02000000
00100000
00000000
,
13000000
00000000
11000000
00000000
01000000
00020000
00001000
00000000
,
00030100
00002100
00003010
00001002
,
00000013
00000000
00000100
00000000
00001000
00000001
00000100
00000000
,
00001000
00012000
00103000
00021000
,
00030010
00000000
00011000
00000000
00001000
00010000
00100000
00000000
,
10000000
01000000
00200000
00000000
00301000
00000000
00020000
00030000
;

//---------------dance-double - t7r----------------
#NOTES:
     dance-double:
     t7r:
     Hard:
     11:
     :
00000000
00000000
00000000
00000000
,
00000000
00000000
00000000
00000000
,
00000000
00000000
00000000
00000000
,
00000000
00000000
00000000
00000000
,
00001000
01000000
00010000
00000000
10000000
00100000
01000000
00020000
,
00000000
10030000
01000000
00000000
00010000
00001000
00010000
00000000
,
00001000
00000100
00000010
00000000
00001000
00000100
00000010
00000002
,
00000000
00001003
00000020
00000000
00000030
00000000
00000200
00000000
,
00000301
00000000
00000011
00000000
00000001
00000200
00000010
00000000
,
00000301
00000000
00000011
00000000
00000001
00000010
00001000
00010000
,
00001000
00000000
01001000
00000000
01000000
00020000
10000000
00000000
,
00130000
00001000
00020000
00000000
00031000
00000000
02000000
00000000
,
03010000
01000000
00100000
00000000
00100000
01000000
10000000
00000000
,
01000000
00010000
00100000
00002000
00010000
00000000
01003000
00000000
,
00001000
00000000
00010000
00000000
00000100
00001000
00000000
00000001
00000000
00000000
00000001
00000000
00000100
00000000
00000000
00000000
,
00000001
00000010
00000100
00000000
00000100
00001000
00000001
00000000
,
00000100
00001000
00010000
00000000
00100000
10000000
00010000
00000000
,
10000000
01000000
00100000
00002000
00010000
00000000
00103000
00000000
,
00001000
00010000
00000010
00000000
00000100
00000001
00001000
00000000
,
00000001
00000001
00000010
00000100
00010000
00010000
00001000
00010000
,
01000000
10000000
00010000
00000000
10000000
00100000
01000000
00020000
,
00000000
10030000
01000000
00000000
00100000
00001000
00010000
00000000
,
00001000
00000010
00000100
00000000
00000010
00000001
00001000
00000020
,
00000000
00000130
00000002
00000000
00000003
00000000
00002000
00000000
,
00003001
00000000
00000100
00000000
00001000
00000000
00000000
00000000
00010000
00000000
01000000
00100000
00000000
00000000
00010000
00000000
,
20000000
00000000
01000000
30020000
01000000
00000000
10030000
00000000
,
00100000
01000000
00010000
00000000
00001000
00000010
00000100
00000000
,
00000001
00000000
00000000
00000010
00000100
00000000
00001000
00000000
00000001
00000000
00000100
00000000
00001000
00000000
00001000
00000000
,
00010000
00000000
00000100
00000000
00001000
00000000
00000000
00000000
00000100
00000000
00000000
00010000
00001000
00000000
00010000
00000000
,
00100000
01000000
00010000
00000000
10000000
01000000
00100000
00000000
,
01000000
10000000
00100000
00000000
00010000
00001000
00000100
00000000
,
00000001
00000010
00000100
00000000
00000100
00010000
00001000
00000000
,
00020000
00030000
00002000
00003000
,
02000000
03000000
00200000
20300000
,
30010000
00010000
00100000
00000000
00001000
00001000
00010000
00000000
,
00000010
00000010
00000100
00000000
00000002
00000000
00000203
00000000
,
00001300
00000000
00011000
00000000
01000000
01000000
10010000
00000000
,
00001000
00000000
00011000
00000000
00000100
00000100
00001001
00000000
,
00000001
00001000
00000001
00000000
00000001
00000000
00001000
00000100
00001000
00000000
00001000
00000000
00000100
00000000
00010000
00000000
,
00001000
00010000
01000000
00000000
10000000
00200000
01000000
00000000
,
10300000
01000000
00010000
00000000
00001000
00000020
00000100
00000000
,
00000031
00001000
00000100
00000000
00000010
00000002
00001000
00000000
,
00000103
00001000
00020000
00000000
00130000
10000000
00020000
00000000
,
10030000
01000000
11000000
00000000
10000000
00100000
00010000
00002000
,
00000000
00013000
00000100
00000000
00001000
00000010
00000200
00000000
,
00000301
00000010
00000011
00000000
00000001
00000100
00001000
00020000
,
00000000
00031000
00100000
00000000
00010000
01000000
00200000
00000000
,
10300000
00100000
10100000
00000000
11000000
01000000
10000000
00100000
,
01000000
00001000
00020000
00000000
00030100
00010000
00002000
00000000
,
00013000
00000010
00001010
00000000
00000110
00000100
00000001
00001000
,
00000100
00000100
00010000
00001000
01000000
01000000
00020000
00030000
;
