#VERSION:0.83;
#TITLE:MUKANJYO;
#SUBTITLE:Vinland Saga Opening 1;
#ARTIST:Survive Said The Prophet;
#TITLETRANSLIT:;
#SUBTITLETRANSLIT:;
#ARTISTTRANSLIT:;
#GENRE:;
#ORIGIN:;
#CREDIT:;
#BANNER:MUKANJYO-BN.png;
#BACKGROUND:MUKANJYO-BG.png;
#PREVIEWVID:;
#JACKET:MUKANJYO-jacket.png;
#CDIMAGE:;
#DISCIMAGE:;
#LYRICSPATH:;
#CDTITLE:;
#MUSIC:MUKANJYO.ogg;
#OFFSET:-0.155000;
#SAMPLESTART:51.592999;
#SAMPLELENGTH:20.211000;
#SELECTABLE:YES;
#BPMS:0.000=190.000;
#STOPS:;
#DELAYS:;
#WARPS:;
#TIMESIGNATURES:0.000=4=4;
#TICKCOUNTS:0.000=4;
#COMBOS:0.000=1;
#SPEEDS:0.000=1.000=0.000=0,
95.000=0.000=0.000=0,
95.021=1.000=3.500=0;
#SCROLLS:0.000=1.000;
#FAKES:;
#LABELS:0.000=Song Start;
#BGCHANGES:0.000=MUKANJYO-BGA.mp4=1.000=0=0=1=====,
99999=-nosongbg-=1.000=0=0=0 // don't automatically add -songbackground-
;
#KEYSOUNDS:;
#ATTACKS:
;

//---------------dance-single - omgukk----------------
#NOTEDATA:;
#CHARTNAME:;
#STEPSTYPE:dance-single;
#DESCRIPTION:omgukk;
#CHARTSTYLE:;
#DIFFICULTY:Challenge;
#METER:15;
#RADARVALUES:0.722407,0.880294,0.155595,0.489014,0.455672,455.000000,441.000000,14.000000,44.000000,0.000000,0.000000,0.000000,0.000000,0.000000,0.722407,0.880294,0.155595,0.489014,0.455672,455.000000,441.000000,14.000000,44.000000,0.000000,0.000000,0.000000,0.000000,0.000000;
#CREDIT:;
#NOTES:
// measure 0
0000
0000
0000
0000
,  // measure 1
0000
0000
0000
0000
,  // measure 2
0000
0000
0000
0000
,  // measure 3
0000
0000
0000
0000
,  // measure 4
0000
0000
0000
0000
,  // measure 5
0000
0000
0000
0000
,  // measure 6
0000
0000
0000
0000
,  // measure 7
0000
0000
0000
0000
,  // measure 8
0000
0000
0000
0000
0000
0000
0000
0000
0000
0000
0000
0000
1000
0001
1000
0001
,  // measure 9
1000
0001
0100
0001
0100
0010
0100
0001
,  // measure 10
0010
0000
0100
0000
2000
0000
0000
0000
3200
0000
0000
0000
1300
0001
1000
0001
,  // measure 11
1000
0010
1000
0010
0100
0001
1000
0100
,  // measure 12
0010
0000
0001
0000
0000
0000
1000
0000
0020
0000
0230
0000
0301
1000
0001
1000
,  // measure 13
0001
0100
0010
1000
0001
0100
0001
0100
,  // measure 14
0010
0000
1000
0000
0001
0000
0010
0000
0100
0000
1000
0000
0001
1000
0001
1000
,  // measure 15
0001
0100
0010
1000
0010
1000
0001
0010
,  // measure 16
0100
0000
1000
0000
0001
0000
0010
0000
0001
0000
0010
0000
0001
1000
0001
1000
,  // measure 17
0001
0000
0100
0000
0010
0000
0100
0001
0100
0001
0100
0001
1000
0000
0001
0000
,  // measure 18
0010
0000
0100
0000
1000
0000
0001
0000
0100
0000
0010
0000
1000
0001
1000
0001
,  // measure 19
1000
0000
0100
0000
0010
0000
0100
1000
0100
1000
0100
1000
0001
0000
0100
0000
,  // measure 20
0010
0000
1000
0000
0001
0000
0010
0000
0100
0000
1000
0000
0001
1000
0001
1000
,  // measure 21
0001
0000
0100
0000
0010
0000
1000
0010
1000
0010
1000
0010
0100
0000
0001
0000
,  // measure 22
1000
0000
0100
0000
0010
0000
0001
0000
1000
0000
0010
0000
1000
0001
1000
0001
,  // measure 23
1000
0000
0100
0000
0010
0000
0001
0010
0001
0010
0001
1000
0001
0000
0000
0000
,  // measure 24
0000
0000
0000
0000
0000
0000
0002
0100
,  // measure 25
2003
0010
3002
0100
1003
0100
0001
0000
,  // measure 26
0001
0100
0000
1000
0002
0000
0103
0001
,  // measure 27
1000
0001
0010
0100
0110
0000
0011
0000
,  // measure 28
0000
0000
1001
0000
0000
0000
0000
0000
1000
0000
0001
0100
0001
0000
0000
0000
,  // measure 29
1000
0100
0000
0100
1000
0001
0100
0000
,  // measure 30
0001
1000
0000
0010
0100
0000
0001
0010
,  // measure 31
0100
1000
0001
0100
0110
0000
0000
1010
,  // measure 32
0000
0000
0000
0000
1001
0000
1000
0000
0010
1000
0010
0000
2000
0000
0010
0000
,  // measure 33
3002
0100
2003
0010
3001
0100
1000
0000
,  // measure 34
1000
0100
0000
0001
2000
0000
3010
1000
,  // measure 35
0001
1000
0100
0010
0110
0000
1100
0000
,  // measure 36
0000
0000
1001
0000
0000
0000
0000
0000
0001
0000
0100
0010
0100
0000
0001
0000
,  // measure 37
1000
0100
0010
0100
0010
0001
1000
0000
,  // measure 38
0010
0100
0001
0010
0100
0000
1000
0000
,  // measure 39
0000
0000
0010
0000
0000
0000
1000
0001
1000
0001
1000
0000
0001
0100
0001
0100
,  // measure 40
0001
0000
1000
0100
1000
0100
0010
0001
1000
0001
1000
0001
2000
0000
0000
0000
,  // measure 41
0000
0000
0000
0000
0000
0000
0000
0000
3010
1000
0010
1000
0002
0000
0000
0000
,  // measure 42
0103
0000
1000
0000
0000
0000
0100
0000
0002
0000
1003
0010
0200
0000
0000
0000
,  // measure 43
0000
0300
0200
0000
0000
0000
0000
0000
0301
0010
0100
1000
0200
0000
0000
0000
,  // measure 44
1300
0000
0100
0000
0000
0000
0100
0000
1000
0000
0010
0100
0020
0000
1030
0000
,  // measure 45
0001
0000
0100
0000
0010
0000
0100
0000
0001
1000
0001
1000
0010
0000
0000
0000
,  // measure 46
0200
0000
0000
0000
0302
0000
0000
0000
0023
0000
0130
0010
0200
0000
0000
0000
,  // measure 47
2300
0000
0000
0000
3001
0000
0000
0000
1000
0001
1000
0001
1000
0010
0100
0010
,  // measure 48
0100
0000
0001
0000
1000
0001
1000
0001
0020
0000
0000
0000
0230
0000
0000
0000
,  // measure 49
0000
0000
0000
0000
1300
0000
0001
0000
0100
0001
1000
0001
2000
0000
0000
0000
,  // measure 50
3010
0000
0001
0000
0000
0000
0010
0000
2000
0000
3001
0100
0020
0000
0000
0000
,  // measure 51
0000
0030
0020
0000
0000
0000
0000
0000
1030
0100
0010
0001
0020
0000
0000
0000
,  // measure 52
0031
0000
0010
0000
0001
1000
0001
1000
0001
1000
0100
0000
0020
0000
0000
0000
,  // measure 53
0031
0000
0100
0000
0010
0000
1000
0000
0001
1000
0001
1000
0100
0000
0000
0000
,  // measure 54
0020
0000
2030
0000
3020
0000
0031
1000
,  // measure 55
0001
0000
0100
0000
0001
0100
0010
1000
0001
1000
0001
0000
1001
0000
0000
0000
,  // measure 56
0001
0100
0000
0010
1000
1100
0100
1000
,  // measure 57
0010
0000
0001
0000
0010
0000
0100
0000
0001
1000
0001
1000
0001
0000
0010
0000
,  // measure 58
0200
0000
0000
0000
0000
0000
0000
0000
0000
0000
1300
0100
1000
0000
0100
0000
,  // measure 59
0001
0000
0000
0000
0001
0000
0100
0000
0010
0001
1000
0001
2000
0000
3010
0000
,  // measure 60
0000
1001
0000
0110
0000
1001
1000
0010
,  // measure 61
0000
0001
0010
0100
0001
0010
0100
1000
,  // measure 62
0010
0000
0100
0000
2000
0000
0000
0000
0000
0000
3100
0001
2000
0000
0000
0000
,  // measure 63
3200
0310
0001
0100
1000
0100
0010
1000
,  // measure 64
0001
0000
0000
0010
0000
0000
0200
0000
0000
0000
0000
0000
0300
0000
2000
0000
0000
0000
0000
0000
0000
0000
0000
0000
,  // measure 65
3000
0000
0001
0000
0000
0100
0000
0000
0000
0010
0000
0000
0000
0000
0000
0000
0000
0000
0000
0000
1000
0000
0000
0000
,  // measure 66
1000
0000
0000
0000
0000
0000
0000
0100
0000
0000
0000
0010
0000
0000
0001
0000
0000
0000
2000
0000
0000
0000
3020
0000
,  // measure 67
0000
0000
0000
0000
,  // measure 68
0000
0000
0000
0000
0000
0000
0000
0030
;
