#TITLE:MENDES;
#SUBTITLE:;
#ARTIST:Humanoid;
#TITLETRANSLIT:;
#SUBTITLETRANSLIT:;
#ARTISTTRANSLIT:;
#GENRE:;
#CREDIT:;
#MUSIC:MENDES.ogg;
#BANNER:MENDES.png;
#BACKGROUND:MENDES-bg.png;
#CDTITLE:;
#SAMPLESTART:35.340;
#SAMPLELENGTH:12.865;
#SELECTABLE:YES;
#OFFSET:1.081;
#BPMS:0.000=168.000;
#STOPS:240.500=0.714;
#DISPLAYBPM:168.000;
#BGCHANGES:;
#FGCHANGES:;

//--------------- dance-single - P1989 Mk II ----------------
#NOTES:
     dance-single:
     P1989 Mk II:
     Beginner:
     5:
     0,0,0,0,0:
0000
0000
0000
0000
,
0000
0000
0000
0000
,
0000
0000
0000
0000
,
0000
0000
0000
0000
,
0000
0000
0000
0000
,
1001
0000
0000
0000
,
0000
0000
0000
0000
,
1000
0000
0001
0000
,
0100
0100
0010
0000
,
0110
0000
1001
0000
,
0000
0000
1000
0000
,
0000
0000
0100
0000
,
0010
0000
0001
0000
,
1000
0000
0100
0000
,
0000
0000
0010
0000
,
0000
0000
0001
0000
,
1000
0000
0010
0010
,
0000
0010
0010
0000
,
0000
0000
0100
0000
,
0000
0000
0001
0000
,
1000
0000
0010
0000
,
0100
0000
1001
0000
,
0000
0000
0110
0000
,
0000
0000
1000
0000
,
0001
0000
0100
0100
,
0000
0000
0001
0001
,
0001
0000
0001
0000
0000
0001
0000
0000
,
0001
0000
0000
0001
0000
0000
0001
0000
,
0000
1000
1000
1000
,
1000
0000
0000
1000
0000
0000
1000
0000
,
0000
1000
0000
0000
1000
0000
0000
0000
,
0010
0100
0010
0100
,
0010
0100
0001
1000
,
0001
2002
0000
0000
,
0000
0000
0000
0000
,
0000
3003
0000
0000
,
0000
2000
0000
0000
,
0000
3000
0000
1001
,
0000
0002
0000
0000
,
0000
0003
0000
1001
,
0000
0200
0000
0000
,
0000
0300
0000
0110
,
0000
0020
0000
0000
,
0000
0030
0000
0110
,
0000
1000
0000
0000
,
1000
0100
0000
0010
,
0000
0001
0000
0100
,
0000
0110
0000
0010
,
0000
1001
0000
1000
,
0000
0001
0100
0010
,
1000
0001
0000
0010
,
0000
0100
1000
0001
,
0010
0100
0000
1000
,
0000
0010
0100
0001
,
1000
0010
0000
1000
,
0000
0100
0100
0100
,
0000
0110
0000
0010
,
0001
1000
0000
0010
,
1000
0001
0000
1001
,
0000
0110
0000
1000
,
0001
0000
0000
1000
,
1000
0100
0010
0001
,
1000
0001
0001
0100
,
0010
1000
0001
0010
,
0010
0100
1000
0001
,
0100
0010
0010
0100
,
0001
0000
1000
0000
0100
0000
1000
1000
,
1000
0000
0000
0000
0001
0001
0001
0000
,
0000
0000
0100
0100
0100
0000
0000
0000
,
0010
0010
0010
0000
0000
0000
1000
0001
,
1000
0000
0000
0000
0001
1000
0001
0000
,
0000
0000
0100
0010
0100
0010
0100
0000
,
0001
1000
0001
1000
0001
0000
2002
0000
,
0000
0000
0000
0000
,
0000
0000
0000
0000
,
3003
0000
0000
0000
,
0000
0000
2002
0000
,
0000
0000
0000
0000
,
0000
0000
3003
0000
;

//--------------- dance-single - P1989 Mk II ----------------
#NOTES:
     dance-single:
     P1989 Mk II:
     Easy:
     9:
     0,0,0,0,0:
0000
0000
0000
0000
,
0000
0000
0000
0000
,
0000
0000
0000
0000
,
0000
0000
0000
0000
,
0000
0000
0000
0000
,
2002
0000
0000
0000
0000
3003
0000
0000
,
0000
0000
0000
0100
,
0220
0330
2002
3003
,
0010
1001
0220
0330
,
2002
0000
3003
0000
1000
0100
1000
0000
,
0100
0000
0010
0000
0001
0100
0001
0000
,
0100
0000
0010
0000
1000
0001
1000
0000
,
0001
0000
0010
0000
0001
1000
0001
0000
,
1000
0000
0010
0000
0100
0001
0100
0000
,
0010
0000
1000
0000
0100
1000
0100
0000
,
0010
0000
0001
0000
0100
0010
0100
0000
,
0001
0000
1000
0000
0100
0100
0000
0000
,
0000
0000
0110
0000
0010
0001
0010
0000
,
0001
0000
0100
0000
0010
1000
0010
0000
,
1000
0000
0100
0000
1000
0001
1000
0000
,
0100
0000
0010
0000
0001
1000
0001
0000
,
0100
0000
0110
0000
0010
1000
0010
0000
,
0100
0000
0001
0000
0010
0001
0010
0000
,
0100
0000
1000
0000
0001
0100
0001
0000
,
1000
0100
1000
0000
0010
0010
0000
0000
,
0000
0000
0110
0000
1000
0001
1000
0000
,
1000
0000
1000
0001
0000
1000
0000
1000
,
0001
1000
0000
1000
0001
1000
0002
0000
,
0000
0000
0103
0010
0100
0000
0100
0000
,
0100
0010
0000
0010
0000
0100
0010
0100
,
0000
0100
0010
0100
0020
0000
0000
0000
,
2030
0100
0010
3002
,
0100
0000
0010
0000
1003
0001
0200
0000
,
0310
2002
0000
0000
,
0000
0000
0000
0000
,
0000
3003
0000
0000
,
0000
2000
3200
0320
,
0032
0103
0000
1001
,
0000
0002
0203
0320
,
2030
3100
0000
1001
,
0000
2000
3020
0230
,
0302
0013
0000
1001
,
0000
0002
0023
0230
,
2300
3010
0000
1001
,
0000
0000
2000
0000
0000
3200
0000
0000
,
0320
0032
0000
0203
,
0320
0000
0000
0000
1030
0000
0000
0000
0000
0000
0000
0000
0001
0000
0000
0010
,
0000
0100
2000
0000
0000
0000
0002
0000
,
3003
1001
0001
0100
,
0001
0000
0010
0100
0010
0000
0100
0010
,
0100
1000
0001
0100
,
0010
1010
1001
1100
,
1001
0001
0010
0100
,
0010
0000
0001
1000
0001
0000
1000
0001
,
1000
0010
0100
0001
,
0010
0000
0100
0100
0000
0000
0110
0000
,
0000
0000
0000
0000
1001
0000
0000
0000
0001
0000
0000
0000
1000
0000
0000
0100
,
0000
1000
0001
0000
0010
0000
0100
0010
,
0100
0000
0000
0000
1001
0000
0000
0000
1000
0000
0000
0000
0001
0000
0000
0100
,
0000
0001
1000
0000
1010
0000
0010
0010
,
0000
0100
0000
0000
0000
0000
0001
1000
,
0001
0000
0010
0000
0100
1000
0100
0000
,
0010
0000
1000
0001
1000
0000
0010
0000
,
0100
0001
0100
0000
0010
0000
0001
1000
,
0001
0000
0010
0000
0100
1000
0100
0000
,
0010
0000
1000
0001
1000
0000
0010
0000
,
0100
0000
0002
0000
0000
0000
1003
1000
,
1000
0100
0010
0000
0001
0001
0001
0100
,
0010
0000
0100
0100
0100
0001
1000
0000
,
0100
0100
0100
1000
0001
0000
0010
0010
,
0010
0100
1000
0000
0010
0010
0010
0100
,
0001
0000
0010
0010
0010
0100
1000
0001
,
0100
0100
0100
0010
1000
0001
0020
0000
,
0000
0000
0000
0000
,
0000
0000
0000
0000
,
0030
0000
0000
0000
,
0000
0000
2002
0000
,
0000
0000
0000
0000
,
0000
0000
3003
0000
;

//--------------- dance-single - P1989 Mk II ----------------
#NOTES:
     dance-single:
     P1989 Mk II:
     Medium:
     14:
     0,0,0,0,0:
0000
0000
0000
0000
,
0000
0000
0000
0000
,
0000
0000
0000
0000
,
0000
0000
0000
0000
,
0000
0000
0000
0000
,
2002
0000
0000
0000
0000
3003
0000
0000
,
0000
0000
0000
0100
,
0220
0330
2002
3003
,
0101
1100
0220
0330
,
2002
0000
3003
0000
1000
0100
0010
0001
,
1000
0100
0010
0001
1000
0010
0100
0001
,
1000
0010
0000
0000
0101
0000
0000
0000
0001
0000
0010
0000
0100
0000
1000
0000
,
0001
0010
0100
1000
0001
0100
0010
1000
,
0001
0100
0000
0000
0110
0000
0000
0000
1000
0000
0001
0000
0010
0000
0100
0000
,
1000
0001
0010
0100
1000
0001
0100
0010
,
1000
0001
0000
0000
0110
0000
0000
0000
0001
0000
1000
0000
0100
0000
0010
0000
,
0001
1000
0100
0010
0001
1001
0000
0000
,
0100
0000
0000
0000
0110
0000
0000
0000
0001
1000
0001
0000
0100
0000
0010
0000
,
1000
0000
0001
0000
0100
0000
0010
0000
1000
0001
1000
0000
0100
0000
0010
0000
,
0001
1000
0000
0000
0110
0000
0000
0000
0001
0010
0001
0000
1000
0000
0100
0000
,
0010
0000
0001
0000
1000
0000
0100
0000
1000
0010
1000
0000
0001
0000
0100
0000
,
0010
1000
0000
0000
0101
0000
0000
0000
0001
0010
0001
0000
0100
0000
0010
0000
,
1000
0000
0100
0000
0010
0000
0001
0000
1000
0010
1000
0000
0100
0000
0010
0000
,
0001
0100
0000
0000
1010
0000
0000
0000
0001
0010
0000
0000
1100
0000
0000
0000
,
1000
0010
0000
0000
0101
0000
0000
0000
0010
0000
0220
0000
0000
0000
0000
0000
,
0330
0000
1001
0000
1000
0100
0101
0000
,
1100
0000
1000
1010
0000
0011
0000
0001
,
0010
1010
0000
1000
0100
0001
0201
2300
,
3020
0032
0013
1000
1100
0000
0101
0000
,
0100
1100
0000
1010
0000
0010
0011
0001
,
0000
0010
1010
1000
0002
0000
0000
0000
,
1003
1000
0100
0001
0100
0010
0001
0001
,
0100
0000
1000
0000
0100
0000
0010
0000
1000
0001
1000
0001
1000
0001
1000
0001
,
1000
0001
1000
0001
0020
0000
0000
0000
0000
0000
0000
0000
0000
0000
0000
0000
,
0000
0000
0000
0000
,
0000
0200
0000
0000
,
0330
0000
0000
1000
0100
1000
0100
0010
0100
0010
0001
0010
,
0001
1000
0001
0100
0000
0000
0000
0000
0000
1001
0000
0000
,
0000
0000
0000
0001
0100
0001
0100
0010
0100
0010
1000
0010
,
1000
0001
1000
0100
0000
0000
0000
0000
0000
1001
0000
0000
,
0000
0000
0000
1000
0010
1000
0010
0100
0010
0100
0001
0100
,
0001
1000
0001
0010
0000
0000
0000
0000
0000
0110
0000
0000
,
0000
0000
0000
0001
0010
0001
0010
0100
0010
0100
1000
0100
,
1000
0001
1000
0010
0000
0000
0000
0000
0000
0110
0000
0000
,
0000
0000
2100
0000
0000
0001
0000
0000
,
3010
0000
0102
0000
0000
1000
1000
0000
,
0013
0000
0000
0000
0220
0000
0000
0000
0330
0000
0000
0000
0100
0000
0000
1000
,
0000
0001
0100
0200
0000
0000
0020
0000
,
0330
0000
1001
0000
1000
0100
0010
0100
,
1000
0000
0002
0203
2300
3200
0320
0032
,
0023
2030
3001
0010
0100
1000
0010
0000
,
0110
0000
0000
0000
1000
0100
0000
0000
0100
0010
0000
0000
0010
0001
0000
0000
,
0001
1000
0000
0000
1001
0000
0000
0000
0001
0000
0010
0000
0100
0000
1000
0000
,
0010
0000
2000
3200
0302
0203
0320
2030
,
3020
0032
1003
0010
0100
0001
0010
0000
,
0100
0100
0110
0110
0000
0000
1001
0000
,
1000
0000
0001
0000
0201
0000
0000
0000
1000
0000
0000
0000
0301
0000
0000
0010
,
0000
0000
0100
0000
1200
0000
0000
0000
0001
0000
0000
0000
1300
0001
0000
0000
,
1001
0000
0000
0000
2010
0000
0000
0000
3100
0000
0000
0000
0012
0000
0000
1000
,
0000
0000
0103
0000
0001
0010
0001
0000
1000
0010
1000
0000
0100
0010
0100
0000
,
0010
0000
0010
0000
0000
0000
0000
0000
0000
0000
0000
0000
1000
0001
1000
0001
,
1000
0010
0100
1000
0100
0010
1000
0001
,
0010
0000
0010
0000
0001
1000
0001
1000
0001
0000
0010
0000
0100
0000
0001
0000
,
0100
0000
0010
0000
0001
0000
0100
0000
0010
0000
0010
0000
1000
0001
1000
0001
,
1000
0100
0010
1000
0010
0100
1000
0010
,
0100
0000
0100
0000
0001
1000
0001
1000
0001
0000
0100
0000
0010
0000
0001
0000
,
0010
1000
0001
0001
0001
0001
0100
0110
,
0010
0000
1000
0100
0010
0001
1000
0000
0100
0000
0110
0000
0010
0000
0001
0100
,
0010
1000
0001
0000
0010
0000
0110
0000
0100
0000
1000
0010
0100
0001
1000
0000
,
0010
0000
0110
0000
0100
0000
0001
0010
0100
1000
0010
0000
0100
0000
1001
0000
,
0010
0000
1000
0001
0010
0100
1000
0000
0010
0000
1001
0000
0100
0000
0001
1000
,
0010
0100
0001
0000
0010
0100
1000
0000
1000
0001
0100
0010
1000
0001
0100
0000
,
0010
0100
0001
0000
0001
1000
0100
0010
0001
1000
0100
0000
0220
0000
0000
0000
,
0000
0000
0000
0000
,
0000
0000
0000
0000
,
0330
0000
0000
0000
,
0000
0000
2002
0000
,
0000
0000
0000
0000
,
0000
0000
3003
0000
;

//--------------- dance-single - P1989 Mk II ----------------
#NOTES:
     dance-single:
     P1989 Mk II:
     Hard:
     17:
     0,0,0,0,0:
0000
0000
0000
0000
,
0000
0000
0000
0000
,
0000
0000
0000
0000
,
0000
0000
0000
0000
,
0000
0000
0000
0000
,
2002
0000
0000
0000
0000
3003
0000
0000
,
0000
0000
0000
0110
,
2002
3003
0220
0330
,
1100
0101
0220
0330
,
2002
0000
0000
0000
0000
0000
3003
0000
1000
0100
1000
0000
0100
0010
0100
0000
,
0010
0001
0010
0000
0100
0000
1000
0000
0001
0100
0001
0000
0100
0010
0100
0000
,
0010
1000
0000
1000
0001
0000
0000
0000
0100
0001
0100
0000
0001
0010
0001
0000
,
1000
0010
1000
0000
0100
0000
0010
0000
0001
0000
0100
0000
0110
0000
0000
0000
,
0010
1000
0001
0000
0021
0000
0000
0000
0130
1000
0100
0000
0010
0100
0010
0000
,
0001
0010
0001
0000
1000
0000
0010
0000
0100
0001
0100
0000
0001
1000
0001
0000
,
0010
0100
0000
0100
1000
0000
0000
0000
0010
1000
0001
0000
0010
0001
1000
0000
,
0100
1000
0001
0000
0100
0001
1000
0000
0100
0000
0110
0000
0000
0000
0001
1000
,
0000
1000
0001
0000
0100
0000
0100
0000
0010
1000
0001
0000
0010
0100
1000
0000
,
0001
1000
0010
0000
0100
0000
0001
0000
1000
0100
0010
0000
0001
1000
0010
0000
,
0100
0001
0000
0001
1000
0000
0000
0000
0100
1000
0001
0000
0100
0010
0100
0000
,
0001
1000
0010
0000
0100
0000
0001
0000
1000
0000
0100
1000
0100
0000
0010
0001
,
0000
0001
0100
0000
0110
0000
0000
0000
1000
0001
0010
0100
1000
0000
0001
0000
,
1000
0000
0010
0000
0101
0000
0000
0000
0001
1000
0010
0100
0001
0000
1000
0000
,
0001
0000
0010
0000
1100
0000
0000
0000
1000
0010
0100
0001
2000
0000
0010
0000
,
3001
0010
0100
1000
0002
0000
0010
0000
1003
0000
1001
0000
0000
0000
1000
0001
,
0000
0001
1000
0000
0010
0000
0100
0000
0010
0000
0110
0000
1001
0000
0000
0000
,
0110
0000
1001
1001
0000
0110
0000
1001
,
0011
0000
0001
0000
0000
0000
1001
0000
1010
0000
1000
0000
0001
0010
0100
1000
,
0001
1000
0100
0010
0001
0000
0100
0000
0110
0000
0000
0000
1001
0000
0000
0000
,
0110
0110
0000
1001
0000
0101
1001
1000
,
0000
0000
1100
0000
1001
0000
0001
0000
1000
0010
0100
0001
1000
0001
0100
0010
,
1000
0000
0100
0000
1000
0000
0010
0000
1000
0100
1000
0000
0001
0000
0100
0000
,
0001
0000
0010
0000
0001
0100
0001
0000
1000
0010
1000
0010
0100
0001
0100
0001
,
1000
0100
0010
0001
2000
0000
0000
0000
0000
0000
0000
0000
0000
0000
0000
0000
,
0000
0000
0000
0000
,
0000
0002
0000
0000
,
3003
0000
0000
0001
0100
0001
1000
0010
1000
0001
0010
0100
,
1000
0010
0100
0002
0000
0000
0003
0000
0000
1001
0000
0000
,
0000
0000
0000
1000
0100
1000
0001
0010
0001
1000
0010
0100
,
0001
0010
0100
2000
0000
0000
3000
0000
0000
0110
0000
0000
,
0000
0000
0000
0001
0010
0001
0100
0010
1000
0100
1000
0010
,
0100
0001
1000
0200
0000
0000
0300
0000
0000
0011
0000
0000
,
0000
0000
0000
1000
0010
1000
0100
0010
0001
0100
0001
0010
,
0100
1000
0001
0200
0000
0000
0300
0000
0000
1010
0000
0000
,
0000
0000
0000
0000
1000
0100
2000
0000
0000
0000
0001
0000
0000
0000
3010
0000
,
1000
0000
0001
0000
0010
0100
0020
0000
0000
0000
0031
0000
2000
0000
0000
0000
,
3010
0000
0100
0000
0102
0000
0000
0000
0000
0000
0000
0000
0100
0000
0000
1000
,
0000
0013
0110
0110
0000
0000
2002
0000
,
0000
0000
3003
0000
1000
0100
1000
0000
0001
0000
0010
0000
0100
0000
0000
0000
,
0110
0000
0020
0032
0203
2300
3002
0023
,
2030
0000
3200
0000
1300
0010
1000
0000
0001
0000
0010
0000
0100
0000
0000
0000
,
1001
0000
0000
0000
1000
0100
0000
0000
1000
0010
0000
0000
0001
0100
0000
0000
,
0001
0010
0000
0000
1000
0001
1000
0000
0010
0000
0100
0000
1000
0000
0100
0000
,
0001
0000
2000
3200
0302
2003
3020
0032
,
0203
0000
0302
0000
0013
0100
0010
0000
0001
0000
1000
0000
0010
0000
0000
0000
,
0100
0000
0100
0000
0110
0000
1001
0000
0000
0000
0001
0000
0100
0010
1000
0000
,
0001
0000
0010
0000
0110
0000
0000
0000
0100
0000
1000
0000
0020
0000
0000
1000
,
0000
0000
0001
0030
0110
0000
0000
0000
0100
0000
0001
0000
1000
0100
0010
0000
,
0001
0000
0000
0000
2100
0000
0000
0000
3010
0000
0000
0000
0102
0000
0000
1000
,
0000
0000
0013
0000
0110
0000
0000
0000
1001
0000
0000
0000
0100
0010
0100
0000
,
0010
0010
0000
0000
0000
0000
1100
1100
,
1000
0000
0001
0010
0100
0010
0001
0000
1000
0000
0001
0000
0100
0000
0001
1000
,
0010
1000
0001
0000
0101
0000
0101
0000
0001
0000
1000
0010
0100
0010
1000
0000
,
0001
0000
1000
0000
0100
0000
1000
0001
0010
0001
1000
0000
1010
0000
1010
0000
,
0010
0000
1000
0001
0100
0001
1000
0000
0100
0000
0010
0000
0100
0000
1000
0001
,
0010
0100
1000
0000
0011
0000
0011
0000
0010
0000
0001
1000
0100
1000
0001
0000
,
0100
0000
0010
0000
2000
0000
0001
0000
0001
0000
3001
0000
0001
0100
0001
0010
,
0001
0100
1000
0100
0001
1000
0010
0000
1000
0100
1000
0010
1000
0100
0001
0100
,
0010
0001
1000
0000
0001
0010
0001
0100
0001
0010
1000
0010
0001
1000
0100
0000
,
1000
0010
1000
0100
1000
0010
0001
0010
1000
0001
0100
0000
0001
0010
0001
0100
,
0001
1000
0100
0001
0100
0010
0001
0000
1000
0010
1000
0100
1000
0001
0100
1000
,
0100
0010
1000
0000
0100
1000
0010
1000
0001
0100
1000
0100
0010
1000
0001
0100
,
0010
1000
0001
0010
0001
1000
0100
0001
0100
0010
0001
1000
0020
0000
0130
0001
,
1000
0001
0010
0001
1000
0010
0100
0010
1000
0001
0100
0001
1000
0100
0010
0001
,
1000
0010
1000
0001
0010
0001
0100
0010
1000
0100
0010
0001
1000
0010
0100
0001
,
0010
0000
0000
0000
,
0000
0000
2002
0000
,
0000
0000
0000
0000
,
0000
0000
3003
0000
;
