#TITLE:MAISON;
#SUBTITLE:;
#ARTIST:Dreamcatcher;
#TITLETRANSLIT:;
#SUBTITLETRANSLIT:;
#ARTISTTRANSLIT:;
#GENRE:;
#CREDIT:;
#BANNER:;
#BACKGROUND:;
#LYRICSPATH:;
#CDTITLE:;
#MUSIC:MAISON.ogg;
#OFFSET:-0.361000;
#SAMPLESTART:48.486000;
#SAMPLELENGTH:12.000000;
#SELECTABLE:YES;
#BPMS:0.000000=120.000000
;
#STOPS:
;
#BGCHANGES:;
#KEYSOUNDS:;
#ATTACKS:;

//---------------dance-single - ----------------
#NOTES:
     dance-single:
     :
     Challenge:
     14:
     0.544401,0.671529,0.337240,0.741927,0.539584,452.000000,412.000000,40.000000,88.000000,3.000000,0.000000,0.544401,0.671529,0.337240,0.741927,0.539584,452.000000,412.000000,40.000000,88.000000,3.000000,0.000000:
// measure 0
0000
0000
0000
0000
,  // measure 1
0000
0000
0000
0000
,  // measure 2
0000
0000
0000
0000
,  // measure 3
0000
0000
0000
0000
,  // measure 4
1100
0000
0000
1100
0000
0000
1100
0000
0001
0010
0000
0100
0000
1000
0010
1000
,  // measure 5
0001
0000
0000
0101
0000
0000
0101
0000
1000
0100
0000
0010
0000
0001
0100
0001
,  // measure 6
1000
0000
0000
1010
0000
0010
1000
0000
0001
0100
0000
0010
0000
1000
0100
1000
,  // measure 7
0002
0000
0000
0013
0100
0000
1100
0000
1000
0010
0000
0100
0001
0100
0000
0002
,  // measure 8
0010
0000
2003
0000
0100
0000
0000
0100
0000
0000
3010
0000
0110
0000
1000
0000
,  // measure 9
0001
0010
0000
0100
0000
1000
0000
0002
0000
0103
0000
0010
0000
1000
0000
0200
,  // measure 10
0010
0000
0000
0010
0000
0000
0010
0000
2300
0000
0100
0000
0001
0000
0000
0000
,  // measure 11
3020
0000
0000
0100
0000
0000
0130
0000
0001
0000
0001
0000
1000
0100
0000
2000
,  // measure 12
0010
0000
3002
0000
0100
0000
0000
0100
0000
0000
0013
0000
0100
1000
0000
0020
,  // measure 13
0000
0031
0000
0010
0000
1000
0000
0002
0000
0000
0103
0000
0010
1000
0000
0200
,  // measure 14
0000
0301
0000
0100
0000
0010
0000
0002
0000
0000
0013
0000
0001
1000
0000
0020
,  // measure 15
0000
0031
0000
0010
0000
1000
0000
0200
0010
0000
0310
0000
0001
0000
0002
0000
,  // measure 16
1003
0000
0100
0000
0002
0000
0000
0103
0000
0000
0010
0000
0110
0000
1000
0000
,  // measure 17
0001
0100
0000
0010
0000
1000
0000
0002
0000
0013
0000
1000
0000
0010
0000
0100
,  // measure 18
1000
0000
0010
0000
0001
0000
0010
0100
0020
0000
0130
0000
0110
0000
0001
0000
,  // measure 19
1000
0100
0000
0010
0000
0001
0000
2000
0000
3020
0000
0032
0000
0023
0000
0130
,  // measure 20
0001
0000
0000
0000
0020
0000
0000
0130
2000
0000
3010
0000
0200
0000
0000
0000
,  // measure 21
0302
0000
0000
0000
1003
0000
0001
0010
0200
0000
2300
0000
3020
0000
0230
0000
,  // measure 22
0302
0000
0000
0000
0023
0000
0000
0130
2000
0000
3020
0000
0130
0000
0002
0000
,  // measure 23
0013
2000
3010
0002
0103
2000
3100
0002
,  // measure 24
1003
0000
0000
1000
0000
0000
1000
0010
0100
0000
0010
1000
0100
0000
0010
0000
,  // measure 25
0001
0000
0000
0001
0000
0000
0001
0010
0100
0000
0010
0001
0100
0000
0001
0000
,  // measure 26
1000
0000
0000
1000
0000
0000
1000
0010
0100
0000
0010
0000
0110
0000
1000
0000
,  // measure 27
0002
0000
0000
0023
0000
0000
0130
0000
2000
0000
0000
3002
0000
0000
0103
0000
,  // measure 28
0010
0000
0000
0010
0000
0000
1000
0100
0010
0000
0001
0100
0010
0000
1000
0000
,  // measure 29
0100
0000
0000
0100
0000
0000
1000
0010
0100
0000
0001
0010
0100
0000
1000
0000
,  // measure 30
0010
0000
0000
0010
0000
0000
1000
0100
0010
0000
0100
0000
0110
0000
1000
0000
,  // measure 31
0001
0000
0000
0101
0000
0000
0110
0000
1010
0000
0000
0011
0000
0000
0220
0000
,  // measure 32
0000
0000
0000
0330
,  // measure 33
2000
0000
3001
0100
0001
1000
0100
0010
,  // measure 34
0002
0000
0203
0000
2300
0000
3100
0002
,  // measure 35
0000
0000
0000
1003
0010
1000
0010
0100
,  // measure 36
0001
0000
0001
0010
1000
0000
0010
0000
,  // measure 37
0012
0000
0000
0000
0000
0000
0103
0010
2000
0000
0000
0000
0000
0000
3001
0010
,  // measure 38
0200
0000
2300
3020
2030
3200
0302
0203
,  // measure 39
2300
3000
2000
3200
2300
3020
0032
0023
,  // measure 40
2030
0000
0000
0000
0200
0300
0000
0000
0002
0003
0000
0000
0020
0030
0000
0000
,  // measure 41
0002
0003
0000
0000
0002
0003
0000
0000
0002
0003
0000
0000
0002
3003
0000
0000
,  // measure 42
1001
0000
0000
1000
0010
0000
1000
0100
0001
0000
0100
1000
0010
0000
0100
0000
,  // measure 43
0101
0000
0000
0001
0010
0000
0001
0100
1000
0000
0100
0001
0010
0000
0100
0000
,  // measure 44
1100
0000
0000
1000
0010
0000
1000
0100
0001
0000
0100
0000
0110
0000
0001
0000
,  // measure 45
0101
0000
0001
0010
0100
0000
1000
0000
0001
0100
0001
0100
0010
1000
0001
0010
,  // measure 46
0110
0000
0000
0100
0001
0000
0100
1000
0010
0000
0001
0010
1000
0000
0010
0000
,  // measure 47
0110
0000
0000
0100
1000
0000
0100
0001
0010
0000
1000
0010
0001
0000
0010
0000
,  // measure 48
0110
0000
0100
0010
1000
0000
0010
0001
0100
0000
0010
0000
0110
0000
1000
0000
,  // measure 49
1001
0000
0000
0101
0000
0000
0110
0000
1010
0000
0000
0011
0000
0000
0110
0000
,  // measure 50
1000
0000
0001
0100
0010
0000
1000
0000
0001
0000
0010
0000
0110
0000
0200
0000
,  // measure 51
0000
0000
0310
0001
0100
0000
1000
0000
0100
0000
0010
0000
0110
0000
0020
0000
,  // measure 52
1030
0000
0200
0000
0002
0003
0000
0000
100M
0010
0000
0000
0000
0000
2000
3000
,  // measure 53
0000
0000
0002
0003
0000
0000
0020
0030
M001
0010
0000
0000
1300
0000
0000
0000
,  // measure 54
0001
0000
1000
0010
0100
0000
0001
0000
0010
0000
0100
0000
0110
0000
0020
0000
,  // measure 55
0000
0000
0130
1000
0010
0000
0001
0000
0010
0000
0100
0000
0110
0000
0200
0000
,  // measure 56
0301
0000
0020
0000
2000
3000
0000
0000
M001
0100
0000
0000
1030
0000
0000
0000
,  // measure 57
0011
0000
0000
0110
0000
0000
1100
0000
0001
0000
0000
2000
0000
0000
0020
0000
,  // measure 58
0000
0000
0000
0000
,  // measure 59
3030
0000
0000
0000
;
