#VERSION:0.83;
#TITLE:M4K3 1T B0UNC3;
#SUBTITLE:;
#ARTIST:kors k;
#TITLETRANSLIT:;
#SUBTITLETRANSLIT:;
#ARTISTTRANSLIT:;
#GENRE:HDM;
#CREDIT:;
#MUSIC:M4K3 1T B0UNC3.ogg;
#BANNER:M4K3 1T B0UNC3.png;
#BACKGROUND:M4K3 1T B0UNC3-bg.png;
#CDTITLE:./CDTitles/bm IIDX 23 copula.png;
#SAMPLESTART:18.346;
#SAMPLELENGTH:15.000;
#SELECTABLE:YES;
#OFFSET:0.837;
#BPMS:0.000=150.000
,146.000=75.000
,149.500=150.000
,276.000=75.000
,279.500=150.000
;
#STOPS:48.000=0.100
,48.250=0.100
,48.500=0.100
,48.750=0.100
,49.000=0.100
,49.250=0.100
,49.500=0.200
,149.500=0.200
,210.000=0.100
,210.250=0.100
,210.500=0.100
,210.750=0.100
,211.000=0.100
,211.250=0.100
,211.500=0.200
;
#BGCHANGES:4.000=M4K3 1T B0UNC3.mp4=1.000=0=0=0=StretchNoLoop====,
99999.000=-nosongbg-=1.000=0=0=0=StretchNoLoop====
;
#FGCHANGES:;

//--------------- dance-single - forcednature ----------------
#NOTEDATA:;
#STEPSTYPE:dance-single;
#DESCRIPTION:forcednature;
#CREDIT:forcednature;
#DIFFICULTY:Beginner;
#METER:5;
#RADARVALUES:0,0,0,0,0;
#NOTES:
0000
0000
0000
0000
,
0000
0000
0000
0000
,
0000
0000
0000
0000
,
0000
0000
0000
0000
,
0000
0000
0000
0000
,
1001
0000
0000
0000
,
1000
0000
0100
0000
,
1000
0000
0001
0000
,
0100
0000
0001
0000
,
1001
0000
0010
0000
,
0010
0000
0100
0000
,
0100
0000
0010
0000
,
2002
0000
0000
3003
0000
0000
1000
0000
,
0000
1000
0000
1000
,
0000
0000
0000
0001
,
0000
0001
0000
0001
,
0000
0000
0000
0100
,
0000
0100
0000
0100
,
0000
0000
0000
0010
,
0000
0100
0110
0000
,
0000
0000
0000
1000
,
1000
1000
0000
1000
,
0000
1000
0000
0001
,
0001
0001
0000
0001
,
0000
0001
0000
0100
,
0100
0100
0000
0100
,
0000
0100
0000
0010
,
0010
0010
0220
0000
,
0330
0000
0001
0000
,
0100
0000
0001
0100
,
0001
0000
1000
0000
,
0100
0000
1000
0100
,
1000
0000
0001
0000
,
0010
0000
0001
0010
,
0001
0000
1000
0000
,
0010
0000
0220
0000
,
0330
0000
2002
0000
,
0000
0000
0000
3003
0000
0000
1000
0000
,
1000
0000
0100
0000
,
0010
0010
0000
0001
,
0001
0000
0100
0000
,
0010
0000
0000
1000
,
1000
0000
0100
0000
,
0010
0000
0000
0001
,
0001
0000
0100
0000
,
0010
0000
1001
0000
,
1000
0100
1000
0000
,
0010
0000
1001
0000
,
0001
0100
0001
0000
,
0010
0000
0100
1000
,
0100
0000
1000
0010
,
1000
0000
0001
0010
,
0001
0000
0000
0000
2002
0000
0000
3003
,
0000
1000
0100
1000
,
0100
0010
0010
0010
,
0000
0001
0100
0001
,
0100
0010
0010
0010
,
0000
1000
0001
1000
,
0100
0010
0100
1000
,
0000
0001
1000
0001
,
0100
0000
0010
0000
,
1001
0000
1000
0100
,
0010
0001
0010
0000
,
1001
0000
0001
0100
,
0010
1000
0010
0000
,
1001
0000
1000
0100
,
1000
0001
0010
0000
,
1001
0000
0001
0100
,
0001
1000
0010
0000
,
2002
0000
0000
0000
0000
0000
0000
3003
;

//--------------- dance-single - forcednature ----------------
#NOTEDATA:;
#STEPSTYPE:dance-single;
#DESCRIPTION:forcednature;
#CREDIT:forcednature;
#DIFFICULTY:Easy;
#METER:9;
#RADARVALUES:0,0,0,0,0;
#NOTES:
0000
0000
0000
0000
,
0000
0000
0000
0000
,
0000
0000
0000
0000
,
0000
0000
0000
0000
,
0000
0000
0000
0000
,
1001
1000
0001
0100
,
1001
0000
0001
0000
1000
0000
0100
1000
,
0001
0000
0010
0000
0001
0000
0100
0001
,
1000
0010
1000
1001
,
0110
0000
0001
1000
0001
0000
0100
0000
,
0010
0000
1000
0001
1000
0000
0100
0000
,
0110
0110
0110
1001
,
0020
0000
0000
0000
0100
0000
0230
0300
0000
0000
0000
0000
1001
0000
0000
0000
,
1000
0000
0100
1000
0001
0000
0100
0001
,
1000
0010
0110
1000
,
0001
0000
0100
0001
1000
0000
0100
1000
,
0001
1001
0110
1000
,
0001
0000
0010
0100
1000
0000
0010
0100
,
0001
1000
0100
1001
,
0110
0000
0001
1000
0020
0000
0030
0100
,
0010
0000
0110
0000
1001
0000
1000
0100
,
0010
0000
0001
0010
0100
0000
1000
0000
,
0001
0000
0000
0001
0000
0000
0001
0000
0000
0000
0000
0000
0110
0000
0000
0000
,
0001
0000
1000
0001
0100
0000
0001
1000
,
0100
0000
0100
0010
0000
0000
0110
0000
,
1000
0000
0001
0010
0100
0000
1000
0010
,
0100
0000
0000
0100
0000
0000
0100
0000
0000
0000
0000
0000
1001
0000
0000
0000
,
0110
0000
1000
0001
0020
0000
0100
0100
,
0200
0000
0330
0000
1001
0000
1000
0100
,
0000
0100
1000
0000
1001
0000
0001
0100
,
0000
0100
0001
0000
0110
0000
1000
0001
,
0000
0001
1000
0000
0110
0000
0001
1000
,
0000
1000
0001
0000
1001
0000
0010
0010
,
0000
0100
0100
0000
0110
0000
0001
0001
,
0000
1000
1000
0000
1001
0000
0001
0100
,
0000
0010
1000
0000
0210
0000
0000
0000
,
0001
0301
2002
0000
,
0000
0000
3003
0110
0000
0000
1000
1000
,
1000
0000
0001
0000
0010
0010
0010
0000
,
0001
0000
0000
0001
0000
0000
1000
0000
0000
0000
0000
0000
0001
0000
0001
0000
,
0001
0000
1000
0000
0010
0010
0010
0000
,
1000
0000
0000
1000
0000
0000
0001
0000
0000
0000
0000
0000
0100
0000
0100
0000
,
0100
0000
0001
0000
0010
0010
0010
0000
,
0100
0000
0000
0100
0000
0000
1000
0000
0000
0000
0000
0000
0010
0000
0010
0000
,
0010
0000
0100
0000
0001
0001
0001
0000
,
1000
0000
0000
1000
0000
0000
0100
0000
0000
0000
0000
0000
0010
0000
0100
0000
,
0010
0000
0001
0000
0100
0000
0010
0100
,
0010
0000
1000
0000
0100
0000
0010
0100
,
0010
0000
0001
0000
0100
0000
0010
0100
,
0010
1000
1001
0100
,
1001
0010
0110
1000
,
0110
0000
0001
0000
1000
0100
1000
0000
,
0001
0000
0100
0000
0001
0000
0000
0000
0020
0000
0000
0000
0100
0000
0230
0300
,
0000
0000
1000
0001
1000
0000
0001
0100
,
0001
1000
1001
0220
,
0330
0000
0001
0100
0001
0000
1000
0100
,
1000
0010
1001
0220
,
0330
0000
1000
0100
1000
0000
0100
0010
,
0100
0010
0011
2200
,
3300
0000
0001
0100
0001
0000
0100
0010
,
0100
0010
1010
0202
,
0303
0000
1000
0100
1000
0000
0001
0100
,
0001
0010
0110
2002
,
3003
0000
0001
0100
0001
0000
1000
0100
,
1000
0010
0110
2002
,
3003
0000
1000
0010
1000
0000
0100
1000
,
0100
0010
0110
1001
,
0000
0000
0001
0100
0001
0000
0010
0001
,
0010
0100
0110
1001
,
0220
0000
0000
0000
0000
0000
0330
2002
,
0000
3003
0000
0000
0000
0000
0000
0000
;

//--------------- dance-single - forcednature ----------------
#NOTEDATA:;
#STEPSTYPE:dance-single;
#DESCRIPTION:forcednature;
#CREDIT:forcednature;
#DIFFICULTY:Medium;
#METER:13;
#RADARVALUES:0,0,0,0,0;
#NOTES:
0000
0000
0000
0000
,
0000
0000
0000
0000
,
0000
0000
0000
0000
,
0000
0000
0000
0000
,
0000
0000
0000
0000
,
1000
0000
0100
1000
0001
0000
0010
0000
,
0001
0000
0100
0001
1000
0000
0010
0000
,
0101
0010
1100
0010
,
1001
0100
0110
0010
,
1001
0000
1000
0100
0010
0100
0010
0001
,
1000
0000
0001
0100
0010
0100
0010
1000
,
0002
0000
0000
0000
0023
0000
0000
0000
0230
0000
0000
0000
2300
0000
0000
3000
,
0010
0010
0010
0000
0110
0000
2002
3003
0000
0000
0000
0000
1000
0000
0100
0000
,
0001
0100
1000
0001
0010
0000
0001
1000
,
0010
0000
0000
0110
0000
0000
0001
0000
1000
0000
0000
0000
0001
0000
0100
0000
,
1000
0100
0001
1000
0020
0000
0130
0001
,
0010
0000
0000
0010
0100
0000
1000
0000
0020
0000
0000
0000
1030
0000
0100
0000
,
0001
0100
1000
0001
0010
0000
0100
1000
,
0001
0000
0000
1001
0000
0000
0010
0000
0100
0000
0000
0000
0110
0000
0000
0000
,
1001
0000
1000
0001
0200
0000
0010
0010
,
0310
0000
1001
0000
1000
0100
0010
0100
,
1000
0010
0001
0010
1000
0100
0010
0001
,
0100
0000
0000
0110
0000
0000
1000
0000
0001
0000
0100
0000
0010
0000
1000
0000
,
0001
0010
1000
0010
0100
2000
0000
3010
,
0100
0000
0000
0100
0001
0000
0010
0000
0100
0000
0000
0000
1001
0000
0000
0000
,
1000
0010
0100
1000
0100
0001
1000
0010
,
0100
0000
0000
0110
0000
0000
0001
0000
1000
0000
0000
0000
0010
0000
1000
0000
,
0001
0100
1000
0100
0002
0000
0010
0010
,
0013
0000
1001
0000
0110
0000
0001
1000
,
0001
0100
0001
0100
0001
0100
0010
1000
0010
1000
0010
1000
,
0001
0100
1001
0000
0110
0000
1000
0001
,
2000
0000
3020
0000
2030
0000
3002
0000
0023
0000
0032
0000
,
1003
0100
1001
0000
0110
0000
1000
0001
,
1000
0100
1000
0100
1000
0100
0010
0001
0010
0001
0010
0001
,
1000
0100
1001
0000
0110
0000
0001
1000
,
0002
0000
0023
0000
0230
0000
2300
0000
3020
0000
0230
0000
,
0301
1000
1001
0000
0220
0000
0000
0000
,
0000
0000
0330
1001
0000
0000
1000
1000
,
0001
0000
0100
0000
0000
0000
0100
0000
0001
1000
0001
1000
0001
0000
0000
0000
,
0100
0000
0000
0010
0000
0000
0100
0000
0000
0000
0000
0000
0001
0000
0001
0000
,
1000
0000
0100
0000
0000
0000
0100
0000
1000
0001
1000
0001
1000
0000
0000
0000
,
0010
0000
0000
0100
0000
0000
0110
0000
0000
0000
0000
0000
0001
0000
0001
0000
,
1000
0000
0010
0000
0000
0000
0010
0000
1000
0001
1000
0001
1000
0000
0000
0000
,
0100
0000
0000
0010
0000
0000
0100
0000
0000
0000
0000
0000
1000
0000
1000
0000
,
0001
0000
0010
0000
0000
0000
0010
0000
0001
1000
0001
1000
0001
0000
0000
0000
,
0100
0000
0000
0100
0000
0000
0010
0000
1001
0000
0000
0000
0001
0000
1000
0000
,
0100
0010
0001
0000
1001
0000
1000
0001
,
0100
0010
1000
0000
1100
0000
0001
0010
,
0100
1000
0001
0000
0101
0000
1000
0010
,
0100
0001
1000
0000
0010
0100
0010
0100
,
0001
0010
0100
0000
0010
0100
0010
0100
,
1000
0010
0100
0000
0002
0000
0023
0000
,
0230
0000
0000
0000
2300
0000
0000
0000
3010
0010
0010
0000
0110
0000
1001
0000
,
2000
0000
0000
0000
3001
0100
0001
0000
0100
0010
0100
0000
0010
1000
0010
0000
,
1000
0100
1000
0000
0100
0010
0100
0000
0010
0000
0000
1001
0000
0000
0100
0000
,
0110
0000
0000
0000
0001
0010
0001
0000
0010
0100
0010
0000
0100
1000
0100
0000
,
1000
0010
1000
0000
0010
0100
0010
0000
0100
0000
0000
0001
0010
0000
0100
0000
,
1001
0000
0000
0000
1000
0100
0010
0000
0100
0010
0001
0000
0010
0001
1000
0000
,
0001
1000
0100
0000
1000
0100
0010
0000
0001
0000
0000
1001
0000
0000
0110
0000
,
1000
0000
0000
0000
0001
0100
0010
0000
0100
0010
1000
0000
0010
1000
0001
0000
,
0020
0000
0100
0000
0001
0000
0100
0000
0031
0000
0000
0001
2000
0000
0000
0000
,
3010
0100
0000
0100
0001
0000
0010
0100
1000
0000
0010
0000
1000
0100
0010
0000
,
0001
0000
0100
0010
1000
0000
0100
0000
0110
0000
0000
0010
0100
0000
1001
0000
,
0000
0000
0001
0000
1000
0000
0010
0100
0001
0000
0010
0000
0001
0100
0010
0000
,
1000
0000
0100
0010
0001
0000
0100
0000
0110
0000
0000
0010
0100
0000
1001
0000
,
0110
0000
0000
0000
0001
0010
0100
0000
0010
0100
1000
0000
0100
1000
0001
0000
,
1000
0001
0010
0000
0001
0010
0100
0000
0110
0000
0000
1001
0000
0000
0110
0000
,
0001
0000
0000
0000
1000
0010
0100
0000
0010
0100
0001
0000
0100
0001
1000
0000
,
0001
0010
0001
0000
1000
0010
1000
0000
0100
0010
0100
0010
0001
0000
0000
0000
,
2002
0000
0000
0000
0000
0000
3003
0220
,
0000
0330
0000
0000
0000
0000
0000
0000
;

//--------------- dance-single - forcednature ----------------
#NOTEDATA:;
#STEPSTYPE:dance-single;
#DESCRIPTION:forcednature;
#CREDIT:forcednature;
#DIFFICULTY:Hard;
#METER:16;
#RADARVALUES:0,0,0,0,0;
#NOTES:
0000
0000
0000
0000
,
0000
0000
0000
0000
,
0000
0000
0000
0000
,
0000
0000
0000
0000
,
0000
0000
0000
0000
,
1100
0000
1010
0000
0001
0100
0010
1000
,
0001
0000
0000
0000
0011
0000
0000
0000
1000
0000
0000
1000
0100
0000
0010
0000
,
0001
0000
0000
0001
0100
0000
0010
0000
1000
0000
0000
1000
0001
0000
0010
0000
,
0001
0000
0000
0001
1000
0000
0010
0000
0100
0000
0000
0000
1001
0000
0000
0000
,
1000
0100
1000
0000
0001
0000
0010
0000
0001
0100
0001
0000
1000
0000
0010
0000
,
1000
0001
0010
0000
0100
0000
1000
0000
0001
1000
0010
0000
0110
0000
0000
0000
,
0001
0100
0001
0000
1000
0100
1000
0000
0001
0010
0001
0000
1000
0010
1000
0000
,
0100
0100
0010
0010
0001
1000
2002
3003
0000
0000
0000
0000
1000
0000
0100
0000
,
0001
0000
0100
1000
0001
0000
0100
0000
0110
0000
0000
0010
1000
0000
0100
0000
,
0110
0000
0000
0011
0000
0000
1000
0000
0001
0000
0010
0000
0001
0000
0100
0000
,
1000
0000
0100
0001
1000
0000
0100
0000
0010
0001
1000
0000
1000
0001
0100
0000
,
0010
0000
1000
0001
0010
0000
0100
0000
1000
0020
0000
0000
1030
0000
0100
0000
,
0001
0000
0100
1000
0001
0000
0100
0000
0110
0000
0000
0010
1000
0000
0100
0000
,
0110
0000
0000
1001
0000
0000
0001
0000
1000
0000
0100
0000
1000
0000
0010
0000
,
0001
0000
0010
1000
0001
0000
0100
0000
2002
0000
0000
0000
3003
0000
1000
0000
,
0001
0010
0100
1000
0020
0000
0000
0000
1030
0100
0000
0010
0100
0000
0001
0000
,
0100
0000
1000
0100
1000
0000
0010
0000
1000
0100
0000
0100
0010
0000
0100
0010
,
0001
0000
0000
0011
0000
0000
1100
0000
1000
0000
0001
0000
0100
0000
1000
0000
,
0100
0000
0001
0100
0001
0000
0010
0000
0001
0100
0020
0000
0230
0000
0310
1000
,
0001
0000
0010
0100
1000
0000
0001
0000
1000
0020
0000
0000
0130
0000
1000
0000
,
0100
0000
0001
0100
0001
0000
0010
0000
0001
0100
0000
0100
0010
0000
0100
0010
,
1000
0010
0000
1002
0000
0000
1003
0000
0100
0000
0001
0000
0100
0000
1000
0000
,
0010
0000
1000
0001
1000
0000
0100
0000
1001
0000
0000
0000
0100
0010
0100
0010
,
0100
0010
0000
0000
2001
0000
0000
0000
3001
0000
0000
0001
1000
0000
0010
0000
,
0100
0010
1000
0100
0010
0100
1000
0010
0100
0010
1000
0100
,
0010
0000
0110
0000
1001
0000
0000
0000
0011
0000
0000
0010
0100
0000
0010
0000
,
0002
0000
0203
0000
2300
0000
3002
0000
0023
0000
2030
0000
,
3001
0000
1001
0000
0110
0000
0000
0000
1001
0000
0000
1000
0001
0000
0010
0000
,
0100
0010
0001
0100
0010
0100
0001
0010
0100
0010
0001
0100
,
0010
0000
0110
0000
1001
0000
0000
0000
0110
0000
0000
0001
1000
0000
0010
0000
,
2000
0000
3200
0000
0302
0000
2003
0000
3020
0000
0032
0000
,
1003
0000
0010
0100
0001
1000
0010
0000
2002
0000
0000
0000
0000
0000
0000
0000
,
0000
0000
0000
0000
3003
0000
0110
0000
0000
0000
0000
0000
1000
0100
1000
0000
,
0001
0000
1000
0100
0000
0000
1000
0000
0001
0010
0001
0010
0001
0000
1000
0000
,
0010
0000
0000
0110
0000
0000
1001
0000
0000
0000
0000
0000
0001
0100
0001
0000
,
1000
0000
0001
0100
0000
0000
0001
0000
1000
0010
1000
0010
1000
0000
0001
0000
,
0011
0000
0000
1100
0000
0000
1001
0000
0000
0000
0000
0000
1000
0010
1000
0000
,
0001
0000
1000
0010
0000
0000
1000
0000
0001
0100
0001
0100
0001
0000
1000
0000
,
0100
0000
0000
1001
0000
0000
0110
0000
0000
0000
0000
0000
0001
0100
0001
0000
,
1000
0000
0001
0100
0000
0000
0001
0000
1000
0010
1000
0010
1000
0000
0001
0000
,
0011
0000
0000
1100
0000
0000
0100
0000
2001
0000
0000
0000
0100
0000
0000
0000
,
0001
3010
1002
0100
,
1000
0013
1200
0001
,
0010
1300
0021
1000
,
0100
0000
0000
0000
0031
0000
0000
0000
0010
0000
0001
1000
0000
0001
0100
0000
,
0010
0000
1000
0001
0000
1000
0100
0000
0010
0000
0001
0100
0000
0001
1000
0000
,
0010
0000
1000
0100
0000
1000
0001
0000
0010
0001
0010
0000
0001
0100
0001
0000
,
1000
0100
1000
0000
0010
1000
0010
0000
0100
0100
0010
0010
1000
0001
2002
3003
,
1000
0100
0000
1000
0001
0100
0010
0100
0001
1000
0010
1000
0001
0010
0100
1000
,
0001
0100
0010
1000
0001
0010
0100
1000
0010
0000
0000
1001
0000
1000
0010
0100
,
0002
0000
0000
0000
1003
0100
0010
0100
1000
0001
0010
0001
1000
0010
0100
0001
,
1000
0100
0010
0001
1000
0010
0100
0001
0010
0000
0001
0100
1000
0000
0100
0000
,
0102
0000
0000
0000
1003
0100
1000
0001
0100
0001
1000
0010
1000
0001
0010
0001
,
0100
0010
1000
0100
0010
0001
0100
0010
1000
0000
0000
1100
0000
0100
0010
0001
,
0200
0000
0000
0000
0301
0010
0001
1000
0010
1000
0001
0100
0001
1000
0100
1000
,
0010
0000
0100
0001
1000
0001
0100
0001
1000
0000
0010
0000
2001
0000
0000
0000
,
3100
0001
0100
1000
0001
0010
0100
1000
0010
1000
0100
0010
0001
0100
0001
0010
,
0100
1000
0010
0100
0001
0010
0100
1000
0010
0000
1000
0001
0000
1000
0100
0001
,
0000
0000
0100
0000
1000
0100
0010
0001
0100
0001
0010
0100
1000
0010
1000
0100
,
0010
0001
0100
0010
1000
0100
0010
0001
0100
0000
1000
0100
0001
0000
1000
0000
,
0020
0000
0000
0000
1030
0100
0010
0001
0100
0010
1000
0100
0010
0001
0100
0010
,
1000
0100
1000
0010
0100
0001
0010
0001
0100
0000
0000
1001
0000
0001
0100
1000
,
0200
0000
0000
0000
0301
0100
0010
1000
0100
0010
0001
0100
0010
1000
0100
0010
,
0001
0100
0001
0010
0100
1000
0010
1000
0001
0100
0010
0100
1000
0000
0000
0000
,
0220
0000
0000
0000
0000
0000
0330
2002
,
0000
3003
0000
0000
0000
0000
0000
0000
;

//--------------- dance-double - forcednature ----------------
#NOTEDATA:;
#STEPSTYPE:dance-double;
#DESCRIPTION:forcednature;
#CREDIT:forcednature;
#DIFFICULTY:Easy;
#METER:9;
#RADARVALUES:0,0,0,0,0;
#NOTES:
00000000
00000000
00000000
00000000
,
00000000
00000000
00000000
00000000
,
00000000
00000000
00000000
00000000
,
00000000
00000000
00000000
00000000
,
00000000
00000000
00000000
00000000
,
00011000
00010000
00000100
00010000
,
00011000
00000000
00001000
00000000
01000000
00000000
00001000
00010000
,
00000010
00000000
00010000
00000000
00001000
00000000
00010000
00001000
,
01000000
00010000
10000000
10010000
,
01100000
00000000
00010000
01000000
00001000
00000000
00010000
00000000
,
00000100
00000000
00001000
00000001
00000100
00000000
00000110
00000000
,
00000010
00010000
00001000
00000000
00010000
00001000
01000000
00000000
,
00200000
00000000
00000000
00000000
10000000
00000000
20300000
30000000
00000000
00000000
00000000
00000000
01000000
00000000
00000000
00000000
,
00010000
00000000
00001000
00010000
00001000
00000000
00000010
00001000
,
00000010
00000001
00001001
00001000
,
00000010
00000000
00010000
00001000
00010000
00000000
00100000
00000000
,
10000000
00010000
10000000
00000000
01100000
00000000
10000000
00000000
,
00010000
00000000
01000000
00001000
00010000
00000000
00000100
00010000
,
00001000
00000010
00000110
00000100
,
00001001
00000000
00000001
00000100
00002000
00000000
00003000
00001000
,
00010000
00000000
00100000
00000000
10010000
00000000
10000000
01000000
,
00010000
00000000
00001000
00010000
01000000
00000000
00100000
00000000
,
00001000
00000000
00000000
00001000
00000000
00000000
00001000
00000000
00000000
00000000
00000000
00000000
00011000
00000000
00000000
00000000
,
00010000
00000000
00000010
00000100
00001000
00000000
00010000
00001000
,
00000200
00000000
00000301
00001000
00000000
00000000
00011000
00000000
,
01000000
00000000
00001000
00010000
01000000
00000000
10000000
01000000
,
00010000
00000000
00000000
00010000
00000000
00000000
00010000
00000000
00000000
00000000
00000000
00000000
00010100
00000000
00000000
00000000
,
00000110
00000000
00000010
00000001
00000200
00000000
00000010
00000010
,
00000020
00000000
00000330
00000000
00001001
00000000
00000001
00000100
,
00000000
00000100
00001000
00000000
00011000
00000000
00010000
01000000
,
00000000
01000000
10000000
00000000
10010000
00000000
10000000
00100000
,
00000000
00100000
00010000
00000000
00011000
00000000
00001000
00000010
,
00000000
00000010
00000001
00000000
00001001
00000000
00001000
00001000
,
00000000
00000100
00010000
00000000
00011000
00000000
00001000
00001000
,
00000000
01000000
00010000
00000000
10010000
00000000
10000000
01000000
,
00000000
00010000
00001000
00000000
00021000
00000000
00000000
00000000
,
00000010
00030010
00000220
00000000
,
00000000
00000000
00000330
00001001
00000000
00000000
00000001
00000001
,
00000001
00000000
00000100
00000000
00001000
00001000
00001000
00000000
,
00010000
00000000
00000000
00010000
00000000
00000000
00010000
00000000
00000000
00000000
00000000
00000000
00001000
00000000
00001000
00000000
,
00001000
00000000
00010000
00000000
01000000
01000000
01000000
00000000
,
10000000
00000000
00000000
10000000
00000000
00000000
00010000
00000000
00000000
00000000
00000000
00000000
10000000
00000000
10000000
00000000
,
10000000
00000000
01000000
00000000
00010000
00010000
00010000
00000000
,
00001000
00000000
00000000
00001000
00000000
00000000
00010000
00000000
00000000
00000000
00000000
00000000
00001000
00000000
00001000
00000000
,
00001000
00000000
00000100
00000000
00000001
00000001
00000001
00000000
,
00001000
00000000
00000000
00001000
00000000
00000000
00000001
00000000
00000000
00000000
00000000
00000000
00000100
00000000
00001000
00000000
,
00000100
00000000
00001000
00000000
00010000
00000000
01000000
00010000
,
01000000
00000000
00010000
00000000
00001000
00000000
00000010
00001000
,
00000010
00000000
00001000
00000000
00010000
00000000
00100000
00010000
,
00100000
00010000
00011000
01000000
,
00011000
00000100
00011000
00100000
,
00011000
00000000
00000010
00000000
00010000
00001000
01000000
00000000
,
00001000
00000000
00010000
00000000
00000100
00000000
00000000
00000000
00000020
00000000
00000000
00000000
00000001
00000000
00000032
00000003
,
00000000
00000000
00000100
00000001
00000100
00000000
00001000
00000100
,
00001000
00010000
00100000
10010000
,
00000000
00000000
01000000
10000000
01000000
00000000
00010000
01000000
,
00010000
00000000
00001000
00010000
00001000
00000000
00000110
00000000
,
00000000
00000000
00000001
00000100
00000010
00000000
00000100
00000010
,
00010000
00000000
00000010
00010000
00001000
00000000
01100000
00000000
,
00000000
00000000
10000000
01000000
00100000
00000000
01000000
00100000
,
00001000
00000000
00010000
00001000
00010000
00000000
00022000
00000000
,
00033000
00000000
00010000
00000100
00010000
00000000
00001000
01000000
,
00001000
00000000
00010000
00000100
00010000
00000000
00022000
00000000
,
00033000
00000000
00001000
00100000
00001000
00000000
00010000
00000010
,
00010000
00000000
00001000
01000000
00001000
00000000
00022000
00000000
,
00033000
00000000
00100000
00001000
00010000
00000000
00000100
00010000
,
00001000
00000000
01000000
00001000
00010000
00000000
00011000
00000000
,
00000000
00000000
00000010
00010000
00001000
00000000
00100000
00001000
,
00010000
00100000
01100000
10010000
,
02200000
00000000
00000000
00000000
00000000
00000000
03300000
00022000
,
00000000
00033000
00000000
00000000
00000000
00000000
00000000
00000000
;

//--------------- dance-double - forcednature ----------------
#NOTEDATA:;
#STEPSTYPE:dance-double;
#DESCRIPTION:forcednature;
#CREDIT:forcednature;
#DIFFICULTY:Medium;
#METER:14;
#RADARVALUES:0,0,0,0,0;
#NOTES:
00000000
00000000
00000000
00000000
,
00000000
00000000
00000000
00000000
,
00000000
00000000
00000000
00000000
,
00000000
00000000
00000000
00000000
,
00000000
00000000
00000000
00000000
,
00011000
00000000
00010000
01000000
10000000
01000000
00010000
00000000
,
00001000
00000000
00000010
00000001
00000100
00000000
00001000
00010000
,
00100000
00000000
00010000
00001000
00000010
00000000
00001000
00010000
,
01000000
00000000
00010000
00001000
00000100
00000000
00000110
00000000
,
00001001
00000000
00000001
00000100
00001000
00010000
00001000
00010000
,
00100000
00000000
10000000
01000000
00010000
00001000
00011000
00000000
,
00001000
00000010
00000001
00000100
00000001
00000010
00001000
00010000
,
01000000
01000000
01000000
00000000
01100000
00000000
20020000
30030000
00000000
00000000
00000000
00000000
10000000
00000000
01000000
00000000
,
00010000
00001000
00010000
01000000
00100000
00000000
00001000
00010000
,
00100000
00000000
00000000
01100000
00000000
00000000
10000000
00000000
01000000
00000000
00000000
00000000
00010000
00000000
00001000
00000000
,
00000010
00000001
00000010
00001000
00020000
00000000
00030010
00000100
,
00001000
00000000
00000000
00001000
00010000
00000000
00100000
00000000
20000000
00000000
00000000
00000000
31000000
00000000
00010000
00000000
,
00001000
00000010
00001000
00010000
01000000
00000000
00100000
00001000
,
00010000
00000000
00000000
00011000
00000000
00000000
00001000
00000000
00000010
00000000
00000000
00000000
00000001
00000000
00000100
00000000
,
00001000
00000100
00000001
00000010
00002000
00000000
00013000
01000000
,
00100000
00000000
00011000
00000000
00100000
01000000
00010000
01000000
,
00100000
00001000
00010000
00001000
00000100
00000001
00000010
00000001
,
00000100
00000000
00000000
00000110
00000000
00000000
00000010
00000000
00000100
00000000
00001000
00000000
00010000
00000000
00100000
00000000
,
01000000
00100000
00010000
00001000
00100000
02000000
00000000
03010000
,
00001000
00000000
00000000
00001000
00000010
00000000
00000100
00000000
00000110
00000000
00000000
00000000
00000001
00000000
00000100
00000000
,
00001000
00000100
00000001
00000010
00000100
00010000
00000010
00000100
,
00001000
00000000
00000000
00011000
00000000
00000000
00010000
00000000
00100000
00000000
00000000
00000000
10000000
00000000
01000000
00000000
,
00100000
00001000
01000000
00100000
00020000
00000000
00001000
00001000
,
00031000
00000000
00000110
00000000
00001001
00000000
00000001
00000010
,
00000100
00010000
00000100
00010000
00000100
00010000
00001000
00100000
00001000
00100000
00010000
00100000
,
00010000
10000000
10010000
00000000
01100000
00000000
10000000
00010000
,
20000000
00000000
32000000
00000000
03020000
00000000
00032000
00000000
00003020
00000000
00000032
00000000
,
00000103
00000001
00000100
00000000
00011000
00000000
00100000
00010000
,
01000000
00001000
01000000
00001000
01000000
00001000
00010000
00000010
00010000
00000010
00010000
00000010
,
00001000
00000001
00001001
00000000
00000110
00000000
00000001
00001000
,
00000002
00000000
00000203
00000000
00002300
00000000
00023000
00000000
00230000
00000000
20300000
00000000
,
31000000
00100000
01100000
00000000
00022000
00000000
00000000
00000000
,
00000000
00000000
00033000
00000110
00000000
00000000
00000001
00000001
,
00000100
00000000
00001000
00000000
00000000
00000000
00001000
00000000
00010000
00001000
00010000
00001000
00010000
00000000
00000000
00000000
,
00100000
00000000
00000000
01000000
00000000
00000000
00100000
00000000
00000000
00000000
00000000
00000000
10000000
00000000
10000000
00000000
,
01000000
00000000
00010000
00000000
00000000
00000000
00010000
00000000
00001000
00010000
00001000
00010000
00001000
00000000
00000000
00000000
,
00000010
00000000
00000000
00000100
00000000
00000000
00000110
00000000
00000000
00000000
00000000
00000000
00000001
00000000
00000001
00000000
,
00000010
00000000
00001000
00000000
00000000
00000000
00001000
00000000
00010000
00001000
00010000
00001000
00010000
00000000
00000000
00000000
,
00100000
00000000
00000000
01000000
00000000
00000000
00100000
00000000
00000000
00000000
00000000
00000000
10000000
00000000
10000000
00000000
,
00100000
00000000
00010000
00000000
00000000
00000000
00010000
00000000
00001000
00010000
00001000
00010000
00001000
00000000
00000000
00000000
,
00000100
00000000
00000000
00000100
00000000
00000000
00000010
00000000
00002000
00000000
00000000
00000000
00000100
00000000
00000000
00000000
,
00000001
00000010
00023000
01000000
,
10000000
00100000
00032000
00000100
,
00000001
00000010
00023000
01000000
,
10000000
00000000
00100000
00000000
00031000
00000100
00010000
00000010
,
00000100
00001000
00010000
00100000
01000000
00010000
00100000
01000000
,
00010000
00001000
00000010
00000000
00000002
00000000
00002003
00000000
,
00023000
00000000
00000000
00000000
20030000
00000000
00000000
00000000
30100000
00100000
00100000
00000000
01100000
00000000
00011000
00000000
,
00000200
00000000
00000000
00000000
00010300
00001000
00010000
00000000
00100000
01000000
00100000
00000000
00010000
00001000
00010000
00000000
,
00000100
00000010
00000100
00000000
00010000
00001000
00010000
00000000
00000100
00000000
00000000
00010100
00000000
00000000
00101000
00000000
,
00000000
00000000
00000000
00000000
00001000
00010000
00001000
00000000
00000010
00000100
00000010
00000000
00001000
00010000
00001000
00000000
,
01000000
00100000
01000000
00000000
00001000
00010000
00001000
00000000
00100000
00000000
00000000
00001000
00010000
00000000
00000010
00000000
,
00000110
00000000
00000000
00000000
00000001
00000010
00000100
00000000
00000010
00000100
00010000
00000000
00000100
00010000
00001000
00000000
,
00010000
00001000
00100000
00000000
00001000
00100000
01000000
00000000
10000000
00000000
00000000
10100000
00000000
00000000
01010000
00000000
,
00010000
00000000
00000000
00000000
10000000
00100000
01000000
00000000
00100000
01000000
00001000
00000000
01000000
00001000
00010000
00000000
,
00000010
00000000
00010000
00000000
00001000
00000000
00000010
00000100
00001000
00000000
00000001
00000000
00000200
00000000
00000000
00000000
,
00001300
00010000
00000000
00010000
00001000
00000000
00100000
01000000
00010000
00000000
00001000
00000000
00010000
01000000
00100000
00000000
,
00001000
00000000
00010000
00100000
01000000
00000000
00001000
00000000
01001000
00000000
00000000
00010100
00000000
00000000
00011000
00000000
,
00000000
00000000
00000100
00000000
00010000
00000000
00000010
00000100
00001000
00000000
00010000
00000000
00001000
00000100
00000010
00000000
,
00010000
00000000
00001000
00000010
00000100
00000000
00010000
00000000
00010100
00000000
00000000
01001000
00000000
00000000
00100000
00000000
,
10010000
00000000
00000000
00000000
10000000
01000000
00010000
00000000
01000000
00010000
00001000
00000000
00010000
00001000
00000010
00000000
,
00001000
00000010
00000001
00000000
00000010
00000001
00000100
00000000
00000110
00000000
00000000
00001001
00000000
00000000
00000110
00000000
,
00001000
00000000
00000000
00000000
00000001
00000100
00001000
00000000
00000100
00001000
00010000
00000000
00001000
00010000
00100000
00000000
,
00010000
00100000
10000000
00000000
00100000
10000000
01000000
00000000
10000000
01000000
00100000
00010000
01000000
00000000
00000000
00000000
,
00022000
00000000
00000000
00000000
00000000
00000000
00030000
00000020
,
00000000
00003030
00000000
00000000
00000000
00000000
00000000
00000000
;

//--------------- dance-double - forcednature ----------------
#NOTEDATA:;
#STEPSTYPE:dance-double;
#DESCRIPTION:forcednature;
#CREDIT:forcednature;
#DIFFICULTY:Hard;
#METER:17;
#RADARVALUES:0,0,0,0,0;
#NOTES:
00000000
00000000
00000000
00000000
,
00000000
00000000
00000000
00000000
,
00000000
00000000
00000000
00000000
,
00000000
00000000
00000000
00000000
,
00000000
00000000
00000000
00000000
,
00011000
00000000
00010000
00100000
01000000
00100000
10000000
00010000
,
10000000
00000000
00000000
00000000
01000000
00000000
00010000
00000000
00001000
00000000
00000000
00000010
00000000
00000000
00001000
00000000
,
00010000
00000000
00000000
00100000
00000000
00000000
00010000
00000000
00001000
00000000
00000000
00000100
00000000
00000000
00001000
00000000
,
00010000
00000000
00000000
01000000
00000000
00000000
00010000
00000000
00001000
00000000
00000000
00001000
00000010
00000000
00000000
00000000
,
00000001
00000100
00001000
00010000
00000010
00001000
00010000
01000000
,
00001000
00010000
01000000
10000000
00100000
00000000
01100000
00000000
,
20000000
32000000
03200000
00320000
00032000
00003200
00000320
00000032
,
00000103
00000100
00002000
00000000
00013000
00100000
02200000
03300000
00000000
00000000
00000000
00000000
10000000
00000000
01000000
00000000
,
00001000
00000000
00000000
01000000
00100000
00000000
00001000
00000000
00010000
00000000
00000000
00000010
00000100
00000000
00000001
00000000
,
00000011
00000000
00000000
00010100
00000000
00000000
00101000
00000000
00100000
00000000
00000000
00000000
00001000
00000000
01000000
00000000
,
10000000
00000000
00000000
01000000
00010000
00000000
00100000
00000000
01000000
00010000
00001000
00000000
00001000
00010000
01000000
00000000
,
00100000
00000000
00001000
00010000
00001000
00000000
00000100
00000000
00000010
00001000
00000000
00000000
00000001
00000000
00000100
00000000
,
00010000
00000000
00000000
00000100
00000010
00000000
00001000
00000000
00000100
00000000
00000000
00010000
00001000
00000000
00100000
00000000
,
01100000
00000000
00000000
10010000
00000000
00000000
00011000
00000000
00001000
00000000
00100000
00000000
01000000
00000000
00010000
00000000
,
00001000
00000000
00000000
00000010
00000001
00000000
00000100
00000000
00000220
00000000
00000000
00000000
00000330
00000000
00000001
00000000
,
00000100
00000000
00001000
00010000
00200000
00000000
00000000
00000000
10300000
01000000
00000000
00000000
00001000
00000000
01000000
00000000
,
00100000
00000000
00001000
00010000
00001000
00000000
00100000
00000000
00010000
00001000
00000000
00001000
00010000
00000000
00100000
00001000
,
00010000
00000000
00000000
00010010
00000000
00000000
01001000
00000000
01000000
00000000
00001000
00000000
00010000
00000000
00000100
00000000
,
00000001
00000000
00000100
00010000
00001000
00000000
00000100
00000000
00001000
00010000
00200000
00000000
02300000
00000000
03100000
00010000
,
00001000
00000000
00010000
00000100
00001000
00000000
00000010
00000000
00000100
00002000
00000000
00000000
01003000
00000000
00010000
00000000
,
10000000
00000000
01000000
00010000
00001000
00000000
00100000
00000000
00010000
00001000
00000000
00001000
00010000
00000000
00100000
01000000
,
10000000
01000000
00000000
00020000
00000000
00000000
00031000
00000000
00000010
00000000
00000001
00000000
00000100
00000000
00010000
00000000
,
00000100
00000000
00001000
00010000
00001000
00000000
00100000
00000000
01100000
00000000
00000000
00000000
01000000
00000000
00010000
00000000
,
00000010
00000000
00000000
00000000
00000210
00000000
00000000
00000000
00000301
00000000
00000000
00000001
00000001
00000000
00001000
00000000
,
00000010
00000100
00001000
00010000
00001000
00000100
00000010
00000100
00001000
00010000
00001000
00000100
,
00000010
00000000
00010000
00000000
00011000
00000000
00000000
00000000
01100000
00000000
00000000
00010000
00010000
00000000
00100000
00000000
,
02000000
00000000
03020000
00000000
00030200
00000000
00000320
00000000
00002030
00003000
00200000
00000000
,
01300000
00000000
00010000
00000000
00011000
00000000
00000000
00000000
01100000
00000000
00000000
00010000
00010000
00000000
10000000
00000000
,
01000000
00010000
00001000
00000010
00001000
00010000
01000000
00010000
00001000
00000010
00001000
00010000
,
01000000
00000000
00100000
00000000
01100000
00000000
00000000
00000000
00011000
00000000
00000000
00000010
00000010
00000000
00001000
00000000
,
00000200
00000000
00020300
00000000
00230000
00000000
02300000
00000000
03002000
00000000
00003020
00000000
,
00000130
00000000
00010000
00001000
00100000
00000000
00000000
00000000
20020000
00000000
00000000
00000000
00000000
00000000
00000000
00000000
,
00000000
00000000
00000000
00000000
30030000
00000000
00011000
00000000
00000000
00000000
00000000
00000000
00000100
00000001
00000100
00000000
,
00001000
00000000
00000100
00010000
00000000
00000000
00001000
00000000
00100000
00010000
00100000
10000000
00100000
00000000
00010000
00000000
,
01000000
00000000
00000000
00100000
00000000
00000000
00011000
00000000
00000000
00000000
00000000
00000000
01000000
10000000
01000000
00000000
,
00010000
00000000
01000000
00001000
00000000
00000000
00010000
00000000
00000010
00001000
00000010
00000001
00000010
00000000
00001000
00000000
,
00001100
00000000
00000000
00010010
00000000
00000000
01001000
00000000
00000000
00000000
00000000
00000000
00000100
00000001
00000100
00000000
,
00000010
00000000
00000001
00000100
00000000
00000000
00001000
00000000
01000000
00010000
01000000
10000000
01000000
00000000
00010000
00000000
,
00100000
00000000
00000000
01000000
00000000
00000000
00011000
00000000
00000000
00000000
00000000
00000000
01000000
10000000
01000000
00000000
,
00100000
00000000
10000000
01000000
00000000
00000000
00010000
00000000
00000100
00001000
00000100
00000001
00000100
00000000
00001000
00000000
,
00000010
00000000
00000000
00000110
00000000
00000000
00001000
00000000
00000000
00000000
00000000
00000000
00000100
00000000
00000001
00000000
,
00000100
00010000
00001000
00000000
01010000
00000000
01010000
00000000
,
00001010
00000000
00001010
00000000
00000000
00000000
01000000
10000000
,
01000000
00001000
00010000
00000000
00001100
00000000
00001100
00000000
,
00110000
00110000
10020000
00031000
,
00002001
00013000
10020000
00031000
,
00002001
00000000
00013000
00000000
10000000
01000000
00010000
00001000
,
00000010
00000000
00000001
00000000
00001000
00000000
00000001
00000000
00000100
00000100
00002000
00000000
00013000
00100000
02200000
03300000
,
10000000
00010000
00000000
00000000
00100000
01000000
00100000
00001000
00010000
00000100
00001000
00000000
00000010
00000100
00000010
00010000
,
00001000
01000000
00010000
00000000
00100000
01000000
00100000
00001000
00010000
00000000
00000000
00011000
00000000
00010000
00000010
00000000
,
00000110
00000000
00000000
00000000
00000010
00000100
00000010
00010000
00001000
01000000
00010000
00000000
00100000
01000000
00100000
00001000
,
00010000
00000100
00001000
00000000
00000010
00000100
00000010
00010000
00001000
00000000
00010000
01000000
10000000
00000000
00100000
00000000
,
10020000
00000000
00000000
00000000
10030000
01000000
10000000
01000000
00100000
00010000
00100000
00010000
00001000
00000100
00001000
00000100
,
00000010
00000001
00000010
00000001
00000100
00000010
00001000
00000001
00000010
00000000
00000000
00001100
00000000
00001000
00000010
00000000
,
00002001
00000000
00000000
00000000
00003001
00000100
00000001
00000100
00000010
00001000
00000010
00001000
00010000
01000000
00010000
01000000
,
00100000
00000000
10000000
01000000
00100000
01000000
00010000
01000000
00100000
00000000
00001000
00000000
00021000
00000000
00000000
00000000
,
00130000
01000000
00010000
00100000
01000000
00010000
00001000
00010000
00000100
00010000
00001000
00000010
00000100
00000010
00000001
00001000
,
00000001
00000100
00000010
00000100
00001000
00010000
00001000
00100000
00010000
00000000
01000000
00001000
00000000
00010000
00001000
00000010
,
00000000
00000000
00000001
00000000
00000100
00001000
00010000
00001000
01000000
00001000
00010000
00100000
01000000
00100000
10000000
00010000
,
10000000
01000000
00100000
01000000
00010000
00001000
00010000
00000010
00001000
00000000
00010000
01000000
00100000
00000000
10000000
00000000
,
00020000
00000000
00000000
00000000
10030000
01000000
00100000
00010000
01000000
00100000
00010000
00001000
00100000
00010000
00001000
00000100
,
00010000
00001000
00000100
00000010
00001000
00000100
00000010
00000001
00000100
00000000
00000000
00000110
00000000
00000001
00000010
00000100
,
00002000
00000000
00000000
00000000
00003001
00000100
00000010
00001000
00000100
00000010
00001000
00010000
00000010
00001000
00010000
01000000
,
00001000
00010000
01000000
00100000
00010000
01000000
00100000
10000000
01000000
00010000
00001000
00010000
00000010
00000000
00000000
00000000
,
00002200
00000000
00000000
00000000
00000000
00000000
00000300
00200000
,
00000000
00303000
00000000
00000000
00000000
00000000
00000000
00000000
;
