#TITLE:ラキラキ;
#SUBTITLE:;
#ARTIST:Mutsuhiko Izumi & S-C-U;
#TITLETRANSLIT:Lucky Lucky;
#SUBTITLETRANSLIT:;
#ARTISTTRANSLIT:;
#GENRE:;
#CREDIT:;
#MUSIC:Lucky Lucky.ogg;
#BANNER:Lucky Lucky.png;
#BACKGROUND:Lucky Lucky-bg.png;
#CDTITLE:./CDTitles/DanceDanceRevolution 2013.png;
#SAMPLESTART:65.270;
#SAMPLELENGTH:15.000;
#SELECTABLE:YES;
#OFFSET:0.000;
#BPMS:0.000=165.000;
#STOPS:72.000=1.091;
#STAGE:16;
#BGCHANGES:;
#FGCHANGES:;

//--------------- dance-single - Highflyer ----------------
#NOTES:
     dance-single:
     Highflyer:
     Beginner:
     3:
     0,0,0,0,0:
0000
0000
0000
0000
,
0000
0000
0000
0000
,
0000
0000
0000
0000
,
0000
0000
0000
0000
,
0000
0000
0000
0000
,
0000
0000
0000
0000
,
1000
0000
0001
0000
,
0100
0000
0010
0000
,
0100
0000
0001
0000
,
0010
0000
0000
0010
,
0020
0000
0000
0000
,
0000
0000
0000
0130
,
0200
0000
0000
0000
,
2300
0000
3002
0000
,
0203
0000
0000
0000
,
0000
0000
0320
0230
,
0302
0000
0000
0000
,
2003
0000
0000
0000
,
3000
0001
0000
0001
,
0000
0010
0010
0010
,
0010
0010
0000
0100
,
0000
1000
1000
1000
,
2000
3001
0000
0001
,
0000
0100
0100
0100
,
0100
0100
0000
0010
,
0000
1000
1000
1000
,
1000
1000
0000
0100
,
0000
0010
0010
0010
,
0010
0010
0000
0100
,
0000
1000
1000
1000
,
1000
1000
0000
0001
,
0000
0001
0001
0001
,
0001
0001
0000
0100
,
0000
0010
0010
0010
,
0000
0010
0000
0100
,
0000
0001
0000
1000
,
0000
0100
0000
0100
,
0000
0010
0000
0010
,
0000
0001
0000
1000
,
1000
1000
0000
0010
,
0010
0010
0000
0010
,
0000
0100
0000
0010
,
0000
1000
0000
0000
,
0000
0001
0000
0000
,
0000
1000
0000
1000
,
0000
0100
0000
0100
,
0000
0010
0000
0010
,
0000
0001
0000
0001
,
0000
0100
0000
0100
,
0000
0010
0000
0010
,
0000
0100
0000
0001
,
0000
1000
0000
0100
,
0000
0010
0000
0100
,
0000
1000
0000
0001
,
0000
1000
0000
0010
,
0000
0200
0000
0320
,
0000
0130
0000
0100
,
0000
0001
0000
1000
,
0000
0100
0000
0010
,
0000
0100
0100
0100
,
0000
1000
0000
0001
,
0001
0001
0000
0100
,
0100
0100
0000
0010
,
0010
0010
0000
1000
,
1000
1000
0000
0001
,
0000
0010
0000
0100
,
0100
0200
0000
0000
,
0000
0310
0000
0000
;

//--------------- dance-single - Highflyer ----------------
#NOTES:
     dance-single:
     Highflyer:
     Easy:
     7:
     0,0,0,0,0:
0000
0000
0000
0000
,
0000
0000
0000
0000
,
1000
0000
0000
1000
0000
0000
1000
0000
0000
1000
0000
0000
1000
0000
0000
0000
,
0001
0000
0000
0001
0000
0000
0001
0000
0000
0001
0000
0000
0001
0000
0000
0000
,
0100
0000
0000
0100
0000
0000
0100
0000
0000
0100
0000
0000
0100
0000
0000
0000
,
0010
0000
0000
0010
0000
0000
0010
0000
0000
0010
0000
0000
0010
0000
0000
0000
,
1000
0000
0000
1000
0000
0000
1000
0000
0000
1000
0000
0000
1000
0000
0000
0000
,
0100
0000
0000
0100
0000
0000
0100
0000
0000
0100
0000
0000
0100
0000
0000
0000
,
0010
0000
0000
0010
0000
0000
0010
0000
0000
0010
0000
0000
0010
0000
0000
0000
,
0001
0000
0000
0001
0000
0000
0001
0000
0000
0001
0000
0000
0000
0000
0000
0000
,
2000
0010
0000
0100
,
0000
0010
0000
3001
,
0002
0010
0000
1000
,
0203
0000
0320
0000
,
1030
0100
1000
0010
,
0100
0001
0010
0100
,
1000
0010
0100
0001
,
0010
0100
1000
0001
,
0000
1000
0010
0100
,
0001
0010
0010
0100
,
0100
1000
0010
0100
,
0001
0010
0010
0100
,
0100
0010
0001
1000
,
0010
0100
0100
0010
,
0010
1000
0001
0010
,
0100
1000
1000
0002
,
0103
0001
1000
0100
,
0010
0001
0001
1000
,
1000
0010
0100
0010
,
1000
0100
0100
0010
,
0020
0031
1000
0010
,
0100
0010
0010
0100
,
0100
0001
1000
0100
,
0010
0001
0001
1000
,
1000
0010
0010
0100
,
0001
1000
1000
0100
,
0010
1001
0110
1001
,
0110
1001
0110
1001
,
0110
1000
0100
1000
,
1000
0010
0100
0001
,
0001
1001
0110
1001
,
0110
1001
0110
1001
,
0000
0000
0000
0000
1000
0000
0000
1000
0000
0000
1000
0000
0000
1000
0000
0000
,
1000
0000
0000
0000
0010
0000
0000
0010
0000
0000
0010
0000
0000
0010
0000
0000
,
0000
0100
0001
0010
,
0010
0100
0010
0001
,
0001
1000
0010
0000
,
0100
0010
0100
0001
,
1000
0100
0100
0010
,
0001
1000
1000
0010
,
0100
0001
0001
0010
,
0100
1000
1000
0010
,
0000
0100
0010
1000
,
1000
0100
0010
0001
,
0001
1000
0010
0000
,
0100
0010
1000
0100
,
0010
0100
0000
0100
,
0010
0001
1000
0010
,
0100
0010
0010
1000
,
0100
0010
0010
0100
,
1000
0101
1000
0100
,
0010
0011
1000
0010
,
0100
1001
1000
0100
,
0010
0011
1000
0010
,
0100
0000
0000
0000
0010
0000
0000
0010
0000
0000
0000
0000
0100
0000
0000
0100
,
0000
0001
0000
1000
,
0100
0010
0100
1000
,
0010
0110
0000
0000
;

//--------------- dance-single - SPIN ----------------
#NOTES:
     dance-single:
     SPIN:
     Medium:
     12:
     0,0,0,0,0:
0000
0000
0000
0000
,
0000
0000
0000
0000
,
0000
0000
0000
0000
,
0000
0000
0000
0000
,
0000
0000
0000
0000
,
0000
0000
0000
0000
,
1000
0000
0000
0010
0000
0000
0100
0000
0000
0001
0000
0000
0010
0000
0000
0000
,
0001
0000
0000
1000
0000
0000
0001
0000
0000
1000
0000
0000
0100
0000
0000
0000
,
0010
0000
0000
0001
0000
0000
1000
0000
0000
0010
0000
0000
0100
0000
0000
0000
,
0010
0000
0000
0100
0000
0000
0010
0000
0000
0100
0000
0000
0002
0000
0000
0000
,
2003
0100
0000
0100
,
0000
0100
0000
3002
,
0203
0010
0000
0010
,
0302
0000
0023
0000
,
0130
1000
0001
0100
,
0010
1000
0100
0010
,
0001
1000
0001
0000
1000
0001
1000
0000
,
0010
0100
0010
0100
0010
0100
0010
0100
,
0000
0000
0001
0010
0001
0000
1000
0100
,
1000
0000
0000
0000
0001
0000
0000
1000
0100
0000
0000
0100
0001
0000
0000
0001
,
0020
0000
1030
0001
1000
0000
0001
0010
,
0001
0000
0000
0000
1000
0000
0000
0001
0100
0000
0000
0100
1000
0000
0000
1000
,
0020
0000
0031
1000
0001
0000
0100
0010
,
0100
0000
0000
0000
0001
0000
0000
1000
0100
0000
0000
0100
0001
0000
0000
0001
,
0010
1000
0010
0100
0010
0000
0100
0010
,
0100
0000
0000
0000
0001
0000
0000
0001
0010
0000
0000
0010
0100
0000
1000
0000
,
0001
0000
1000
0010
1000
0001
0010
0100
,
0010
0000
0000
0000
0001
0000
0000
1000
0100
0000
0000
0100
0001
0000
0000
0001
,
0020
0000
1030
0001
0010
0100
1000
0001
,
0100
0000
0000
0000
0010
0000
0000
1000
0010
0000
0000
0010
0001
0000
0000
0001
,
0200
0000
1300
0001
0100
0001
0010
0100
,
1000
0000
0001
0000
0100
0000
0000
0001
0010
0000
0000
0010
1000
0000
0000
1000
,
0100
0001
1000
0100
1000
0010
0100
0001
,
1000
0000
0100
0000
0010
0000
0000
0001
0100
0000
0000
0001
1000
0000
0100
0000
,
0010
0000
0100
1000
0100
0000
0010
0001
,
1000
0010
0100
0001
0100
0000
0010
1000
,
0010
0000
0100
0000
0001
0000
0000
1000
0010
0000
0000
0010
0001
0000
0000
0001
,
0100
0000
0000
0100
1000
0000
0000
1000
0010
0000
0000
0010
0001
0000
0000
0001
,
0200
0000
1300
0001
1000
0000
0001
0100
,
0001
0010
0100
1000
0100
0000
0010
0001
,
0010
0000
0100
0000
1000
0000
0000
0001
0010
0000
0000
0010
1000
0000
0000
1000
,
0100
0000
0000
0100
0001
0000
0000
0001
0010
0000
0000
0010
0100
0000
0000
0000
,
0000
0000
0000
0000
1000
0000
0000
0100
0000
0000
0001
0000
0000
0100
0000
0000
,
1000
0000
0000
0000
0001
0000
0000
0100
0000
0000
1000
0000
0000
0100
0000
0000
,
0000
0000
0000
0000
0001
0000
0010
0000
0100
0000
0000
1000
0000
0000
0001
0000
,
0100
0000
0010
0000
0100
0000
0000
0000
0010
0000
0000
0100
0000
0000
0001
0000
,
0010
0000
0100
0000
1000
0000
0000
1000
0000
0000
1000
0000
0000
0000
0001
0000
,
0100
0010
0000
2000
3100
0000
0010
0001
,
1000
0000
0010
0000
0100
0000
0000
0100
0000
0000
0010
0000
1000
0000
0001
0000
,
0010
0100
2000
3020
0230
0302
0013
0000
,
0010
0000
0000
0000
0100
0000
0000
1000
0000
0000
0001
0000
0100
0000
0010
0000
,
0100
0000
0001
0000
1000
0000
0000
1000
0000
0000
0100
0000
0020
0000
0000
0000
,
0030
0000
0001
0000
0010
0000
0100
0000
1000
0000
0000
0010
0000
0000
0100
0000
,
0001
0000
1000
0000
0001
0000
0000
0000
0010
0000
0000
0100
0000
0000
0010
0000
,
0001
0000
1000
0000
0010
0000
0000
1000
0000
0000
0010
0000
0000
0000
0100
0000
,
0001
0010
0200
2300
3020
0130
0001
1000
,
0001
0000
0010
0000
0001
0000
0000
1000
0000
0000
0010
0000
0100
0000
0100
0000
,
0010
2000
0000
0000
3000
0000
0001
0010
,
0001
0000
1000
0000
0010
0000
0000
0010
0000
0000
0100
0000
0001
0000
1000
0000
,
0100
0000
0010
0000
0100
0000
0000
0100
0000
0000
1000
0000
0002
0000
0000
0000
,
0000
0000
1003
0000
0010
0000
0000
0010
0000
0000
0010
0000
0100
0000
0001
0000
,
1000
0000
0001
0000
0010
0000
0000
0010
0000
0000
0010
0000
0100
0000
1000
0000
,
0001
0000
0100
0000
0010
0000
0000
0010
0000
0000
0010
0000
0100
0000
0001
0000
,
1000
0000
0100
0000
1000
0000
0000
0001
0000
0000
1000
0000
0001
0000
0100
0000
,
0001
0000
0100
0000
0010
0000
0000
1000
0000
0000
0001
0000
0010
0000
0000
0100
,
0000
0010
0001
0000
1001
0000
1000
0010
,
0100
0010
2000
0000
3100
0000
0010
0001
,
0100
0010
2000
0000
0000
0000
0000
0000
,
0000
3000
0000
0000
;

//--------------- dance-single - DT XO ----------------
#NOTES:
     dance-single:
     DT XO:
     Hard:
     14:
     0,0,0,0,0:
0000
0000
0000
0000
,
0000
0000
0000
0000
,
0000
0000
0000
0000
,
0000
0000
0000
0000
,
0000
0000
0000
0000
,
0000
0000
0000
0000
,
1000
0000
0000
0010
1000
0000
0010
0000
0100
0001
0000
0000
0010
0000
0000
0000
,
0100
0000
0000
1000
0001
0000
0100
0000
0010
1000
0000
0000
0100
0000
0000
0000
,
0010
0000
0000
0100
1000
0000
0001
0000
1000
0010
0000
0000
0100
0000
0001
0000
,
1000
0000
0000
M001
0000
0000
100M
0000
0000
M001
0000
0000
200M
0000
0000
0000
,
3100
0010
0001
1000
0001
0100
0010
0000
,
0010
0000
0010
0100
0000
0010
2000
0000
,
3100
0010
0001
1000
0001
0000
0001
0000
,
1000
0010
2000
0000
3001
0010
0002
0000
,
1003
0010
0100
0001
0010
0100
1000
0001
,
1000
0010
0100
0001
0020
0000
0230
0000
,
1300
0001
0100
0010
0100
0001
0010
0100
,
1000
0010
0001
0010
1000
0100
0001
0100
,
0000
0000
0000
0000
1000
0001
1000
0000
0010
0000
0100
0000
0001
0000
0010
0000
,
1000
0000
0010
0000
0001
0000
1000
0010
1000
0000
0001
0010
0001
0000
1000
0010
,
2000
0000
0000
0000
3010
0100
0010
0000
1000
0000
0001
0000
1000
0000
0100
0000
,
0001
0000
0100
0000
1000
0000
0001
0100
0001
0000
1000
0100
1000
0000
0001
0100
,
0002
0000
0023
0000
0130
1000
0100
0000
0010
0000
0001
0000
0100
0000
0010
0000
,
0001
0000
0010
0000
0100
0000
0001
1000
0001
0000
0010
0100
0010
0000
0001
1000
,
0001
0000
0100
0000
0010
1000
0010
0000
0100
0000
0001
0000
0010
0000
0100
0000
,
0001
0000
0100
0000
1000
0000
0010
0100
0010
0000
1000
0100
1000
0000
0010
0000
,
0100
0000
0000
0000
0001
0010
0100
0000
1000
0000
0010
0000
0100
0000
0010
0000
,
1000
0000
0100
0000
0010
0000
0001
0100
0001
0000
1000
0100
1000
0000
0001
0010
,
0200
0000
0000
0000
1300
0010
1000
0000
0001
0000
0100
0000
0010
0000
0100
0000
,
0001
0000
0010
0000
0100
0000
1000
0010
1000
0000
0001
0010
0001
0000
1000
0001
,
0200
0000
0320
0000
1030
0100
1000
0000
0001
0000
0100
0000
0010
0000
0100
0000
,
1000
0000
0100
0000
0001
0000
1000
0100
1000
0000
0001
0100
0010
0000
1000
0100
,
0010
0000
0100
0000
1000
0001
1000
0000
0010
0000
1000
0000
0001
0000
0010
0000
,
1000
0000
0010
0000
0100
0000
1000
0010
1000
0000
0001
0100
0001
0000
0010
0000
,
0100
0000
0010
0001
0100
0010
0100
0100
,
0001
0000
0010
0100
1000
0000
0010
0000
0100
0000
0001
0000
0010
0000
0010
0000
,
0100
0000
1000
0001
0100
0000
0001
0010
0001
0000
0010
0001
0010
0000
0100
1000
,
0100
0000
1000
0100
1000
0000
0001
0100
0001
0000
0100
0001
0100
0000
0010
1000
,
0002
0013
0100
1000
0001
0100
0010
0010
,
1000
0000
0100
0010
0100
0000
1000
0000
0001
0000
1000
0000
0100
0000
0100
0000
,
0010
0000
0001
0100
0001
0000
0100
0001
0100
0000
0010
1000
0010
0000
1000
0010
,
1000
0000
0001
0010
0200
0000
1300
0001
0200
0000
0310
1000
0002
0000
0000
0000
,
0003
0000
0010
0000
0001
0000
0000
100M
0000
0000
M001
0000
0000
100M
0000
0000
,
M001
0000
0000
0000
0001
0000
0000
100M
0000
0000
M001
0000
0000
100M
0000
0000
,
0000
0000
0001
0000
1000
0100
1000
0000
0001
0000
0100
0010
0000
0010
0100
0000
,
0001
0000
0001
0000
1000
0100
1000
0000
0010
0000
1000
0001
0000
0001
1000
0000
,
0100
0000
0100
0000
0010
0000
0001
0100
0000
0001
2000
0000
3000
0001
0010
0000
,
0100
0000
2000
0000
0000
3000
0010
1000
0100
0000
0010
0000
0001
0000
0100
0000
,
1000
0000
0100
0000
0001
0000
1000
0100
0000
0100
1000
0000
0010
0000
0100
0000
,
0001
1000
0001
0010
1000
0001
0100
1000
,
0010
0000
0100
0000
0001
0000
1000
0010
0000
0010
1000
0000
0001
0000
0001
0000
,
0010
0000
0100
0000
1000
0000
0001
0010
0000
0010
0001
0000
1000
0000
0010
0000
,
0001
0000
1000
0000
0100
0010
0100
0000
0001
0000
1000
0010
0000
0010
1000
0000
,
0100
0000
0100
0000
0010
0001
0010
0000
0100
0000
1000
0001
0000
0001
1000
0000
,
0010
0000
0010
0000
0100
0000
0001
1000
0000
0001
0020
0000
0000
0130
1000
0000
,
0001
0100
0001
0010
1000
0001
0100
1000
,
0001
0000
0100
0000
0010
0000
1000
0001
0000
0001
0010
0000
0100
1000
0100
0000
,
1000
0000
0020
0000
0000
0000
0130
0001
0100
0000
0000
0000
0010
0000
1000
0000
,
0001
0000
0010
0000
0100
0000
1000
0001
0000
0001
1000
0000
0010
0000
0100
0000
,
0010
0000
0100
0000
0001
0000
1000
0100
0000
0100
1000
0000
0001
0000
0100
0000
,
1000
0000
0001
0000
0010
0000
1000
0100
0000
1000
0010
0000
0100
0000
0100
0000
,
0001
0010
0001
0000
1000
0000
0100
0010
0000
0100
1000
0000
0010
0000
0010
0000
,
0100
0001
0100
0000
0010
0000
1000
0001
0000
0010
0100
0000
1000
0000
1000
0000
,
0001
0000
0010
0100
0010
0000
0001
1000
0000
0010
0100
0000
0010
0000
1000
0000
,
0100
0000
0010
0000
0001
0000
0000
100M
0000
0000
M001
0000
100M
0000
0000
M001
,
0000
100M
0102
0000
0013
0100
1000
0001
,
0100
0010
0002
0000
0000
0000
0000
0000
,
0000
0023
0000
0000
,
0000
0030
0000
0000
;

//--------------- dance-single - XO BU ----------------
#NOTES:
     dance-single:
     XO BU:
     Challenge:
     16:
     0,0,0,0,0:
0000
0000
0000
0000
,
0000
0000
0000
0000
,
0000
0000
0000
0000
,
0000
0000
0000
0000
,
0000
0000
0000
0000
,
0000
0000
0000
0000
0000
0000
0000
0000
0000
0000
0000
0000
0000
0000
0000
0000
0000
0000
0000
0000
0000
0000
0000
0000
0000
0000
0000
0000
0000
0000
1000
0000
0100
0000
1000
0000
0001
0000
0000
0100
0000
0000
0010
0000
0000
1000
0000
0000
,
0001
0000
0010
0100
0010
0000
0001
0000
1000
0010
1000
0000
0001
0000
0100
0000
,
0010
0000
1000
0100
1000
0000
0001
0000
0100
0010
0100
0000
0001
0000
0010
0000
,
0100
0000
0000
0000
0000
0000
1000
0000
0000
0001
0000
0000
1000
0000
0000
0000
0000
0000
0010
0000
0000
0000
0000
0000
0100
0000
0000
0001
0000
0000
1000
0000
0100
0000
1000
0000
0100
0000
0000
0000
0000
0000
1000
0000
0001
0000
1000
0000
,
0001
0000
0000
1100
0000
0000
1010
0000
0000
0101
0000
0000
2000
0000
0000
0000
,
3100
0010
0001
1000
0010
0100
1000
0000
,
0100
0001
1000
0100
0010
0001
2000
0010
,
3002
0010
1003
0010
0100
0000
0100
0000
,
0010
1000
0001
0010
0100
1000
0100
1000
,
0001
0100
0010
0100
0001
1000
0100
0010
,
0001
1000
0010
0100
0010
1000
0001
0010
,
0100
0000
0010
0001
0010
0000
0001
0100
0001
0000
1000
0100
1000
0000
0010
1000
,
0010
0100
0001
1000
0100
1000
0001
0100
0010
1000
0001
0010
0001
1000
0010
0200
,
0000
0300
0000
0000
0010
1000
0010
0000
1000
0000
0001
0000
0010
0000
1000
0000
,
0010
0000
0001
0000
0100
0000
0010
1000
0010
0000
0100
0001
0100
0000
0010
1000
,
0002
0000
0000
0000
0013
0100
0010
0000
0001
0000
1000
0000
0010
0000
0001
0000
,
0010
0000
1000
0000
0001
0000
1000
0100
1000
0000
0001
0010
0001
0000
1000
0100
,
1000
0010
0100
0001
0010
0100
0010
0000
0001
0000
1000
0000
0100
0000
0001
0000
,
0100
0000
1000
0000
0010
0000
0100
0001
0100
0000
0010
1000
0100
0000
0010
0100
,
1000
0000
0001
0000
1000
0100
1000
0000
0001
0000
1000
0000
0010
0000
0001
0000
,
0010
0000
1000
0000
0001
0000
0010
0100
0010
0000
0001
0100
0001
0000
0010
0000
,
1000
0000
0010
0001
1000
0010
1000
0000
0001
0000
0010
0000
0100
0000
0001
0000
,
0100
0000
1000
0000
0001
0000
0100
0010
1000
0000
0001
0010
0100
0000
1000
0001
,
0200
0000
0000
0000
0301
1000
0001
0000
1000
0000
0010
0000
0100
0000
1000
0000
,
0100
0000
0001
0000
1000
0000
0100
0010
0001
0000
0010
0100
1000
0000
0001
0100
,
0010
1000
0100
1000
0010
0100
0001
0000
1000
0000
0001
0000
0100
0000
0010
0000
,
0001
0000
0010
0000
0100
0000
0001
1000
0100
0000
0010
0100
1000
0000
0001
0010
,
0100
0000
0001
0000
0100
1000
0001
0000
0100
0000
0010
0000
0100
0000
1000
0000
,
0100
0000
0001
0000
1000
0000
0100
0010
0001
0000
1000
0010
0100
0000
0001
0000
,
0010
0000
0100
1000
0100
0010
0001
1000
,
0010
0100
0001
1000
0010
0000
0100
0000
0001
0000
1000
0000
0100
0000
0010
0000
,
0100
1000
0001
1000
0100
0000
0010
0001
1000
0000
0010
1000
0001
0000
0100
0001
,
1000
0000
0100
1000
0001
0000
0100
0001
0010
0000
0100
1000
0010
0000
0100
0001
,
0020
0130
0010
0001
1000
0010
0100
0001
,
0010
0100
1000
0100
0010
0000
0001
0000
1000
0000
0001
0000
0100
0000
0010
0000
,
1000
0010
0100
0010
1000
0000
0001
0010
0100
0000
1000
0010
0100
0000
0001
0010
,
0100
0000
0000
1000
0001
1000
0020
0000
0000
0130
0001
1000
0002
0000
0000
0013
0100
0010
0001
0000
0000
0000
0000
0000
,
0000
0000
0000
0000
0000
0000
1000
0000
0010
0000
1000
0000
0001
0000
0000
0000
0000
0000
0000
0000
0000
1010
0000
0000
0000
0000
0000
0000
0000
0000
0011
0000
0000
0000
0000
0000
0000
0000
0000
1010
0000
0000
0000
0000
0000
0000
0000
0000
,
1001
0000
0000
0000
1100
0000
0000
0101
0000
0000
1100
0000
0000
0101
0000
0000
,
0000
0000
0001
1000
0001
0100
0010
0000
1000
0000
0100
0001
0000
0100
1000
0000
,
0001
0000
1000
0000
0001
0100
0010
0000
1000
0000
0010
0001
0000
0010
1000
0000
,
0010
0000
1000
0000
0001
0000
0010
0100
0000
0010
0200
0000
0000
0310
0001
1000
,
0010
0000
0000
0000
0000
0000
0200
0000
0000
0000
0000
0000
0000
0000
0000
0000
0000
0000
0301
0000
1000
0000
0001
0000
1000
0000
0000
0000
0000
0000
0010
0000
0000
0100
0000
0000
0001
0000
0000
1000
0000
0000
0001
0000
0000
0010
0000
0000
,
0100
1000
0100
0010
0001
0000
1000
0010
0000
0001
0010
0000
0100
0000
0001
0000
,
0010
0000
0100
0000
1000
0001
0100
0010
1000
0010
0100
0001
1000
0100
1000
0001
,
1000
0010
0100
0001
0010
0000
0100
0001
0000
0100
1000
0000
0010
0000
0100
0000
,
0001
0000
0010
0000
0001
0000
1000
0010
0000
0001
0010
0000
0100
0001
1000
0001
,
0010
0100
1000
0001
0100
0010
0100
0000
0001
0000
1000
0100
0000
0001
0100
0000
,
0010
0000
0001
0000
1000
0010
0100
0000
0001
0000
1000
0010
0000
0001
0010
0000
,
0100
0000
0001
0000
1000
0000
0001
0100
0000
0001
0200
0000
0000
0310
1000
0001
,
0020
0000
0230
0000
1300
0100
0010
0001
0010
0100
1000
0001
0100
0010
0100
0001
,
0100
0010
1000
0010
0100
0000
0001
0010
0000
1000
0010
0000
0001
1000
0001
0000
,
0100
0000
0000
0000
0000
0000
0020
0000
0000
0000
0000
0000
0000
0000
0000
0000
0000
0000
0130
0000
0001
0000
0100
0000
0001
0000
0000
0000
0000
0000
0000
0000
0000
0000
0000
0000
1000
0000
0000
0100
0000
0000
1000
0000
0000
0001
0000
0000
,
1000
0010
0100
0001
0010
0000
0100
0001
0000
0100
1000
0000
0010
0000
0100
0000
,
0001
0000
1000
0000
0010
0000
0100
1000
0000
0100
0001
0000
1000
0100
0010
0001
,
0100
0010
1000
0001
0010
0000
0001
0100
0000
0100
0001
0000
1000
0000
0100
0000
,
0010
0100
1000
0001
0100
0000
0010
1000
0000
1000
0010
0000
0100
0000
0001
0000
,
1000
0100
1000
0001
0100
0000
0001
1000
0000
1000
0001
0000
0100
0000
0010
0000
,
1000
0100
1000
0010
0100
0000
0001
0010
0000
0010
0001
0000
1000
0000
0010
0000
,
1000
0000
0000
0000
0000
0000
0010
0000
0100
0000
0010
0000
0100
0000
0000
0000
0000
0000
0000
0000
0000
0101
0000
0000
0000
0000
0000
0000
0000
0000
0001
0000
0000
0000
0000
0000
1001
0000
0000
0000
0000
0000
0000
0000
0000
1001
0000
0000
,
0000
0000
0000
0000
0000
0000
1000
0000
0000
0000
0000
0000
1100
0000
0000
0000
0000
0000
0100
0000
0010
0000
0100
0000
1000
0000
0000
0000
0000
0000
0001
0000
0000
0100
0000
0000
0001
0000
0000
1000
0000
0000
0100
0000
0000
0010
0000
0000
,
0100
0000
0000
1000
0000
0000
0001
0000
0000
0100
0000
0000
0010
0000
0000
1000
0000
0000
0010
0000
0000
0000
0000
0000
1000
0000
0000
0010
0000
0000
1000
0000
0000
0000
0000
0000
0001
0000
0100
0000
0001
0000
0100
0000
0000
0010
0000
0000
,
1000
0000
0001
0000
1000
0000
0001
0000
0000
0020
0000
0000
0200
0000
0000
0000
0000
0000
0000
0000
0000
0000
0000
0000
0000
0000
0000
0000
0000
0000
0000
0000
0000
0000
0000
0000
0000
0000
0000
0000
0000
0000
0000
0000
0000
0000
0000
0000
,
0000
0030
0300
0000
0000
0000
0000
0000
;
