#VERSION:0.83;
#TITLE:Lucid Traveler;
#SUBTITLE:;
#ARTIST:Akira Complex vs 3R2;
#TITLETRANSLIT:;
#SUBTITLETRANSLIT:;
#ARTISTTRANSLIT:;
#GENRE:;
#ORIGIN:Arcaea x Cytus II Collab;
#TAGS:;
#CREDIT:;
#BANNER:Lucid Traveler.png;
#BACKGROUND:Lucid Traveler-bg.png;
#PREVIEWVID:;
#JACKET:Lucid Traveler-jacket.png;
#CDIMAGE:;
#DISCIMAGE:;
#LYRICSPATH:;
#CDTITLE:;
#MUSIC:Lucid Traveler.ogg;
#OFFSET:-0.032000;
#SAMPLESTART:100.767998;
#SAMPLELENGTH:19.200001;
#SELECTABLE:YES;
#BPMS:0.000000=170.000000
,260.000000=174.000000
,264.000000=178.000000
,268.000000=182.000000
,272.000000=188.000000
,276.000000=194.000000
,280.000000=200.000000
;
#STOPS:;
#DELAYS:;
#WARPS:;
#TIMESIGNATURES:0.000000=4=4
;
#TICKCOUNTS:0.000000=4
;
#COMBOS:0.000000=1
;
#SPEEDS:0.000000=1.000000=0.000000=0
;
#SCROLLS:0.000000=1.000000
;
#FAKES:;
#LABELS:0.000000=Song Start
;
#BGCHANGES:;
#KEYSOUNDS:;
#ATTACKS:
;

//---------------dance-single - ----------------
#NOTEDATA:;
#CHARTNAME:;
#CHARTHASH:2848768025;
#STEPSTYPE:dance-single;
#BANNER:;
#DESCRIPTION:;
#CHARTSTYLE:;
#DIFFICULTY:Beginner;
#METER:4;
#METERF:0.000000;
#LASTSECONDHINT:139.156723;
#RADARVALUES:0.207877,0.363784,0.230863,0.125925,0.000000,208.000000,175.000000,33.000000,18.000000,0.000000,0.000000,0.000000,0.000000,0.000000,0.207877,0.363784,0.230863,0.125925,0.000000,208.000000,175.000000,33.000000,18.000000,0.000000,0.000000,0.000000,0.000000,0.000000;
#CREDIT:Pilgrimsito;
#NOTES:
0000
0000
0000
0000
,
0000
0000
0000
0000
,
0000
0000
0000
0000
,
0000
0000
0000
0000
,
0000
0000
0000
0000
,
0000
0000
0000
0000
,
0000
0000
0000
0000
,
0000
0000
0000
0000
,
1000
0000
1000
0000
,
0001
0000
0001
0000
,
1000
0000
1000
0000
,
0001
0000
0001
0000
,
2000
0000
0000
0000
,
3002
0000
0000
0000
,
0203
0000
0000
0000
,
0310
0000
0000
0000
,
1001
0000
1001
0000
,
1001
0000
0000
0000
,
0110
0000
0110
0000
,
0110
0000
0000
0000
,
1001
0000
0110
0000
,
1001
0000
0000
0000
,
0110
0000
1001
0000
,
0110
0000
0000
0000
,
0001
0000
1000
0000
,
0001
0000
0010
0000
,
0001
0000
1000
0000
,
0001
0000
0100
0000
,
0001
0000
1000
0000
,
0001
0000
0010
0000
,
0001
0000
1000
0000
,
0002
0000
0000
0000
,
1003
0000
1000
0000
,
0001
0000
0001
0000
,
1000
0000
1000
0000
,
0001
0000
0001
0000
,
0010
0000
0010
0000
,
0100
0000
0100
0000
,
0020
0000
0000
0000
,
0030
0000
0110
0000
,
1001
0000
0101
0000
,
0101
0000
0101
0000
,
1001
0000
1100
0000
,
1100
0000
1100
0000
,
1001
0000
0100
0100
,
0100
0000
0010
0010
,
0010
0000
0100
0100
,
0200
0000
0300
0000
,
1001
0000
0011
0000
,
0011
0000
0011
0000
,
1001
0000
1010
0000
,
1010
0000
1010
0000
,
1001
0000
0001
0000
,
1000
0000
0010
0000
,
0100
0000
0001
0000
,
1000
0000
0001
0000
,
2000
0000
0000
0000
,
3002
0000
0000
0000
,
0023
0000
0000
0000
,
0230
0000
0000
0000
,
2300
0000
0000
0000
,
3002
0000
0000
0000
,
0203
0000
0000
0000
,
0320
0000
0000
0000
,
1030
0000
1000
0000
,
0001
0000
0001
0000
,
1000
0000
1000
0000
,
0001
0000
0001
0000
,
2000
0000
0000
0000
,
3002
0000
0000
0000
,
0203
0000
0000
0000
,
0310
0000
0000
0000
,
1000
0000
0001
0000
,
1000
0000
0010
0000
,
1000
0000
0001
0000
,
1000
0000
0100
0000
,
1000
0000
0001
0000
,
1000
0000
0010
0000
,
1000
0000
0001
0000
,
1000
0000
0100
0000
,
1000
0000
1000
0000
,
1000
0000
1000
0000
,
0001
0000
0001
0000
,
0001
0000
0001
0000
,
0100
0000
0000
0000
,
0100
0000
0000
0000
,
0100
0000
0100
0000
,
0200
0000
0000
0000
,
0310
0000
0000
0000
,
0001
0001
0001
0000
,
1000
1000
1000
0000
,
0010
0000
0100
0000
,
0010
0000
0000
0000
,
1000
1000
1000
0000
,
0001
0001
0001
0000
,
0010
0000
0100
0000
,
0010
0000
0000
0000
,
0001
0001
0001
0000
,
1000
1000
1000
0000
,
0001
0001
0001
0000
,
0110
0000
0000
0000
,
1000
1000
1000
0000
,
0001
0001
0001
0000
,
1000
1000
1000
0000
,
0110
0000
0000
0000
;

//---------------dance-single - ----------------
#NOTEDATA:;
#CHARTNAME:;
#CHARTHASH:4167355260;
#STEPSTYPE:dance-single;
#BANNER:;
#DESCRIPTION:;
#CHARTSTYLE:;
#DIFFICULTY:Easy;
#METER:8;
#METERF:0.000000;
#LASTSECONDHINT:140.356720;
#RADARVALUES:0.360786,0.514195,0.496705,0.447734,0.000000,361.000000,290.000000,71.000000,64.000000,0.000000,0.000000,0.000000,0.000000,0.000000,0.360786,0.514195,0.496705,0.447734,0.000000,361.000000,290.000000,71.000000,64.000000,0.000000,0.000000,0.000000,0.000000,0.000000;
#CREDIT:Pilgrimsito;
#NOTES:
0000
0000
0000
0000
,
0000
0000
0000
0000
,
0000
0000
0000
0000
,
0000
0000
0000
0000
,
0000
0000
0000
0000
,
0000
0000
0000
0000
,
0000
0000
0000
0000
,
0000
0000
0000
0000
,
1000
1000
0001
0001
,
0100
0100
0010
0010
,
1000
1000
0001
0001
,
0010
0010
0100
0100
,
2002
0000
0000
3003
,
0220
0000
0000
0330
,
2002
0000
0000
0000
,
3003
0000
0000
0000
,
1000
0100
0010
0100
,
1000
0010
0100
0100
,
0001
0010
0100
0010
,
0001
0100
0010
0010
,
1000
0100
1000
0010
,
0100
0001
1000
1000
,
0001
0100
0001
0010
,
0100
0100
0100
0000
,
1000
0100
0001
0100
,
1000
0100
0010
0010
,
0001
0100
1000
0100
,
0001
0001
2000
3000
,
0001
0010
1000
0010
,
0001
0010
0100
0100
,
1000
0010
0001
0010
,
2000
0000
0000
3000
,
2200
3300
0001
0001
,
0202
0303
1000
1000
,
2020
3030
0001
0001
,
0022
0033
1000
1000
,
1001
0010
0010
0010
,
1001
0100
0100
0100
,
2002
0000
0000
0000
,
3003
0000
0110
0000
,
1001
0001
0101
0100
,
0110
0010
1010
1000
,
1001
1000
1100
0100
,
0110
0010
0011
0001
,
2002
3003
0100
0100
,
2002
3003
0010
0010
,
2002
3003
0100
0100
,
0020
0000
0200
0330
,
1001
0001
0011
0010
,
0110
0100
1100
1000
,
1001
1000
1010
0010
,
0110
0100
0101
0001
,
2002
3003
1002
0103
,
2001
3100
1002
0103
,
2002
3003
1002
0013
,
2001
3010
1002
0013
,
2001
0000
0000
0000
,
3200
0000
0000
0000
,
0320
0000
0000
0000
,
0032
0000
0000
0000
,
2003
0000
0000
0000
,
3020
0000
0000
0000
,
0230
0000
0000
0000
,
0302
0000
0000
0000
,
1003
1000
0001
0001
,
0010
0010
0100
0100
,
1000
1000
0001
0001
,
0100
0100
0010
0010
,
2002
0000
0000
3003
,
0220
0000
0000
0330
,
2002
0000
0000
0000
,
3003
0000
0000
0000
,
1000
0100
0010
0001
,
1000
0010
0100
0001
,
1000
0100
0001
0100
,
1000
0010
0001
0010
,
1000
0010
0100
0001
,
1000
0100
0010
0001
,
1000
0010
0001
0010
,
1000
0100
0001
0100
,
1000
1000
0001
0001
,
0100
0100
0010
0010
,
1000
1000
0100
0100
,
0010
0010
0001
0001
,
1001
0100
0100
0100
,
1001
0010
0010
0010
,
1001
0100
1001
0100
,
2002
0000
0000
0000
,
3003
0000
0000
0000
,
1001
0001
0101
0000
,
1001
1000
1100
0000
,
0002
0013
2000
3010
,
2002
0000
3003
0000
,
1001
1000
1010
0000
,
1001
0001
0011
0000
,
2000
3100
0002
0103
,
2002
0000
3003
0000
,
0101
0001
0011
0000
,
1100
1000
1010
0000
,
0101
0001
0011
0000
,
2002
0000
3003
0000
,
1010
0010
0110
0100
,
0101
0001
1001
1000
,
1100
0100
0110
0010
,
0022
0000
0000
0000
,
0033
0000
0000
0000
;

//---------------dance-single - ----------------
#NOTEDATA:;
#CHARTNAME:;
#CHARTHASH:1862896620;
#STEPSTYPE:dance-single;
#BANNER:;
#DESCRIPTION:;
#CHARTSTYLE:;
#DIFFICULTY:Medium;
#METER:13;
#METERF:13.000000;
#LASTSECONDHINT:140.356720;
#RADARVALUES:0.560667,0.661107,0.300821,0.160904,0.045473,561.000000,518.000000,43.000000,23.000000,0.000000,0.000000,0.000000,0.000000,0.000000,0.560667,0.661107,0.300821,0.160904,0.045473,561.000000,518.000000,43.000000,23.000000,0.000000,0.000000,0.000000,0.000000,0.000000;
#CREDIT:-YOSEFU-;
#NOTES:
0000
0000
0000
0000
,
0000
0000
0000
0000
,
0000
0000
0000
0000
,
0000
0000
0000
0000
,
0000
0000
0000
0000
,
0000
0000
0000
0000
,
0000
0000
0000
0000
,
0000
0000
0000
0000
,
2000
3100
0020
0130
,
2000
3001
0200
0301
,
2000
3010
0200
0310
,
2000
3001
0020
0031
,
1000
0010
1000
0000
0001
0010
0001
0000
,
1000
0100
1000
0000
0001
0100
0001
0000
,
1000
0001
1000
0001
1000
0001
1000
0001
,
0020
0000
0000
0030
,
1001
0000
0001
0100
0010
0000
1000
0001
,
0010
0000
0100
1000
0001
0000
0100
0000
,
0110
0000
0010
1000
0001
0000
0010
0100
,
1000
0000
0001
0100
0010
0000
1000
0000
,
1001
0000
0001
0010
0100
0000
0010
0001
,
1000
0000
0010
0100
0001
0000
1000
0000
,
1100
0000
0100
0010
0001
0000
1000
0010
,
0100
0000
0000
0000
0001
1000
0100
0000
,
0110
0000
0010
0001
1000
0000
0010
0100
,
0001
0000
0010
0100
1000
0000
0001
0000
,
0101
0000
0100
0010
1000
0000
0001
0010
,
0100
0000
1100
0000
1000
0000
0001
0100
,
0010
0000
1000
0001
0010
0000
0100
1000
,
0010
0000
0100
0001
1000
0000
0100
0000
,
0110
0000
0010
0001
1000
0000
1010
0000
,
2002
0000
0000
3003
,
1002
1003
0010
0100
,
0201
0301
1000
0100
,
0210
0310
0100
1000
,
2010
3010
1000
0001
,
0010
0001
0010
0000
0001
1000
0001
0000
,
1000
0010
1000
0000
0001
0010
0001
0000
,
1000
0001
1000
0001
1000
0001
1000
0001
,
0100
0000
0110
0000
,
1001
0000
1000
0010
1000
0010
0100
0000
,
0001
0000
0010
0001
0010
0100
1000
0000
,
1001
0000
0001
0100
0001
0100
0010
0000
,
0100
0000
0010
1000
0010
0100
0001
0000
,
0101
0000
0100
0000
0100
0001
1000
0000
,
0100
0000
0100
0000
0100
1000
0001
0000
,
0101
0000
0100
0000
0100
0010
1000
0000
,
2010
0000
0001
0000
,
3100
0000
0010
0001
0010
0001
1000
0000
,
0010
0000
0100
0010
0100
0001
1000
0000
,
1100
0000
0000
0100
0000
0100
1000
0000
1000
0001
0000
0100
,
0000
0000
0010
1000
0000
1000
0100
0000
0100
0010
0000
0000
,
0011
0000
0000
0000
0001
0000
0000
0001
0000
0000
0100
0000
0000
0100
0000
0000
,
0010
0000
0000
0010
0000
0000
1000
0000
0000
1000
0000
0000
0100
0000
0000
0100
,
0000
0000
0000
0000
0010
0000
0000
0010
0000
0000
0001
0000
0000
0001
0000
0000
,
1000
0000
1010
0000
0010
1000
0000
0000
,
0001
0000
0001
0000
1000
0100
0010
0000
,
0001
0000
0001
0000
1000
0010
0100
0000
,
0001
1000
0100
0000
1000
0001
0100
0000
,
1000
0100
0010
0000
1000
0001
0010
0000
,
0100
0000
0100
0000
1000
0001
0100
0000
,
0010
0000
0010
0000
1000
0001
0010
0000
,
0100
1000
0010
0000
0100
0001
0010
0000
,
1000
0010
0100
0000
1000
0001
0100
0000
,
0102
1000
0010
1003
,
2010
0001
0100
3001
,
0012
1000
0100
1003
,
2100
0001
0010
3001
,
1000
0100
1000
0000
0001
0100
0001
0000
,
1000
0010
1000
0000
0001
0010
0001
0000
,
1000
0001
1000
0001
0100
0010
0100
0010
,
1000
0001
0010
1001
,
1000
0000
0001
0100
0010
0000
1000
0001
,
0010
0000
0100
1000
0001
0000
0100
0010
,
1000
0000
0001
0010
0100
0000
0010
0001
,
1000
0000
0010
0100
0001
0000
1000
0100
,
0010
0000
0100
1000
0010
0000
0100
0001
,
0010
0000
0100
1000
0001
0000
0100
0010
,
0001
0000
0010
0100
0001
0000
0010
0100
,
0001
0000
0100
1000
0001
1000
0000
0000
,
1010
0000
0010
0100
0101
0000
0001
1000
,
1100
0000
0100
0010
0011
0000
0001
1000
,
0010
1000
0010
1000
0001
0010
0001
0010
,
0100
1000
0100
1000
0001
0100
0001
0100
,
0010
0000
1000
0001
0010
0000
0100
1000
,
0001
0000
0100
0010
1000
0000
0100
0010
,
0001
0010
0100
1000
0001
1000
0100
0010
,
0001
0100
0010
1000
0100
0010
0001
1000
,
1010
0010
0110
0100
,
0010
0100
1000
0000
0100
0010
1000
0000
,
0100
0010
1000
0000
0010
0100
1000
0000
,
0001
0000
0100
0100
0001
1000
0100
0000
,
0110
0010
0011
0001
,
0100
0010
0001
0000
0010
0100
0001
0000
,
0010
0100
0001
0000
0100
0010
0001
0000
,
0101
0000
0100
0000
0010
1000
0001
0000
,
1001
1000
1010
0010
,
1000
0100
0001
0000
0100
1000
0001
0000
,
1000
0010
0001
0000
0010
1000
0001
0000
,
1000
0010
0001
0010
0100
0001
1000
0000
,
1001
0001
0101
0100
,
0001
0100
1000
0000
0001
0010
1000
0000
,
0001
0010
1000
0000
0001
0100
1000
0000
,
2001
0000
0010
0000
3100
0010
0100
0010
,
2002
0000
0000
0000
,
3003
0000
0000
0000
;

//---------------dance-single - ----------------
#NOTEDATA:;
#CHARTNAME:;
#CHARTHASH:614618016;
#STEPSTYPE:dance-single;
#BANNER:;
#DESCRIPTION:;
#CHARTSTYLE:;
#DIFFICULTY:Hard;
#METER:15;
#METERF:15.000000;
#LASTSECONDHINT:140.356720;
#RADARVALUES:0.715575,0.918205,0.531684,0.818514,0.465224,716.000000,640.000000,76.000000,117.000000,5.000000,0.000000,0.000000,0.000000,0.000000,0.715575,0.918205,0.531684,0.818514,0.465224,716.000000,640.000000,76.000000,117.000000,5.000000,0.000000,0.000000,0.000000,0.000000;
#CREDIT:Pilgrimsito vs -YOSEFU-;
#NOTES:
0000
0000
0000
0000
,
0000
0000
0000
0000
,
0000
0000
0000
0000
,
0000
0000
0000
0000
,
0000
0000
0000
0000
,
0000
0000
0000
0000
,
0000
0000
0000
0000
,
0000
0000
0000
0000
,
2001
3100
1002
0103
,
0012
0103
2010
3100
,
1002
0013
2001
3010
,
2100
3010
0102
0013
,
0001
0100
0010
1000
0001
0010
0100
1000
,
0001
0100
0010
1000
0001
0010
0100
1000
,
0010
0100
0010
0100
0010
0100
0010
0100
0010
0100
0010
0100
0010
0100
0010
0100
,
0010
1000
0001
0000
0000
0010
0100
0000
,
1100
0000
1000
0001
0101
0000
0100
0010
,
1010
0000
0000
0000
1000
0000
0100
0000
0010
0000
0001
0000
1000
0001
1000
0000
,
1010
0000
0010
0100
0101
0000
0001
0010
,
0110
0000
0000
0000
0100
0000
1000
0000
0001
0000
0100
0000
0010
1000
0010
0000
,
1010
0000
1000
0001
0011
0000
0010
0100
,
1100
0000
0000
0000
1000
0000
0001
0000
0100
0000
0010
0000
1000
0001
1000
0000
,
1001
0000
0001
0010
0110
0000
0100
1000
,
0001
0100
0100
0100
0010
2000
3001
0000
,
0011
0000
0000
0001
1000
0000
0010
0000
0110
0000
0000
0000
0100
0000
0001
0000
,
1001
0000
0000
1000
0100
0000
0010
0000
0001
0000
1000
0000
0010
1000
0010
0000
,
0110
0000
0000
0100
0001
0000
1000
0000
1100
0000
0000
0000
0100
0000
0010
0000
,
0011
0000
0000
0000
0000
0000
0000
0000
0000
0000
0000
0000
1001
0000
0000
0000
0000
0000
0000
0000
0000
0000
0000
0000
1000
0000
0000
0000
0010
0000
0000
0000
0100
0000
0000
0000
0001
0000
0000
0000
0000
0000
1000
0000
0000
0001
0000
0000
,
1000
0000
0000
0100
0010
0000
0001
0000
1001
0000
0000
0000
1000
0000
0010
0000
,
0110
0000
0000
0100
0001
0000
0010
0000
0100
0000
1000
0000
0001
0100
0001
0000
,
1001
0000
0000
1000
0010
0000
0100
0000
0101
0000
0000
0000
1001
0000
0000
0000
,
2200
0000
0000
3300
,
2001
3100
1002
0103
,
2001
3010
1002
0013
,
2100
3010
0102
0013
,
2010
3001
0012
1003
,
0001
0010
0100
1000
0001
0100
0010
1000
,
0001
0010
0100
1000
0001
0100
0010
1000
,
0001
1000
0001
1000
0001
1000
0001
1000
0001
1000
0001
1000
0001
1000
0001
1000
,
0001
0000
1001
0000
,
2100
0000
3001
0010
1000
0010
0100
1000
,
0001
0100
1000
0100
0010
1000
0100
0010
,
0002
0003
2000
3000
0001
0000
0100
0000
1000
0000
0100
0000
0010
0000
1000
0000
,
0001
0010
1000
0010
0100
1000
0010
1000
,
2001
0000
0000
0000
3002
0003
0020
0030
2000
3000
0002
0003
0200
0300
2000
3000
,
1002
0000
0000
0000
2003
3000
0020
0030
0002
0003
2000
3000
0200
0300
0002
0003
,
2001
0000
0000
0000
3002
0003
0020
0030
2000
3000
0002
0003
0200
0300
2000
3000
,
2001
0000
0000
0000
0100
0000
0000
0000
0001
0000
0000
0000
0100
0000
0000
3000
,
2010
0000
3001
0100
1000
0100
0010
1000
,
0001
0010
1000
0010
0100
1000
0010
0100
,
0002
0000
0000
0003
0000
0000
2000
0000
0000
3000
0000
0000
0002
0000
0000
0000
0000
0000
0000
0000
2003
0000
3000
0000
0200
0000
0300
0000
2000
0000
3000
0000
0200
0000
0300
0000
0020
0000
0000
0000
0000
0000
0000
0000
0032
0000
0003
0000
,
0200
0300
0002
0003
0200
0300
0020
0000
0000
0000
2030
3000
0200
0300
2000
3000
0200
0300
0020
0000
0000
0030
0000
0000
,
2001
0000
0000
0000
3002
0000
0000
0203
0000
0000
0320
0000
0000
2030
0000
0000
,
3200
0000
0000
0320
0000
0000
0032
0000
0000
2003
0000
0000
3002
0000
0000
2003
,
0000
0000
3000
0000
0002
0000
0000
0023
0000
0000
0230
0000
0000
2300
0000
0000
,
3020
0000
0000
0230
0000
0000
0302
0000
0000
2003
0000
0000
3002
0000
0000
0003
,
1001
0000
0000
0000
0001
0000
0000
0000
1000
0000
0000
0100
0000
0000
0010
0000
,
0000
0000
0001
0000
0000
1000
0000
0000
0010
0000
0000
0100
0000
0000
0010
0000
,
1000
0000
0000
0001
0000
0000
0010
0000
0100
0000
0000
1000
0000
0000
0010
0000
,
0100
0000
0000
0001
0000
0000
1000
0000
0100
0000
0000
0010
0000
0000
0001
0000
,
1000
0000
0000
0000
0010
0000
0000
0000
0100
0000
0000
0001
0000
0000
1000
0000
,
0000
0000
0100
0000
0000
0010
0000
0000
0001
0000
0000
1000
0000
0000
0010
0000
,
0100
0000
0000
0001
0000
0000
0010
0000
1000
0000
0000
0010
0000
0000
0100
0000
,
1000
0000
0000
0010
0000
0000
0100
0000
1000
0000
0000
0100
0000
0000
0001
0000
,
1002
0013
2001
3010
,
2100
3010
0102
0013
,
2001
3100
1002
0103
,
0012
0103
2010
3100
,
1000
0010
0100
0001
1000
0100
0010
0001
,
1000
0010
0100
0001
1000
0100
0010
0001
,
0100
0010
0100
0010
0100
0010
0100
0010
0100
0010
0100
0010
0100
0010
0100
0010
,
0100
0001
1000
0000
0100
0000
1001
0000
,
1000
0000
0000
0010
0000
0000
0100
0000
0001
0000
0000
1000
0000
0000
0100
0000
,
0010
0000
0000
0001
0000
0000
1000
0000
0010
0000
0000
0100
0000
0000
0010
0000
,
1000
0000
0000
0100
0000
0000
0010
0000
0001
0000
0000
1000
0000
0000
0010
0000
,
0100
0000
0000
0001
0000
0000
0010
0000
0100
0000
0000
1000
0000
0000
0001
0000
,
0100
0000
0000
0001
0000
0000
1000
0000
0100
0000
0000
1000
0000
0000
0001
0000
,
0100
0000
0000
0010
0000
0000
1000
0000
0100
0000
0000
0010
0000
0000
0100
0000
,
0001
0000
0000
0100
0000
0000
1000
0000
0010
0000
0000
0100
0000
0000
0010
0000
,
0001
0000
0000
0010
0000
0000
1000
0000
0100
0000
0000
0010
0000
0000
0001
0000
,
1000
0000
0000
0010
0100
0000
0001
0000
1000
0000
0000
0100
0010
0000
0001
0000
,
1000
0000
0000
0001
0010
0000
0001
0000
1000
0000
0000
0010
1000
0000
0001
0000
,
1000
0100
1000
0000
0001
0000
1000
0000
0001
0100
0001
0000
1000
0000
0010
0000
,
1000
0001
1000
0000
0001
0000
0010
0000
0100
1000
0100
0000
0010
0000
0001
0000
,
1000
0010
0100
1000
0100
0001
1000
0100
,
0001
0100
0010
0001
1000
0010
0100
0001
,
1000
0100
1000
0000
0001
0000
0100
0000
0010
1000
0010
0000
0100
0000
0001
0000
,
1000
0000
0010
0000
0001
0000
0010
0000
0100
0000
0001
0000
1000
0001
1000
0001
,
0010
0001
0101
0100
,
1010
1000
0100
0010
0011
0001
0200
0300
,
0110
0010
1000
0100
0110
0010
0002
0003
,
1001
0000
0000
0000
0002
0000
0023
0000
0230
0000
2300
0000
3020
0000
0230
0300
,
2001
3010
0110
0100
,
0101
0001
0010
0100
1100
1000
0020
0030
,
0110
0100
0001
0010
0110
0100
2000
3000
,
1001
0000
0000
0000
2000
0000
3200
0000
0320
0000
0032
0000
0203
0000
0320
0030
,
2001
3010
0110
0100
,
0001
0010
1000
0010
0001
0100
0020
0030
,
1000
0100
0001
0100
1000
0010
0200
0300
,
0001
0010
1000
0010
0001
0100
0020
0030
,
1002
0013
0110
0100
,
1000
0100
M100
0001
0100
010M
2000
3000
,
0001
0010
001M
1000
0010
M010
0002
0003
,
1000
0100
M100
0001
1000
1000
0001
0001
,
0220
0000
0000
0000
,
0330
0000
0000
0000
;

//---------------dance-single - ----------------
#NOTEDATA:;
#CHARTNAME:;
#CHARTHASH:528536031;
#STEPSTYPE:dance-single;
#BANNER:;
#DESCRIPTION:;
#CHARTSTYLE:;
#DIFFICULTY:Challenge;
#METER:17;
#METERF:17.000000;
#LASTSECONDHINT:140.356720;
#RADARVALUES:0.875480,1.065117,0.517693,1.000406,0.916456,876.000000,802.000000,74.000000,143.000000,9.000000,0.000000,0.000000,0.000000,0.000000,0.875480,1.065117,0.517693,1.000406,0.916456,876.000000,802.000000,74.000000,143.000000,9.000000,0.000000,0.000000,0.000000,0.000000;
#CREDIT:Pilgrimsito vs -YOSEFU-;
#NOTES:
// measure 0
0000
0000
0000
0000
,  // measure 1
0000
0000
0000
0000
,  // measure 2
0000
0000
0000
0000
,  // measure 3
0000
0000
0000
0000
,  // measure 4
0000
0000
0000
0000
,  // measure 5
0000
0000
0000
0000
,  // measure 6
0000
0000
0000
0000
,  // measure 7
0000
0000
0000
0000
,  // measure 8
2010
3100
0012
0103
,  // measure 9
2001
3100
1002
0103
,  // measure 10
2100
3010
0102
0013
,  // measure 11
2001
3010
1002
0013
,  // measure 12
0001
0100
0001
0100
1000
0100
1000
0100
,  // measure 13
0001
0010
0001
0010
1000
0010
1000
0010
,  // measure 14
0001
1000
0001
1000
0010
0100
0010
0100
0001
1000
0001
1000
0010
0100
0010
0100
,  // measure 15
0010
0000
1000
0000
0001
0000
0001
0000
0000
0000
0010
0000
0100
1000
0001
0000
,  // measure 16
0102
0000
0000
0000
0103
0000
0010
0000
1020
0000
0000
1030
0100
0000
0010
0000
,  // measure 17
0021
0000
0000
0000
0130
0000
1000
0000
0010
0000
0100
0001
1000
0100
0010
0100
,  // measure 18
2000
0000
0000
0000
3001
0000
0010
0000
0021
0000
0000
0031
0100
0000
0001
0000
,  // measure 19
1002
0000
0000
0000
0103
0000
0001
0000
0020
0030
002M
0030
1000
0010
0100
0001
,  // measure 20
2000
0000
0000
0000
3100
0000
0010
0000
0021
0000
0000
0031
1000
0000
0010
0000
,  // measure 21
1020
0000
0000
0000
0130
0000
0001
0000
1000
0000
0001
0100
0001
0010
0100
0010
,  // measure 22
0002
0000
0000
0000
0103
0000
0010
0000
1020
0000
0000
1030
0001
0000
0010
0000
,  // measure 23
0100
0000
0010
0000
0010
0000
0010
0000
0001
1000
0020
0000
0130
0000
0000
0000
,  // measure 24
0201
0000
0000
0310
1000
0000
0100
0000
1002
0000
0000
0103
0010
0000
1000
0000
,  // measure 25
2100
0000
0000
3001
0100
0000
0001
0000
0200
0300
020M
0300
1000
0100
0010
0001
,  // measure 26
2000
0000
0000
3010
0100
0000
0001
0000
0012
0000
0000
1003
0010
0000
0100
0000
,  // measure 27
1001
0000
0000
0000
0000
0000
0000
0000
0000
0000
0000
0000
0101
0000
0000
0000
0000
0000
0001
0000
1000
0000
0001
0000
1000
0000
0000
0000
0001
0000
0000
0000
0010
0000
0000
0000
0100
0000
0000
0000
0000
0000
0010
0000
0000
0001
0000
0000
,  // measure 28
2000
0000
0000
3010
0100
0000
0001
0000
1020
0000
0000
0130
0001
0000
1000
0000
,  // measure 29
0021
0000
0000
0130
1000
0000
0001
0000
0200
0300
020M
0300
1000
0100
0010
0001
,  // measure 30
0200
0000
0000
0310
1000
0000
0100
0000
1001
0000
0000
0000
1100
0000
0000
0000
,  // measure 31
0012
0000
0100
0000
0000
0100
0003
0000
,  // measure 32
0102
1003
2100
3001
,  // measure 33
0012
0000
0000
0000
1003
0000
0000
0000
0001
0100
0010
0000
1000
0100
0010
0001
,  // measure 34
2000
3010
0102
1003
,  // measure 35
2100
0000
0000
0000
3001
0000
0000
0000
1000
0010
0100
0000
0001
0010
0100
0000
,  // measure 36
1000
0010
1000
0010
0001
0010
0001
0010
,  // measure 37
1000
0100
1000
0100
0001
0100
0001
0100
,  // measure 38
1000
0001
1000
0001
0010
0100
0010
0100
1000
0001
1000
0001
0100
0010
0100
0010
,  // measure 39
1000
0000
0110
0000
,  // measure 40
2001
0000
3010
0100
0101
0001
0010
1000
,  // measure 41
1010
1000
0010
0001
1001
1000
0100
0010
,  // measure 42
0012
0003
2000
3000
0001
0000
1000
0000
1010
0000
1000
0000
0100
0000
0001
0000
,  // measure 43
0101
0001
0100
1000
1001
0001
0100
0010
,  // measure 44
2010
0000
0000
0000
3002
0003
0200
0300
020M
0300
2000
3000
0200
0300
M200
0300
,  // measure 45
0102
0000
0000
0000
2003
3000
0020
0030
M020
0030
0002
0003
0020
0030
002M
0030
,  // measure 46
2010
0000
0000
0000
3002
0003
0200
0300
020M
0300
2000
3000
0200
0300
M200
0300
,  // measure 47
0201
0000
0000
0000
1000
0000
0000
0300
0120
0000
0000
0000
0001
0000
0000
0030
,  // measure 48
2010
0000
3010
0100
0101
0001
0010
1000
,  // measure 49
1010
1000
0010
0001
1001
1000
0100
0010
,  // measure 50
0012
0000
0000
0003
0000
0000
2000
0000
0000
3000
0000
0000
0002
0000
0000
0000
0000
0000
0000
0000
2003
0000
3000
0000
0200
0000
0300
0000
0002
0000
0003
0000
0200
0000
0300
0000
2000
0000
0000
0000
0000
0000
0000
0000
3002
0000
0003
0000
,  // measure 51
0200
0300
2000
3000
0200
0300
0002
0000
0000
0000
2003
3000
0200
0300
0002
0003
0200
0300
2000
0000
0000
3000
0000
0000
,  // measure 52
2001
0000
0000
0000
3002
0000
0000
0203
0000
0000
2300
0000
0000
3200
0000
0000
,  // measure 53
0302
0000
0000
0023
0000
0000
2030
0000
0000
3020
0000
0000
0032
0000
0000
2003
,  // measure 54
3002
0003
0200
0300
0002
0000
0000
0023
0000
0000
2030
0000
0000
3020
0000
0030
,  // measure 55
0012
0000
0003
0000
1002
0000
0003
1000
0020
0000
0200
0000
0000
0000
0330
0000
,  // measure 56
1001
0000
0000
0001
0100
0000
0000
0010
1000
0001
0000
0010
0000
0000
0100
0000
,  // measure 57
1000
0000
0001
0000
1000
0010
0000
1000
0001
0010
0000
0100
0000
0000
0010
0000
,  // measure 58
1000
0000
0000
0010
0000
0000
0001
0000
0100
0000
0000
0010
0000
0000
0100
0000
,  // measure 59
1000
0000
0000
0100
0000
0000
0010
0000
1000
0000
0000
0100
0000
0000
0001
0000
,  // measure 60
0100
0000
0000
0010
0001
0000
0000
1000
0010
0100
0000
0001
0000
0000
1000
0000
,  // measure 61
0100
0000
0010
0000
0100
1000
0000
0001
0100
0010
0000
1000
0000
0000
0010
0000
,  // measure 62
0001
0000
0000
0010
0000
0000
0100
0000
0001
0000
0000
0010
0000
0000
0100
0000
,  // measure 63
0001
0000
0000
0100
0000
0000
1000
0000
0010
0000
0000
0100
0000
0000
0001
0000
,  // measure 64
0012
0103
2010
3100
,  // measure 65
1002
0103
2001
3100
,  // measure 66
0102
0013
2100
3010
,  // measure 67
1002
0013
2001
3010
,  // measure 68
1000
0100
1000
0100
0001
0100
0001
0100
,  // measure 69
1000
0010
1000
0010
0001
0010
0001
0010
,  // measure 70
1000
0010
1000
0010
0100
0001
0100
0001
1000
0100
1000
0100
0010
0001
0010
0001
,  // measure 71
1000
0001
0100
0000
0010
0000
1001
0000
,  // measure 72
1000
0000
0001
0100
0000
0001
0010
0000
0001
0000
1000
0100
0000
1000
0010
0000
,  // measure 73
1000
0000
0001
0100
0000
0010
0100
0000
0001
0000
1000
0100
0000
1000
0010
0000
,  // measure 74
0100
0000
0001
1000
0000
0010
1000
0000
0001
0000
1000
0100
0000
1000
0001
0000
,  // measure 75
0100
0000
0010
1000
0000
0001
1000
0000
0001
0000
0010
0001
0000
1000
0001
0000
,  // measure 76
0100
0000
0010
1000
0000
0001
0010
0000
0100
0000
0010
0001
0000
1000
0010
0000
,  // measure 77
1000
0000
0100
1000
0000
0001
0100
0000
0010
0000
0100
0001
0000
1000
0100
0000
,  // measure 78
0001
0000
0100
0010
0000
0001
0100
0000
1000
0000
0100
0010
0000
1000
0100
0000
,  // measure 79
0010
0000
0001
0100
0000
0010
1000
0000
0100
0000
0010
0001
0000
0100
0010
0000
,  // measure 80
1000
0000
0001
0100
0010
0000
1000
0000
0001
0000
1000
0100
0010
0000
0001
0000
,  // measure 81
1000
0000
0010
0100
0001
0000
1000
0000
0100
0000
0010
0100
1000
0000
0001
0000
,  // measure 82
1000
0010
0100
0010
1000
0000
0001
0000
1000
0100
0010
0100
1000
0000
0001
0000
,  // measure 83
0010
0100
1000
0100
0010
0000
0001
0000
1000
0001
0010
0001
1000
0000
0010
0000
,  // measure 84
0100
1000
0100
0001
0010
0100
0001
0100
,  // measure 85
1000
0010
0001
0010
0100
0001
1000
0100
,  // measure 86
0010
0100
1000
0100
0010
0000
0001
0000
1000
0010
0100
0010
1000
0000
0001
0000
,  // measure 87
0100
0001
1000
0100
0010
0100
1000
0001
0100
0010
1000
0100
0010
0001
0100
0001
,  // measure 88
2000
0000
0000
0000
3010
0000
0100
0000
0110
0000
0010
1000
0001
0000
0000
0000
,  // measure 89
1000
0100
0010
0100
1000
0100
0010
0100
1000
0100
0010
0100
2000
0000
3000
0000
,  // measure 90
0001
0100
0010
0100
0001
0100
0010
0100
0001
0100
0010
0100
0002
0000
0003
0000
,  // measure 91
1001
0000
0000
0000
2000
0000
3200
0000
0302
0000
0203
0000
2300
0000
3020
0030
,  // measure 92
2001
0000
3010
0000
0110
0000
0100
0010
,  // measure 93
1000
0001
0100
0001
1000
0001
0100
0001
1000
0001
0100
0001
2000
0000
3000
0000
,  // measure 94
0001
1000
0100
1000
0001
1000
0100
1000
0001
1000
0100
1000
0002
0000
0003
0000
,  // measure 95
1001
0000
0000
0000
2000
0000
3200
0000
0302
0000
0203
0000
2300
0000
3020
0030
,  // measure 96
1002
0000
0000
0000
0013
0000
0100
0000
0110
0000
0010
0001
1000
0000
0000
0000
,  // measure 97
0001
0010
0100
0010
0001
0010
0100
0010
0001
0010
0100
0010
0002
0000
0003
0000
,  // measure 98
1000
0010
0100
0010
1000
0010
0100
0010
1000
0010
0100
0010
2000
0000
3000
0000
,  // measure 99
0001
1000
0010
1000
0001
1000
0010
1000
0001
1000
0010
1000
0002
0000
0003
0000
,  // measure 100
2001
0000
3010
0000
0110
0000
0100
0001
,  // measure 101
0010
0001
0100
0001
0010
0001
0100
0001
0010
0001
0100
0001
0020
0000
0030
0000
,  // measure 102
0100
1000
0010
1000
0100
1000
0010
1000
0100
1000
0010
1000
0200
0000
0300
0000
,  // measure 103
0010
0001
0100
0001
0010
0001
0100
0001
0010
0000
0010
0000
0100
0000
0100
0000
,  // measure 104
2002
0000
0000
0000
,  // measure 105
3003
0000
0000
0000
;
