#TITLE:Lucid Traveler;
#SUBTITLE:;
#ARTIST:Akira Complex vs 3R2;
#TITLETRANSLIT:;
#SUBTITLETRANSLIT:;
#ARTISTTRANSLIT:;
#GENRE:Dubwork/Drumstep;
#CREDIT:;
#BANNER:Lucid Traveler-bn.png;
#BACKGROUND:Lucid Traveler-bg.png;
#LYRICSPATH:;
#CDTITLE:cdtitle.png;
#MUSIC:Lucid Traveler.ogg;
#OFFSET:-0.001000;
#SAMPLESTART:35.295116;
#SAMPLELENGTH:12.000000;
#SELECTABLE:YES;
#BPMS:0.000000=170.000000
,128.000000=85.000000
,144.000000=170.000000
,183.000000=170.598999
,184.000000=171.798996
,185.000000=172.998993
,186.000000=174.199005
,187.000000=175.399002
,188.000000=176.598999
,189.000000=177.798996
,190.000000=178.998993
,191.000000=180.199005
,192.000000=181.399002
,193.000000=182.598999
,194.000000=183.798996
,195.000000=184.998993
,196.000000=186.199005
,197.000000=187.399002
,198.000000=188.598999
,199.000000=189.798996
,200.000000=190.998993
,201.000000=192.199005
,202.000000=193.399002
,203.000000=194.598999
,204.000000=195.798996
,205.000000=196.998993
,206.000000=198.199005
,207.000000=199.399002
,208.000000=200.000000
,276.000000=100.000000
;
#STOPS:
;
#BGCHANGES:;
#KEYSOUNDS:;
#ATTACKS:;

//---------------dance-single - ----------------
#NOTES:
     dance-single:
     :
     Beginner:
     5:
     0.185903,0.317094,0.032945,0.000000,0.000000,158.000000,154.000000,4.000000,0.000000,0.000000,0.000000,0.185903,0.317094,0.032945,0.000000,0.000000,158.000000,154.000000,4.000000,0.000000,0.000000,0.000000:
// measure 0
0000
0000
0000
0000
,  // measure 1
0000
0000
0000
0000
,  // measure 2
0000
0000
0000
0000
,  // measure 3
0000
0000
0000
0000
,  // measure 4
0000
0000
0000
0000
,  // measure 5
1000
0000
0000
0000
,  // measure 6
0001
0000
0000
0000
,  // measure 7
1000
0000
0000
0000
,  // measure 8
0001
0000
0000
0000
,  // measure 9
1000
0000
0001
0000
,  // measure 10
0100
0000
0001
0000
,  // measure 11
1000
0000
0001
0000
,  // measure 12
0100
0000
0001
0000
,  // measure 13
1000
0000
0100
0000
,  // measure 14
0010
0000
0001
0000
,  // measure 15
0010
0000
0100
0000
,  // measure 16
1000
0000
0000
0000
,  // measure 17
1001
0000
0001
0000
,  // measure 18
0100
0000
0001
0000
,  // measure 19
1000
0000
0010
0000
,  // measure 20
1000
0000
0001
0000
,  // measure 21
0010
0000
0100
0000
,  // measure 22
0010
0000
0001
0000
,  // measure 23
1000
0000
0100
0000
,  // measure 24
0010
0000
0001
0000
,  // measure 25
1000
0000
0001
0000
,  // measure 26
0100
0000
0001
0000
,  // measure 27
1000
0000
0010
0000
,  // measure 28
0100
0000
0001
0000
,  // measure 29
1000
0000
0001
0000
,  // measure 30
0100
0000
0010
0000
,  // measure 31
1000
0000
0001
0000
,  // measure 32
0100
1001
1000
0100
,  // measure 33
1000
0001
1000
0010
,  // measure 34
0100
0001
1000
0001
,  // measure 35
0100
0001
1000
0100
,  // measure 36
1000
0000
0000
0000
,  // measure 37
0001
0000
0000
0000
,  // measure 38
0100
0000
0000
0000
,  // measure 39
0010
0000
0000
0000
,  // measure 40
1000
0000
0000
0000
,  // measure 41
0100
0000
0000
0000
,  // measure 42
0010
0000
0000
0000
,  // measure 43
0001
0000
0000
0000
,  // measure 44
1000
0000
0000
0000
,  // measure 45
0001
0000
1000
0000
,  // measure 46
0001
0000
1000
0000
,  // measure 47
0100
0000
0010
0000
,  // measure 48
0100
0000
0010
0000
,  // measure 49
0001
0000
0100
0000
,  // measure 50
0001
0000
1000
0000
,  // measure 51
0001
0000
0100
0000
,  // measure 52
0001
0000
0000
0000
,  // measure 53
1001
0000
1000
0000
,  // measure 54
0010
0000
1000
0000
,  // measure 55
0100
0000
0010
0000
,  // measure 56
0100
0000
1000
0000
,  // measure 57
0001
0000
0100
0000
,  // measure 58
0001
0000
0010
0000
,  // measure 59
0100
0000
1000
0000
,  // measure 60
0001
0000
1000
0000
,  // measure 61
0010
0000
0100
0000
,  // measure 62
0001
0000
1000
0000
,  // measure 63
0010
0000
1000
0000
,  // measure 64
0001
0000
0010
0000
,  // measure 65
0001
0000
1000
0000
,  // measure 66
0010
0000
1000
0000
,  // measure 67
0100
0000
1000
0000
,  // measure 68
0001
0000
0100
0000
,  // measure 69
0001
1000
0010
1000
,  // measure 70
0001
0010
0100
1000
,  // measure 71
0001
1000
0010
0100
,  // measure 72
0001
1000
0001
0010
,  // measure 73
0100
1000
0001
0100
,  // measure 74
0001
1000
0100
0010
,  // measure 75
0100
1000
0001
0100
,  // measure 76
0001
1000
0010
1000
,  // measure 77
1001
0000
0000
0000
;

//---------------dance-single - ----------------
#NOTES:
     dance-single:
     :
     Easy:
     11:
     0.495349,0.856155,0.387102,0.189433,0.045299,421.000000,374.000000,47.000000,23.000000,0.000000,0.000000,0.495349,0.856155,0.387102,0.189433,0.045299,421.000000,374.000000,47.000000,23.000000,0.000000,0.000000:
// measure 0
0000
0000
0000
0000
,  // measure 1
0000
0000
0000
0000
,  // measure 2
0000
0000
0000
0000
,  // measure 3
0000
0000
0000
0000
,  // measure 4
0000
0000
0000
0000
,  // measure 5
0001
0000
0100
0000
,  // measure 6
0010
0000
1000
0000
,  // measure 7
0100
0000
0010
0000
0001
0000
1000
0001
,  // measure 8
2000
0000
0000
0000
0002
0000
0000
3003
,  // measure 9
1001
1000
0010
1000
,  // measure 10
0001
0100
0010
0100
,  // measure 11
0001
0010
0100
1000
,  // measure 12
0001
1000
0010
0100
,  // measure 13
0001
0000
0100
0001
1000
0000
0010
0000
,  // measure 14
1000
0000
0001
0010
0100
0000
0010
0000
,  // measure 15
0001
1000
0001
1000
0100
0010
0100
0010
,  // measure 16
0001
0000
1000
0001
0000
0001
0000
0000
,  // measure 17
1001
0000
1000
0000
0001
0000
0100
0001
,  // measure 18
1000
0000
0001
0000
0010
0000
0100
0010
,  // measure 19
0001
0000
1000
0000
0001
0000
1000
0001
,  // measure 20
0100
0000
0001
0000
1000
0000
0100
0010
,  // measure 21
0001
0000
1000
0000
0001
0000
0100
0001
,  // measure 22
1000
0000
0001
0000
0010
0000
0100
0010
,  // measure 23
0001
0000
1000
0000
0010
0000
0100
0010
,  // measure 24
1000
0001
1000
0001
2000
0000
3000
0000
,  // measure 25
1001
0000
1000
0100
0010
0000
0100
0010
,  // measure 26
0001
0000
0100
0001
1000
0000
0010
1000
,  // measure 27
0001
0000
0010
0100
1000
0000
0001
0010
,  // measure 28
0100
0000
1000
0001
0100
0000
0001
0000
,  // measure 29
0101
0000
0100
0001
1000
0000
0100
0010
,  // measure 30
0001
0000
0010
0100
1000
0000
0001
1000
,  // measure 31
0010
0000
0100
0001
1000
0000
0001
0000
,  // measure 32
1001
0000
0000
0000
0110
0000
0000
0000
1100
0000
0100
1000
0001
0000
0100
0000
,  // measure 33
0001
0000
0000
0000
0000
0000
1000
0000
0000
0100
0000
0000
0010
0000
0000
0000
0000
0000
0001
0000
0000
0000
0000
0000
1000
0000
0000
0001
0000
0000
0100
0000
0000
0000
0000
0000
0001
0000
0000
0000
0001
0000
1000
0000
0000
0000
1000
0000
,  // measure 34
0010
0000
0010
0100
0000
0100
0001
0000
0001
1000
0000
0000
1001
0000
0000
1000
0000
0000
0100
0000
0000
0000
0000
0000
,  // measure 35
0010
0000
0001
0000
1000
0001
0100
0000
,  // measure 36
0001
0000
1000
0000
0000
2002
0000
0000
,  // measure 37
3003
0000
1000
0001
0000
0100
0001
0000
,  // measure 38
1000
0000
0001
0010
0000
0100
0010
0100
,  // measure 39
0010
0000
0100
1000
0000
0001
1000
0000
,  // measure 40
0010
0000
1000
0001
0000
1000
0001
0001
,  // measure 41
1000
0000
0010
0100
0010
1000
0001
0000
,  // measure 42
0001
0000
0010
0100
0010
0001
1000
0000
,  // measure 43
1000
0100
0001
0000
0010
0100
1000
0000
,  // measure 44
0001
0100
1000
0000
0100
0010
1000
0000
,  // measure 45
0001
0001
1000
1000
,  // measure 46
0001
0001
1000
1000
,  // measure 47
0010
0010
0100
0100
,  // measure 48
0010
0010
0100
0100
,  // measure 49
0001
0010
0100
1000
,  // measure 50
0001
0100
0010
1000
,  // measure 51
0001
1000
0001
1000
,  // measure 52
0001
0000
0100
0010
0100
0000
1001
0000
,  // measure 53
1000
0010
0001
0010
,  // measure 54
0100
1000
0100
0001
,  // measure 55
0010
0100
0001
0100
,  // measure 56
0010
0000
0001
0000
0100
0000
0010
1000
,  // measure 57
0010
0100
1000
0100
,  // measure 58
0010
0100
0001
1000
,  // measure 59
0100
0001
0100
0010
,  // measure 60
0001
0000
1000
0000
0001
1000
0000
0000
,  // measure 61
1010
1010
1001
1001
,  // measure 62
1010
0011
1001
1001
,  // measure 63
0101
0101
1001
1001
,  // measure 64
0101
1100
1001
1001
,  // measure 65
0020
0000
0100
0000
0001
0000
1030
0010
,  // measure 66
0200
0000
0010
0000
1000
0000
0301
0100
,  // measure 67
0010
1000
0010
0001
0010
0100
1000
0100
,  // measure 68
0020
0000
0130
0000
,  // measure 69
1001
1000
1100
0001
0012
0010
0013
0100
,  // measure 70
2010
0010
3010
0100
0012
0103
1001
1000
,  // measure 71
2200
3300
1001
0000
0201
0001
0301
0010
,  // measure 72
1200
0000
1000
0000
1300
0000
0010
0000
1001
0000
0100
0000
1001
0000
0100
0010
,  // measure 73
0200
0300
1001
0000
2100
0100
3100
0001
,  // measure 74
2010
0010
3010
0001
2100
0100
3100
0010
,  // measure 75
2002
3003
0110
0000
0012
0010
0013
1000
,  // measure 76
0102
0000
0100
0000
0103
0000
1000
0000
0110
0000
0000
0000
0001
1000
0001
1000
,  // measure 77
0001
0000
0000
0000
;

//---------------dance-single - ----------------
#NOTES:
     dance-single:
     :
     Medium:
     14:
     0.696548,0.919573,0.420047,0.247086,0.436519,592.000000,541.000000,51.000000,30.000000,0.000000,0.000000,0.696548,0.919573,0.420047,0.247086,0.436519,592.000000,541.000000,51.000000,30.000000,0.000000,0.000000:
// measure 0
0000
0000
0000
0000
,  // measure 1
0000
0000
0000
0000
,  // measure 2
0000
0000
0000
0000
,  // measure 3
0000
0000
0000
0000
,  // measure 4
0000
0000
0000
0000
,  // measure 5
2000
0000
3002
0000
,  // measure 6
0023
0000
0000
0000
0000
0000
0130
0010
0002
0000
0000
0000
0003
0000
0001
0000
,  // measure 7
0200
0000
2300
0000
3001
0010
1000
0001
,  // measure 8
2000
0000
0000
0000
0200
0000
0000
3300
,  // measure 9
1100
0000
1000
0000
0000
0001
0000
0000
0100
0001
0000
1000
0000
0000
0010
0000
,  // measure 10
0100
0000
0001
0000
0000
0010
0000
0000
0100
0010
0000
0001
0000
0000
1000
0000
,  // measure 11
0001
0000
0100
0000
0000
0001
0000
0000
0010
0100
0000
1000
0000
0000
0001
0000
,  // measure 12
0100
0000
0010
0000
0000
0001
0000
0000
0010
0100
0000
0001
0000
0000
1000
0000
,  // measure 13
0001
0100
1000
0100
0001
1000
0010
0100
,  // measure 14
0001
0010
1000
0010
0001
1000
0100
0010
,  // measure 15
0001
0000
1000
0000
0010
1000
0010
0000
0100
0000
0001
0000
1000
0001
1000
0000
,  // measure 16
1001
0000
0000
1100
0000
0101
0000
0000
,  // measure 17
1001
0000
0000
0000
0100
0000
0001
0000
1000
0000
0000
1000
0001
0000
0010
0000
,  // measure 18
1000
0000
0000
0000
0001
0000
0100
0000
1000
0000
0001
0000
1000
0100
0010
0000
,  // measure 19
0001
0000
0000
0000
0100
0000
0010
0000
1000
0000
0000
0001
0100
0000
0001
0000
,  // measure 20
0010
0000
0000
0000
0100
0000
0010
0000
0001
0000
0001
0000
1000
0001
0100
0000
,  // measure 21
0010
0000
0000
0000
0100
0000
0001
0000
0010
0000
0000
0010
1000
0000
0010
0000
,  // measure 22
0001
0000
0000
0000
0100
0000
0001
0000
1000
0000
1000
0000
0010
1000
0001
0000
,  // measure 23
0100
0000
0000
0000
0001
0000
1000
0000
0100
0000
0000
0100
0001
0000
0100
0000
,  // measure 24
1000
0010
0100
0010
2000
0000
3001
0100
,  // measure 25
1001
0000
0000
0001
0100
0000
0001
0000
0101
0000
0000
1001
0000
0000
1100
0000
,  // measure 26
0100
0000
0000
1000
0001
0000
0100
0000
0010
0000
0100
0000
0001
1000
0010
0000
,  // measure 27
1010
0000
0000
1000
0001
0000
0100
0000
0101
0000
0000
1100
0000
0000
0110
0000
,  // measure 28
0220
0000
0000
0330
0000
0000
0110
0000
0000
2000
0000
0000
3001
0000
1000
0000
0001
0000
1000
0000
0000
0000
0000
0000
,  // measure 29
1010
0000
0000
1000
0001
0000
0100
0000
0110
0000
0000
1001
0000
0000
0101
0000
,  // measure 30
0100
0000
0000
0001
0010
0000
0100
0000
1000
0000
1000
0000
0010
1000
0001
0000
,  // measure 31
1001
0000
0000
0100
0001
0000
1000
0000
1001
0000
0000
0000
0110
0000
0000
0000
,  // measure 32
1002
0000
1003
0000
1010
0000
0001
0000
0011
0000
0010
0100
1000
0000
0001
1000
,  // measure 33
0010
0000
0000
0000
0000
0000
1000
0000
0000
0100
0000
0000
0010
0000
0000
0000
0000
0000
0001
0000
0000
0100
0000
0000
1000
0000
0000
0100
0000
0000
0001
0000
0000
0000
0000
0000
1000
0000
0100
0000
0010
0000
0001
0000
0000
0000
0000
0000
,  // measure 34
0100
0000
0000
0000
0000
0000
0000
0000
0010
0000
0000
0000
0000
0000
0000
0000
1000
0000
0000
0000
0000
0000
0000
0000
0001
0000
0000
0000
0000
0000
0000
0000
0000
0000
0000
0000
0000
0000
0000
0000
0000
0000
0000
0000
0000
0000
0000
0000
0010
0000
0000
0000
0000
0000
0000
0000
0100
0000
0000
0000
0000
0000
0000
0000
1000
0000
0000
0000
0000
0000
0000
0000
0002
0000
0000
0000
0000
0000
0000
0000
0000
0000
0000
0000
0000
0000
0000
0000
0000
0000
0000
0000
0000
0000
0000
0000
0103
0000
0000
0000
0000
0000
0000
0000
0000
0000
0000
0000
0000
0000
0000
0000
0000
0000
0000
0000
0000
0000
0000
0000
0001
0000
0000
0000
0000
0000
0000
0000
0000
0000
0000
0000
0000
0000
0000
0000
0000
0000
0001
0000
0000
0000
0000
0000
1000
0000
0000
0000
0000
0000
0000
0000
0000
0000
0000
0000
0100
0000
0000
0000
0000
0000
0000
0000
0000
0000
0000
0000
0000
0000
0000
0000
0000
0000
0100
0000
0000
0000
0000
0000
0000
0000
0000
0000
0000
0000
0000
0000
0000
0000
0000
0000
,  // measure 35
0010
0000
0000
0001
0000
0000
0001
0000
1000
0000
0000
0001
0000
0000
0001
0000
0100
0000
0010
0000
1000
0000
0000
1000
0001
0000
0100
0000
0000
0100
0000
0000
,  // measure 36
0102
0003
1001
2000
3000
1100
0000
0000
,  // measure 37
0110
0000
0000
0100
0000
0000
0001
0000
1000
0001
0100
0000
0001
0000
0010
0000
,  // measure 38
0100
0000
0000
0010
0000
0000
0001
0000
1000
0100
0010
0000
0001
0000
1000
0000
,  // measure 39
0001
0000
0000
0010
0000
0000
1000
0000
0010
0000
0000
0100
0000
0000
0010
0000
,  // measure 40
0001
0000
0000
1000
0000
0000
0010
0000
1000
0000
0000
0000
0001
0000
1000
0000
,  // measure 41
1000
0000
0000
0100
0000
0000
1000
0000
0001
1000
0100
0000
1000
0000
0010
0000
,  // measure 42
0100
0000
0000
0010
0000
0000
1000
0000
0001
0100
0010
0000
1000
0000
0001
0000
,  // measure 43
1000
0000
0000
0010
0000
0000
0001
0000
0010
0000
0000
0100
0000
0000
0010
0000
,  // measure 44
1000
0000
0000
0001
0000
0000
0010
0000
0001
0000
0000
0000
1000
0000
0001
0000
,  // measure 45
1000
1000
1100
1000
,  // measure 46
0001
0001
0101
0001
,  // measure 47
1000
1000
1010
1000
,  // measure 48
0001
0001
0011
0001
,  // measure 49
1000
0010
1000
0000
0001
0010
0001
0000
,  // measure 50
1000
0100
0010
0000
0001
0100
0010
0000
,  // measure 51
0010
1000
0100
0010
0001
0100
0010
1000
,  // measure 52
0100
0000
0001
0100
1000
0000
1001
0000
,  // measure 53
0001
0010
0001
1000
0010
1000
0100
0010
,  // measure 54
0001
0010
0001
1000
0010
1000
0100
0010
,  // measure 55
0100
1000
0010
0100
0010
1000
0100
0010
,  // measure 56
0100
1000
0010
0100
0010
1000
0100
0010
,  // measure 57
0001
1000
0010
0100
0001
1000
0100
0010
,  // measure 58
0001
1000
0010
0100
0001
1000
0100
1000
,  // measure 59
0010
0001
0010
1000
0001
0100
1000
0100
,  // measure 60
0001
1000
0010
0001
0010
1000
0000
0000
,  // measure 61
0001
0010
0100
1000
0001
1000
0100
1000
,  // measure 62
0001
0010
0100
1000
0001
0010
0100
0010
,  // measure 63
0001
0100
0010
1000
0001
1000
0010
1000
,  // measure 64
0001
0100
0010
1000
0001
0100
1000
0100
,  // measure 65
0001
1000
0001
1000
0010
0100
0010
0100
,  // measure 66
0001
1000
0001
1000
0100
0010
0100
0010
,  // measure 67
1000
0010
0001
1000
0100
0001
0100
1000
,  // measure 68
0001
0010
1000
0001
0100
1000
0001
0000
,  // measure 69
1001
0000
0000
0000
1000
0000
0000
0000
1001
0000
0000
0000
0002
0000
0000
0000
0100
0000
0000
0100
0000
0000
0100
0000
0000
0103
0000
0000
0101
0000
0000
0000
,  // measure 70
1200
0000
0000
1000
0000
0000
1000
0000
0000
1300
0000
0000
1100
0000
0000
0000
1000
0000
0100
0000
0010
0000
0001
0000
1000
0000
0100
0000
1000
0000
0000
0000
,  // measure 71
1001
0000
0000
0000
0001
0000
0000
0000
1001
0000
0000
0000
2000
0000
0000
0000
0010
0000
0000
0010
0000
0000
0010
0000
0000
3010
0000
0000
1010
0000
0000
0000
,  // measure 72
0021
0000
0000
0001
0000
0000
0001
0000
0000
0031
0000
0000
0011
0000
0000
0000
0001
0000
0010
0000
0100
0000
1000
0000
0001
0000
0010
0000
0001
0000
0000
0000
,  // measure 73
1001
0000
0000
0000
1000
0000
0000
0000
1001
0000
0000
0000
0001
0000
0000
0000
0200
0000
0000
0010
0000
0000
0010
0000
0000
0310
0000
0000
2010
0000
0000
0000
,  // measure 74
3200
0000
0000
0010
0000
0000
0010
0000
0000
0310
0000
0000
0012
0000
0000
0000
0203
0000
0000
0010
0000
0000
0010
0000
0000
0010
0000
0000
0310
0000
0000
0000
,  // measure 75
1001
0000
0000
0000
0001
0000
0000
0000
1001
0000
0000
0000
2000
0000
0000
0000
0010
0000
0000
0100
0000
0000
0010
0000
0000
0100
0000
0000
3002
0000
0000
0000
,  // measure 76
0010
0000
0000
0100
0000
0000
0010
0000
0000
0100
0000
0000
2003
0000
0000
0000
0200
0000
3000
0000
0020
0000
0300
0000
0031
0000
1000
0000
0001
0000
1000
0000
,  // measure 77
1001
0000
0000
0000
;

//---------------dance-single - ----------------
#NOTES:
     dance-single:
     :
     Hard:
     17:
     0.867156,1.363505,0.403575,0.238850,0.914220,737.000000,688.000000,49.000000,29.000000,0.000000,0.000000,0.867156,1.363505,0.403575,0.238850,0.914220,737.000000,688.000000,49.000000,29.000000,0.000000,0.000000:
// measure 0
0000
0000
0000
0000
,  // measure 1
0000
0000
0000
0000
,  // measure 2
0000
0000
0000
0000
,  // measure 3
0000
0000
0000
0000
,  // measure 4
0000
0000
0000
0000
,  // measure 5
0001
0000
0100
0010
0200
0000
0000
0000
,  // measure 6
1300
0000
0000
0000
0100
0000
0010
0100
0001
0000
0000
0000
0000
0000
0000
0000
,  // measure 7
0200
0000
0320
0000
0031
0010
1000
0001
,  // measure 8
2000
0000
0000
0000
0200
0000
0000
3300
,  // measure 9
1001
0000
1000
0000
0010
1000
0000
1000
0100
0010
0000
0100
0000
0100
1000
0000
,  // measure 10
1001
0000
1000
0000
0001
0100
0000
0100
0010
1000
0000
0001
0000
0001
0010
0000
,  // measure 11
0011
0000
0010
0000
0100
0010
0000
0010
0001
1000
0000
0010
0000
0010
0100
0000
,  // measure 12
1001
0000
1000
0000
0001
0100
0000
0100
0001
1000
0000
0100
0000
0100
0010
0000
,  // measure 13
0001
0010
0100
1000
0010
0001
0010
1000
,  // measure 14
0001
0010
0100
0001
0100
1000
0001
0100
,  // measure 15
0001
1000
0001
1000
0010
1000
0010
1000
0010
0100
0010
0100
0001
0100
0001
0100
,  // measure 16
0001
0000
1001
1000
0000
1100
0000
0000
,  // measure 17
1002
0000
0000
0000
0103
0000
0001
0000
1000
0000
0000
0100
1000
0000
0001
0000
,  // measure 18
0200
0000
0000
0000
1300
0000
0100
0000
0001
0000
1000
0000
0100
0010
0001
1000
,  // measure 19
0020
0000
0000
0000
0031
0000
0010
0000
1000
0000
0000
0010
0100
0000
0001
0000
,  // measure 20
0020
0000
0000
0000
1030
0000
0010
0000
0001
0000
0001
0000
1000
0001
0100
0010
,  // measure 21
0200
0000
0000
0000
1300
0000
0100
0000
0001
0000
0000
0100
0010
0000
1000
0000
,  // measure 22
0200
0000
0000
0000
0301
0000
0100
0000
1000
0000
0001
0000
1000
0001
1000
0100
,  // measure 23
0020
0000
0000
0000
1030
0000
0010
0000
0001
0000
0000
0100
0010
0000
0100
0000
,  // measure 24
1001
0000
0000
0000
0000
0000
0100
0000
0000
0000
0000
0000
0100
0000
0000
0000
0000
0000
0100
0000
0000
0000
0000
0000
1000
0000
0000
0001
0000
0000
0100
0000
0001
0000
0100
0000
0001
0000
0000
0000
0000
0000
1000
0000
0000
0000
0000
0000
,  // measure 25
1001
0000
0000
0010
0001
0000
1000
0000
0001
0000
0000
0010
0100
0000
1000
0000
,  // measure 26
0001
0000
0000
0010
1000
0000
0010
0000
0001
0000
0001
0000
1000
0010
0100
0001
,  // measure 27
1000
0000
0000
0010
0100
0000
0010
0000
0001
0000
0000
0010
1000
0000
0001
0000
,  // measure 28
1000
0000
0000
0000
0000
0000
0000
0000
0000
0000
0000
0000
1100
0000
0000
0000
0000
0000
1000
0000
0001
0000
1000
0000
0001
0000
0000
0000
0100
0000
0000
0000
0010
0000
0000
0000
1000
0000
0000
0000
0000
0000
0100
0000
0000
0001
0000
0000
,  // measure 29
0100
0000
0000
0100
1000
0000
0001
0000
0100
0000
0000
0100
0010
0000
1000
0000
,  // measure 30
0100
0000
0000
0100
0001
0000
0100
0000
1000
0000
0001
0000
0100
0001
1000
0100
,  // measure 31
0010
0000
0000
0010
0001
0000
1000
0000
1001
0000
0000
0000
0110
0000
0000
0000
,  // measure 32
1020
0000
1030
0001
0101
0000
0010
0000
1001
0000
0100
1000
1100
1000
0001
0100
,  // measure 33
0101
0000
0000
0001
0000
0000
0010
0000
0000
0100
0000
0000
1100
0000
0000
1000
0000
0000
0001
0000
0000
0100
0000
0000
1001
0000
0000
0001
0000
0000
0100
0000
0000
0000
0100
0000
1000
0000
0100
0000
0001
0000
1000
0000
0000
0000
1000
0000
,  // measure 34
0010
0000
0000
0000
0000
0000
0000
0000
0100
0000
0000
0000
0000
0000
0000
0000
1000
0000
0000
0000
0000
0000
0000
0000
0100
0000
0000
0000
0000
0000
0000
0000
0000
0000
0000
0000
0000
0000
0000
0000
0100
0000
0000
0000
0000
0000
0000
0000
0001
0000
0000
0000
0000
0000
0000
0000
1000
0000
0000
0000
0000
0000
0000
0000
0010
0000
0000
0000
0000
0000
0000
0000
1000
0000
0000
0000
0000
0000
0000
0000
0000
0000
0000
0000
0000
0000
0000
0000
0000
0000
0000
0000
0000
0000
0000
0000
1001
0000
0000
0000
0000
0000
0000
0000
0000
0000
0000
0000
0000
0000
0000
0000
0000
0000
0000
0000
0000
0000
0000
0000
0100
0000
0000
0000
0000
0000
0000
0000
0000
0000
0000
0000
0000
0000
0000
0000
0000
0000
1000
0000
0000
0000
0000
0000
0001
0000
0000
0000
0000
0000
0000
0000
0000
0000
0000
0000
0100
0000
0000
0000
0000
0000
0000
0000
0000
0000
0000
0000
0000
0000
0000
0000
0000
0000
0100
0000
0000
0000
0000
0000
0000
0000
0000
0000
0000
0000
0000
0000
0000
0000
0000
0000
,  // measure 35
1001
0000
0000
0010
0000
0000
0010
0000
0110
0000
0000
1000
0000
0000
0010
0000
1001
0000
0100
0000
0001
0000
0000
0001
0100
0000
0010
0000
0000
1000
0000
0000
,  // measure 36
2001
0000
0000
3000
0000
0000
1100
0000
0000
0100
1000
0100
1000
0000
0000
2002
0000
0000
0000
0000
0000
3003
0000
0000
,  // measure 37
0110
0000
0000
0100
0001
0000
1000
0000
0001
0010
0100
0000
0010
0000
0001
0000
,  // measure 38
1000
0100
0000
0100
0001
0000
0100
0000
1000
0001
0100
0000
0010
0000
0100
0000
,  // measure 39
0001
0000
0000
0010
0100
0000
1000
0000
0010
0000
0000
0100
0010
0000
0001
0000
,  // measure 40
0010
0000
0000
0010
1000
0000
0001
0000
0100
0000
0000
0100
0001
1000
0001
0010
,  // measure 41
0100
0000
0000
0100
1000
0000
0001
0000
0100
0001
1000
0000
0100
0000
1000
0000
,  // measure 42
0001
0100
0000
0100
1000
0000
0100
0000
0001
1000
0010
0000
0100
0000
0001
0000
,  // measure 43
1000
0000
0000
0100
0010
0000
0001
0000
0100
0000
0000
0100
0010
0000
1000
0000
,  // measure 44
0001
0000
0000
0001
0100
0000
0001
0000
1000
0000
0000
1000
0100
0010
0001
1000
,  // measure 45
0001
0001
0010
0010
,  // measure 46
1000
1000
0100
0100
,  // measure 47
0001
0001
0010
0010
,  // measure 48
1000
1000
0100
0100
,  // measure 49
0010
1000
0100
1000
0010
0100
0001
0010
,  // measure 50
1000
0010
0001
1000
0100
0001
0100
1000
,  // measure 51
0100
1000
0100
1000
0001
1000
0001
1000
0001
0100
0001
0100
0001
1000
0001
1000
,  // measure 52
0200
0001
0310
1001
,  // measure 53
1000
0000
0001
0100
0001
0000
0010
0000
0001
0000
1000
0100
1000
0000
0010
0000
,  // measure 54
0100
0000
0001
0100
0001
0000
0010
0000
0100
0000
1000
0100
1000
0000
0010
0000
,  // measure 55
0001
0000
0010
1000
0010
0000
0100
0000
1000
0000
0100
0001
0100
0000
0010
0000
,  // measure 56
1000
0000
0100
0010
0100
0000
0001
0000
1000
0000
0010
0100
0010
0000
0010
0000
,  // measure 57
0001
0000
0010
0100
1000
0000
0010
0000
1000
0000
0010
0100
0001
0000
0010
0000
,  // measure 58
0001
0000
0010
0100
1000
0000
0010
0000
0100
0000
0010
0100
0001
0000
1000
0000
,  // measure 59
0010
0000
0100
1000
0100
0000
0010
0000
0100
0000
0010
1000
0010
0000
1000
0000
,  // measure 60
0100
0000
0010
1000
0010
0000
0001
0000
1000
0000
1000
0000
0000
0000
0000
0000
,  // measure 61
1010
0000
0010
1000
0010
0000
0000
0000
0101
0000
0001
0100
0001
0000
0000
0000
,  // measure 62
1100
0000
0100
1000
0100
0000
0000
0000
0011
0000
0001
0010
0001
0000
0000
0000
,  // measure 63
1100
0000
1000
0100
1000
0000
0000
0000
0011
0000
0010
0001
0010
0000
0000
0000
,  // measure 64
1010
0000
1000
0010
1000
0000
0000
0000
0101
0000
0100
0001
0100
0000
0001
0000
,  // measure 65
1000
0010
0100
0010
1000
0001
0100
0001
,  // measure 66
0001
0010
0100
0010
0001
1000
0100
1000
,  // measure 67
1000
0000
0010
0100
0010
0000
0001
0000
0001
0000
0010
0100
0010
0000
1000
0000
,  // measure 68
2000
0000
0000
0000
0000
0000
0000
3000
2001
0000
0000
0000
3100
0000
0000
0000
,  // measure 69
1000
0000
0000
0000
0010
0000
0000
0000
1100
0000
0000
0000
0001
0000
0000
0000
1000
0100
1000
0100
0010
0100
0010
0001
0010
0001
2000
0000
0100
0000
0000
0000
,  // measure 70
3001
0100
0001
0100
0010
0100
0010
1000
0010
1000
0002
0000
0100
0000
0000
0000
2003
0000
0000
0000
0100
0000
3100
0000
0101
0000
0100
0000
1000
0000
0000
0000
,  // measure 71
0020
0000
0000
0000
0000
0000
0030
0000
1001
0000
0000
0000
1000
0000
0000
0000
0001
0010
0001
0010
0100
0010
0100
1000
0100
1000
0002
0000
0010
0000
0000
0000
,  // measure 72
1003
0010
1000
0010
0100
0010
0100
0001
0100
0001
2000
0000
0010
0000
0000
0000
3001
0000
0000
0000
0001
0000
0000
0000
1001
0000
1000
0000
0001
0000
0100
0000
,  // measure 73
0001
0000
0000
0000
0010
0000
0000
0000
0101
0000
0000
0000
1000
0000
0000
0000
0010
1000
0001
0010
0001
1000
0010
1000
0001
0010
0002
0000
1000
0000
0000
0000
,  // measure 74
0103
0001
1000
0100
1000
0001
0100
0001
1000
0100
2000
0000
0001
0000
0000
0000
3010
1000
0001
0010
0001
1000
0010
1000
0001
0000
0000
0000
0101
0000
0000
0000
,  // measure 75
1000
0000
0000
0000
0001
0000
0000
0000
0110
0000
0000
0000
1000
0000
0000
0000
0001
0010
0100
0001
0100
0010
0001
0010
0100
0001
0200
0000
0010
0000
0000
0000
,  // measure 76
1300
0010
0100
1000
0100
0010
1000
0010
0100
1000
0200
0000
0010
0000
0000
0000
0301
0000
0000
0000
0000
0000
0000
0000
1010
0000
0110
0000
0011
0000
1001
0000
,  // measure 77
1100
0000
0000
0000
;
