#VERSION:0.83;
#TITLE:Lost & Found;
#SUBTITLE:;
#ARTIST:AlunaGeorge;
#TITLETRANSLIT:;
#SUBTITLETRANSLIT:;
#ARTISTTRANSLIT:;
#GENRE:;
#ORIGIN:;
#CREDIT:;
#BANNER:banner.png;
#BACKGROUND:Lost & Found-bg.png;
#PREVIEWVID:;
#JACKET:jacket.png;
#CDIMAGE:;
#DISCIMAGE:;
#LYRICSPATH:;
#CDTITLE:;
#MUSIC:Lost & Found.ogg;
#OFFSET:1.571000;
#SAMPLESTART:71.453362;
#SAMPLELENGTH:13.700010;
#SELECTABLE:YES;
#BPMS:0.000=138.000;
#STOPS:;
#DELAYS:;
#WARPS:;
#TIMESIGNATURES:0.000=4=4;
#TICKCOUNTS:0.000=4;
#COMBOS:0.000=1;
#SPEEDS:0.000=1.000=0.000=0;
#SCROLLS:0.000=0.500,
68.000=1.000,
164.000=0.500,
168.000=1.000;
#FAKES:;
#LABELS:0.000=Song Start;
#BGCHANGES:;
#KEYSOUNDS:;
#ATTACKS:
;

//---------------dance-single - ----------------
#NOTEDATA:;
#CHARTNAME:;
#STEPSTYPE:dance-single;
#DESCRIPTION:;
#CHARTSTYLE:;
#DIFFICULTY:Beginner;
#METER:3;
#RADARVALUES:0.116318,0.141729,0.000000,0.000000,0.000000,107.000000,107.000000,0.000000,0.000000,0.000000,0.000000,0.000000,0.000000,0.000000,0.116318,0.141729,0.000000,0.000000,0.000000,107.000000,107.000000,0.000000,0.000000,0.000000,0.000000,0.000000,0.000000,0.000000;
#CREDIT:Venomothim;
#NOTES:
0000
0000
0000
0000
,
0000
0000
0000
0000
,
0000
0000
0000
0000
,
0000
0000
0000
0000
,
0000
0000
0000
0000
,
0000
0000
0000
0000
,
0000
0000
0000
0000
,
0000
0000
0000
0000
,
0000
0000
0000
0000
,
1000
0000
0000
0000
,
0100
0000
0000
0000
,
0010
0000
0000
0000
,
0001
0000
0000
0000
,
1000
0000
0000
0000
,
0010
0000
0000
0000
,
0100
0000
0000
0000
,
0001
0000
0000
0000
,
1000
0000
1000
0000
,
0001
0000
0001
0000
,
0000
0100
0000
0100
,
0000
0010
0000
0010
,
0010
0000
0010
0000
,
1000
0000
1000
0000
,
0000
0100
0000
0100
,
0000
0010
0000
0010
,
0000
0000
0001
0001
,
0000
0000
1000
1000
,
0000
0000
0010
0000
,
0100
0000
0001
0000
,
0000
0000
0010
0010
,
0000
0000
0100
0100
,
0000
0000
1000
0000
,
0001
0000
0001
0000
,
0000
1000
0000
1000
,
0000
0010
0000
0010
,
0010
0000
0100
0000
,
0100
0000
0001
0000
,
0000
0001
0000
0001
,
0000
0010
0000
0010
,
0010
0000
0010
0000
,
0100
0000
0100
0000
,
0000
0000
0000
0000
,
1000
0000
1000
0000
,
0010
0000
0010
0000
,
0100
0000
0100
0000
,
0001
0000
0000
0000
,
0001
0000
0001
0000
,
0010
0000
0010
0000
,
0100
0000
0100
0000
,
1000
0000
0000
0000
,
0001
0000
0001
0000
,
1000
0000
0000
0000
,
1000
0000
1000
0000
,
0001
0000
0000
0000
,
1000
0000
1000
0000
,
0010
0000
0010
0000
,
0100
0000
0100
0000
,
0001
0000
0001
0000
,
1000
0000
0001
0000
,
1000
0000
1000
0000
,
0100
0000
0100
0000
,
0010
0000
0000
0000
,
0010
0000
0000
0000
,
0001
0000
0001
0000
,
0100
0000
0100
0000
,
0010
0000
0000
0000
,
0010
0000
0000
0000
,
1000
0000
1000
0000
,
0001
0000
0001
0000
,
0100
0000
0000
0000
,
0100
0000
0000
0000
,
0001
0000
0000
0000
,
1000
0000
0000
0000
,
0100
0000
0000
0000
,
0010
0000
0010
0000
;

//---------------dance-single - ----------------
#NOTEDATA:;
#CHARTNAME:;
#STEPSTYPE:dance-single;
#DESCRIPTION:;
#CHARTSTYLE:;
#DIFFICULTY:Easy;
#METER:5;
#RADARVALUES:0.240246,0.425186,0.121754,0.045658,0.000000,221.000000,205.000000,16.000000,6.000000,0.000000,0.000000,0.000000,0.000000,0.000000,0.240246,0.425186,0.121754,0.045658,0.000000,221.000000,205.000000,16.000000,6.000000,0.000000,0.000000,0.000000,0.000000,0.000000;
#CREDIT:Venomothim;
#NOTES:
// measure 0
0000
0000
0000
0000
,  // measure 1
0000
0000
0000
0000
,  // measure 2
0000
0000
0000
0000
,  // measure 3
0000
0000
0000
0000
,  // measure 4
0000
0000
0000
0000
,  // measure 5
0000
0000
0000
0000
,  // measure 6
0000
0000
0000
0000
,  // measure 7
0000
0000
0000
0000
,  // measure 8
0000
0000
0000
0000
,  // measure 9
1000
0000
1000
0000
,  // measure 10
0100
0000
0100
0000
,  // measure 11
0010
0000
0010
0000
,  // measure 12
0001
0000
0001
0000
,  // measure 13
1000
0000
0001
0000
,  // measure 14
0100
0000
0010
0000
,  // measure 15
1000
0000
0001
0000
,  // measure 16
1000
0000
0100
0100
,  // measure 17
0010
0010
0001
0001
,  // measure 18
0100
0100
0010
0010
,  // measure 19
0000
1000
0001
0100
,  // measure 20
0000
0001
1000
0100
,  // measure 21
1000
1000
0010
0010
,  // measure 22
0100
0100
0001
0001
,  // measure 23
0000
1000
0001
0010
,  // measure 24
0000
0001
1000
0010
,  // measure 25
0000
1000
0100
0020
,  // measure 26
0030
0001
0100
0020
,  // measure 27
0030
1000
0100
1000
,  // measure 28
0001
0100
0010
0000
,  // measure 29
0100
0001
0010
0020
,  // measure 30
0030
0100
1000
0020
,  // measure 31
0030
1000
0100
0010
,  // measure 32
0001
0001
1000
0000
,  // measure 33
0001
0100
0001
0101
,  // measure 34
1000
0100
1000
1100
,  // measure 35
1000
0010
1000
1000
,  // measure 36
0100
0010
0001
0000
,  // measure 37
0001
0010
0001
0011
,  // measure 38
1000
0010
1000
1010
,  // measure 39
1000
0100
0010
0001
,  // measure 40
0100
0010
1000
0000
,  // measure 41
0000
0100
0100
0100
,  // measure 42
0010
0001
0010
0001
,  // measure 43
0100
0100
0100
0000
,  // measure 44
0010
1000
1100
0000
,  // measure 45
0010
0001
0101
0000
,  // measure 46
0010
1000
0010
1000
,  // measure 47
0100
0100
0100
0000
,  // measure 48
1000
0001
0011
0000
,  // measure 49
0001
1000
1010
0000
,  // measure 50
1000
0100
0010
0001
,  // measure 51
0200
0010
0310
0000
,  // measure 52
0100
0001
0010
0100
,  // measure 53
2000
0001
3001
0000
,  // measure 54
1000
0100
0010
0001
,  // measure 55
1000
1000
1000
0000
,  // measure 56
0001
1000
1010
0000
,  // measure 57
1000
0001
1001
1001
,  // measure 58
1001
1001
1001
1001
,  // measure 59
1000
1000
0001
0001
,  // measure 60
0100
0100
0010
0010
,  // measure 61
0000
0100
0001
0001
,  // measure 62
0000
0100
0010
0010
,  // measure 63
1000
1000
0100
0100
,  // measure 64
0010
0010
0001
0001
,  // measure 65
0000
1000
0100
0100
,  // measure 66
0000
1000
0010
0010
,  // measure 67
1000
0000
1000
0000
,  // measure 68
0100
0000
0100
0000
,  // measure 69
0010
0000
0010
0000
,  // measure 70
0001
0000
0001
0000
,  // measure 71
0100
0000
0010
0000
,  // measure 72
0100
0000
0001
0000
,  // measure 73
1000
0000
0100
0000
,  // measure 74
0010
0000
1001
0000
;

//---------------dance-single - ----------------
#NOTEDATA:;
#CHARTNAME:;
#STEPSTYPE:dance-single;
#DESCRIPTION:;
#CHARTSTYLE:;
#DIFFICULTY:Medium;
#METER:9;
#RADARVALUES:0.352216,0.453532,0.076096,0.076096,0.034243,324.000000,314.000000,10.000000,10.000000,0.000000,0.000000,0.000000,0.000000,0.000000,0.352216,0.453532,0.076096,0.076096,0.034243,324.000000,314.000000,10.000000,10.000000,0.000000,0.000000,0.000000,0.000000,0.000000;
#CREDIT:Venomothim;
#NOTES:
0000
0000
0000
0000
,
0000
0000
0000
0000
,
0000
0000
0000
0000
,
0000
0000
0000
0000
,
0000
0000
0000
0000
,
0000
0000
0000
0000
,
0000
0000
0000
0000
,
0000
0000
0000
0000
,
0000
0000
0000
0000
,
1000
1000
0000
0000
1000
0000
0000
0000
,
0001
0000
0001
0000
0000
0001
0000
0000
0001
0000
0000
0000
0000
0000
0000
0000
,
0100
0000
0100
0000
0000
0100
0000
0000
0100
0000
0000
0000
0000
0000
0000
0000
,
0010
0020
0000
0030
0010
0000
0000
0000
,
1000
1000
0000
0000
1000
0000
0000
0000
,
0100
0000
0100
0000
0000
0100
0000
0000
0100
0000
0000
0000
0000
0000
0000
0000
,
0010
0010
0000
0000
0010
0000
0000
0000
,
0001
0002
0000
0000
1000
0000
1003
0000
,
1000
0100
1000
0000
0001
0100
0001
0000
,
1000
0010
1000
0000
0001
0010
0001
0000
,
0000
0100
0100
0000
0010
0000
0010
0000
,
0000
1000
1000
0000
0001
0000
0001
0000
,
1000
0010
1000
0000
0001
0010
0001
0000
,
1000
0100
1000
0000
0001
0100
0001
0000
,
0000
1000
1000
0000
0001
0000
0001
0000
,
0000
0100
0100
0000
0010
0000
0010
0000
,
1000
0000
0100
1000
0010
0000
0010
0000
,
0100
0000
0001
0010
0001
0000
0001
0000
,
0100
0000
0010
1000
0001
0000
0001
0000
,
1000
0000
0100
1000
0000
0000
1000
0000
,
0001
0000
0010
0001
0100
0001
0010
0000
,
0100
0000
1000
0010
1000
0100
1000
0000
,
0001
0000
0100
0010
1000
0000
1000
0000
,
0001
0001
0100
0100
,
0001
0000
1000
0000
0100
0100
0100
0000
,
1000
0000
0001
0000
0100
0100
0100
0000
,
0001
0010
0001
0000
1000
0000
0010
1000
,
0010
0100
0001
0001
,
1000
0000
0100
0000
1000
1000
1000
0000
,
0001
0000
0100
0000
0001
0001
0001
0000
,
0010
0001
1000
0000
0010
0000
1000
0001
,
0010
0001
0100
0100
,
0000
0010
0010
0000
0010
0000
0010
0000
,
1000
0100
1000
0000
0001
0100
0001
0000
,
0100
0000
0000
0100
0000
0000
0200
0000
0000
0000
0300
0000
0010
0000
0000
0000
,
0100
0001
0010
0000
0001
0000
0001
0000
,
0100
0010
1000
0000
0100
0000
0100
0000
,
1000
0001
0010
0000
0001
1000
0010
0000
,
0100
0000
0000
0100
0000
0000
0200
0000
0000
0000
0300
0000
0001
0000
0000
0000
,
1000
0100
1000
0000
0010
0000
0010
0000
,
0100
0001
0100
0000
0001
0000
0001
0000
,
1000
0100
0010
0000
0001
0100
0010
0000
,
1000
0000
0000
1000
0000
0000
0002
0000
0000
0000
0000
0000
0103
0000
0000
0000
,
0001
0010
0001
0000
0100
0010
0100
0000
,
0020
2030
3002
0103
,
0001
0010
0001
0000
1000
0100
1000
0000
,
0010
0000
0000
0010
0000
0000
0020
0000
0000
0000
0030
0000
0010
0000
0000
0000
,
0100
0001
0010
0000
0100
0000
0100
0000
,
0010
0001
0100
0000
0110
0000
1010
0000
,
0110
0101
1001
1001
,
1000
0100
1000
0000
0001
0010
0001
0000
,
1000
0010
1000
0000
0001
0100
0001
0000
,
0010
0010
0010
0000
0100
0000
1000
0000
,
0010
0010
0010
0000
0100
0000
0001
0000
,
1000
0100
1000
0000
0001
0010
0001
0000
,
1000
0010
1000
0000
0001
0100
0001
0000
,
0100
0100
0100
0000
0010
0000
1000
0000
,
0100
0100
0100
0000
0010
0000
0001
0000
,
1000
0100
1000
0000
0010
0000
0101
0000
,
0001
0010
0001
0000
0100
0000
1010
0000
,
1000
0100
0010
0000
0001
0000
1100
0000
,
0001
0100
0010
0000
1000
0000
0101
0000
,
0001
0001
0000
0000
0001
0000
0000
0000
,
0100
0000
0100
0000
0000
0100
0000
0000
0100
0000
0000
0000
0000
0000
0000
0000
,
0010
0000
0010
0000
0000
0010
0000
0000
0010
0000
0000
0000
0000
0000
0000
0000
,
1000
2000
0000
0000
3001
0000
0000
0000
;

//---------------dance-single - ----------------
#NOTEDATA:;
#CHARTNAME:;
#STEPSTYPE:dance-single;
#DESCRIPTION:;
#CHARTSTYLE:;
#DIFFICULTY:Hard;
#METER:13;
#RADARVALUES:0.491363,0.595261,0.167411,0.136973,0.296774,452.000000,430.000000,22.000000,18.000000,0.000000,0.000000,0.000000,0.000000,0.000000,0.491363,0.595261,0.167411,0.136973,0.296774,452.000000,430.000000,22.000000,18.000000,0.000000,0.000000,0.000000,0.000000,0.000000;
#CREDIT:Venomothim;
#NOTES:
0000
0000
0000
0000
,
0000
0000
0000
0000
,
0000
0000
0000
0000
,
0000
0000
0000
0000
,
0000
0000
0000
0000
,
0000
0000
0000
0000
,
0000
0000
0000
0000
,
0000
0000
0000
0000
,
0000
0000
0000
0000
,
1000
1000
0000
0000
2000
0000
3000
0000
,
0001
0000
0001
0000
0000
0001
0000
0000
0002
0000
0000
0000
0003
0000
0000
0000
,
0100
0000
0100
0000
0000
0010
0000
0100
0020
0000
0000
0000
0030
0000
0000
0000
,
1000
0000
0001
1000
0001
1000
0001
1000
0002
0000
0000
0000
0003
0000
0000
0000
,
0010
0010
0000
0000
0020
0000
0030
0000
,
0001
0000
0001
0000
0000
0001
0000
0000
0002
0000
0000
0000
0003
0000
0000
0000
,
0100
0000
0100
0000
0000
0010
0000
0100
0020
0000
0000
0000
0030
0000
0000
0000
,
1000
0000
0001
1000
0001
1000
0001
1000
0100
0000
0000
0000
0100
0000
0000
0000
,
1001
0001
0010
0100
1000
0001
0010
0100
,
1000
0001
0010
0100
1000
1000
0001
0001
,
1000
0000
0000
0100
0000
0000
0001
0000
0100
0000
0000
0000
0010
0000
0000
0000
0000
0000
0010
0000
0000
0000
0000
0000
,
0001
0000
0000
0100
0000
0000
1000
0000
0100
0000
0000
0000
0010
0000
0000
0000
0000
0000
0010
0000
0000
0000
0000
0000
,
1001
1000
0010
0100
0001
1000
0010
0100
,
0001
1000
0010
0100
0001
0001
1000
1000
,
0001
0000
0000
0010
0000
0000
1000
0000
0010
0000
0000
0000
0100
0000
0000
0000
0000
0000
0100
0000
0000
0000
0000
0000
,
1000
0000
0000
0010
0000
0000
0001
0000
0010
0000
0000
0000
0100
0000
0000
0000
0000
0000
0100
0000
0000
0000
0000
0000
,
0000
0001
0100
1000
0100
0001
0100
0001
,
0000
1000
0100
0001
0100
1000
0100
1000
,
0000
0001
0010
1000
0010
0001
1000
0000
,
0010
0100
0010
0100
0001
0000
0001
0000
,
0000
1000
0100
0010
1000
0010
0100
1000
,
0000
0001
0100
0010
0001
0010
0100
0001
,
0000
1000
0100
0010
0001
0100
0010
0000
,
0100
0001
0010
0100
1000
0000
1000
0000
,
0001
0000
0100
0010
0100
0000
0001
0010
0100
0000
0010
0001
0000
0001
0000
0000
,
1000
0000
0010
0100
0010
0000
1000
0100
0010
0000
0100
1000
0000
1000
0000
0000
,
0001
0100
0010
1000
0100
0000
0100
1000
,
0010
0100
0001
1000
0100
0000
0100
0000
,
1000
0000
0001
0010
0100
0000
0001
0100
0010
0000
0001
1000
0000
1000
0000
0000
,
0001
0000
1000
0010
0100
0000
1000
0100
0010
0000
1000
0001
0000
0001
0000
0000
,
1000
0100
0010
0001
0100
0000
0010
0100
,
0001
0001
1000
1000
0100
0000
0100
0000
,
0000
0000
0000
0020
0000
0000
0001
0000
0001
0000
0000
0000
0001
0000
0000
0000
0000
0000
0031
0000
0000
0000
0000
0000
,
1001
0001
0010
0100
1000
0001
0010
0100
,
1000
0000
0000
1000
0000
0000
0001
0000
0000
0000
0001
0000
1000
0010
0000
0001
,
0000
0010
0000
0100
0000
0001
1000
0000
1000
0000
0000
0000
0001
0010
0000
1000
,
0000
0010
0000
0100
0000
1000
0001
0000
1010
0000
0000
0000
0101
0000
0000
0000
,
1001
1000
0010
0100
0001
1000
0010
0100
,
0001
0000
0000
0001
0000
0000
1000
0000
0000
0000
1000
0000
0001
0100
0000
1000
,
0000
0100
0000
0010
0000
1000
0001
0000
0001
0000
0000
0000
1000
0100
0000
0001
,
0000
0100
0000
0010
0000
0001
1000
0000
0011
0000
0000
0000
1100
0000
0000
0000
,
1001
1000
0100
0010
0001
1000
0100
0010
,
0002
0000
0000
0100
0000
0000
0010
0000
0000
0100
0000
0000
1003
0000
0000
0000
,
0001
0100
0010
1000
0100
0010
0001
0000
,
0200
1000
0002
0303
,
1001
1000
0010
0100
0001
1000
0010
0100
,
0001
0000
0000
0001
0000
0000
1000
0000
0000
0000
1000
0000
0001
0010
0000
1000
,
0000
0010
0000
0100
0000
1000
0001
0000
0001
0000
0000
0000
1000
0010
0000
0001
,
0000
0010
0000
1000
0000
0001
1000
0000
1010
0000
0000
0000
0101
0000
0000
0000
,
0011
1100
0110
0110
,
1001
0001
0010
0100
1000
0001
0010
0100
,
1000
0001
0010
0100
1000
1000
0001
0001
,
1000
0000
0000
0010
0000
0000
0001
0000
0010
0000
0000
0000
0100
0000
0000
0000
0000
0000
0100
0000
0000
0000
0000
0000
,
0001
0000
0000
0010
0000
0000
1000
0000
0010
0000
0000
0000
0100
0000
0000
0000
0000
0000
0100
0000
0000
0000
0000
0000
,
1001
1000
0010
0100
0001
1000
0010
0100
,
0001
1000
0010
0100
0001
0001
1000
1000
,
0001
0000
0000
0100
0000
0000
1000
0000
0100
0000
0000
0000
0010
0000
0000
0000
0000
0000
0010
0000
0000
0000
0000
0000
,
1000
0000
0000
0100
0000
0000
0001
0000
0100
0000
0000
0000
0010
0000
0000
0000
0000
0000
0010
0000
0000
0000
0000
0000
,
0001
0200
1000
0000
0310
0000
0110
0000
,
1000
0200
0001
0000
0310
0000
0110
0000
,
0001
2000
0100
0000
3001
0000
1100
0000
,
1000
0002
0100
0000
1003
0000
0101
0000
,
0001
0001
0000
0000
0020
0000
0030
0000
,
0010
0000
0010
0000
0000
0010
0000
0000
0200
0000
0000
0000
0300
0000
0000
0000
,
0100
0000
0100
0000
0000
1000
0000
0100
2000
0000
0000
0000
3000
0000
0000
0000
,
1000
0000
0010
0100
0010
0100
0010
0100
0001
0000
0000
0000
0000
0000
0000
0000
;
