#VERSION:0.83;
#TITLE:LosT;
#SUBTITLE:;
#ARTIST:BRING ME THE HORIZON;
#TITLETRANSLIT:;
#SUBTITLETRANSLIT:;
#ARTISTTRANSLIT:;
#GENRE:;
#ORIGIN:;
#CREDIT:;
#BANNER:LosT.png;
#BACKGROUND:LosT-bg.png;
#PREVIEWVID:;
#JACKET:LosT-jacket.png;
#CDIMAGE:;
#DISCIMAGE:;
#LYRICSPATH:LosT.lrc;
#CDTITLE:;
#MUSIC:LosT.ogg;
#OFFSET:-0.010000;
#SAMPLESTART:44.126957;
#SAMPLELENGTH:12.000000;
#SELECTABLE:YES;
#BPMS:0.000=185.000;
#STOPS:;
#DELAYS:;
#WARPS:;
#TIMESIGNATURES:0.000=4=4;
#TICKCOUNTS:0.000=4;
#COMBOS:0.000=1;
#SPEEDS:0.000=1.000=0.000=0;
#SCROLLS:0.000=1.000;
#FAKES:;
#LABELS:0.000=Song Start;
#BGCHANGES:0.000=LosT.mp4=1.000=0=0=0=StretchNoLoop====,
99999=-nosongbg-=1.000=0=0=0 // don't automatically add -songbackground-
;
#KEYSOUNDS:;
#ATTACKS:
;

//---------------dance-single - ----------------
#NOTEDATA:;
#CHARTNAME:;
#STEPSTYPE:dance-single;
#DESCRIPTION:;
#CHARTSTYLE:;
#DIFFICULTY:Hard;
#METER:13;
#RADARVALUES:0.683881,0.731939,0.333173,0.517294,0.061374,546.000000,508.000000,38.000000,59.000000,0.000000,0.000000,0.000000,0.000000,0.000000,0.683881,0.731939,0.333173,0.517294,0.061374,546.000000,508.000000,38.000000,59.000000,0.000000,0.000000,0.000000,0.000000,0.000000;
#CREDIT:Ben Speirs;
#NOTES:
0000
0000
0000
0000
,
0000
0000
0000
0000
,
1000
0100
1000
0100
1000
0001
1000
0001
,
0100
0010
1000
0001
0020
0000
0130
1000
,
0001
0100
0001
0100
0001
1000
0001
1000
,
0010
0100
0001
0010
0100
0000
1100
0000
,
0001
0100
0001
0100
1000
0100
1000
0100
,
0001
0010
0100
1000
0020
0000
0130
0001
,
1000
0100
1000
0100
0001
0100
0001
0100
,
1000
0010
0100
0001
0000
0000
0000
0000
,
2000
0000
3001
0100
0002
0000
0203
0000
,
0320
0000
1030
0100
0000
1000
0010
1000
,
0002
0000
1003
0100
2000
0000
3020
0000
,
0230
0000
0301
0010
0000
0001
1000
0001
,
0200
0000
0320
0000
2030
0000
3001
0010
,
0200
0000
2300
0000
3001
0100
0013
0100
,
0001
0000
1000
0100
1000
0000
0100
0010
,
0002
0000
1003
0000
0001
1000
0010
0000
,
1000
0000
0001
0100
0001
0000
1000
0100
,
2000
0000
3100
0010
0000
0010
0001
1000
,
0001
0000
1000
0010
1000
0000
0001
0010
,
0002
0000
1003
0000
0001
0100
0010
1000
,
0100
0000
1000
0010
0100
0000
0001
0010
,
0100
0000
1000
0010
0100
0001
1000
0001
,
0010
0000
0010
0000
0001
0001
0000
1000
,
1000
0000
0010
0010
0000
1000
0001
0000
,
1000
0200
0000
0301
0200
0000
1300
0020
,
0000
0031
0020
0000
1030
0000
1010
0000
,
0001
0200
0000
1300
0200
0000
0301
0020
,
0000
1030
0020
0000
0031
0000
0011
0000
,
1000
1000
0000
0001
0001
0000
1000
1100
,
0000
0001
0101
0000
1001
0000
1001
0000
,
2000
0100
3002
0010
,
1003
0010
0100
0001
0010
0100
1000
0000
,
1020
0000
0130
1000
0100
0001
0010
0000
,
0021
0000
0130
0001
0100
1000
0010
0000
,
1002
0000
0103
1000
0100
0001
1000
0000
,
2001
0000
3100
0001
0100
1000
0010
0000
,
1010
0000
0101
0000
1000
0001
0010
0000
,
0001
1000
0010
0000
1000
0100
0010
0000
,
0001
0100
0001
0100
1000
1000
0100
0001
,
1000
0100
1000
0100
0001
0001
0100
0000
,
1200
0000
0310
1000
0010
0001
0100
0000
,
0201
0000
0310
0001
0010
1000
0001
0000
,
1010
0101
0011
1100
,
0001
0010
0100
1000
0010
0100
0001
0000
,
1000
0100
0010
0000
0001
0100
0010
0000
,
1000
0010
0100
0001
0010
0100
1000
0000
,
0001
0010
0001
0010
1000
1000
0010
0001
,
1000
0010
1000
0010
0001
0001
0010
1000
,
0001
0010
0100
1000
0010
0100
0001
1000
,
0100
0100
0001
0100
0100
0010
0100
1000
,
0001
0000
0000
0000
,
0000
0000
0000
0000
0000
0000
1000
0010
,
2000
3002
0023
0030
,
0001
0010
0100
1000
0020
0000
0230
0000
,
0301
0000
0101
0000
0000
0101
0000
0000
,
1000
0000
1100
0000
0000
1100
0000
0000
,
0002
0000
2003
0000
3020
0000
0130
0100
,
0000
0000
0000
0000
,
0001
0100
0000
0000
0001
0100
0000
0000
0000
0000
0001
0000
1000
0000
0000
0000
,
1000
0100
0000
0000
0000
0000
1000
0000
0010
0000
0010
0000
0100
0000
0001
0000
,
1000
0100
0000
0000
1000
0100
0000
0000
1000
0000
0001
0000
0100
0000
0000
0000
,
0001
1000
0010
1000
0001
0010
0100
0000
,
2002
0000
0000
0000
0000
0000
3003
0000
0001
0100
0000
0000
0001
0100
0000
0000
,
0000
0001
0010
0100
2000
0000
3010
0000
,
1010
0000
0010
0110
0000
0100
0101
0000
,
0001
1000
0001
1000
0001
1000
0100
0000
0000
0110
0000
0000
,
0001
0000
1000
0000
0010
0000
1000
0000
0001
0000
0010
0100
0010
0000
0000
0000
,
0001
0010
0100
1000
1010
0000
1000
0001
,
0100
0000
0010
0000
0100
0000
0010
0000
1000
0000
0001
0100
0001
0000
0000
0000
,
1000
0100
0001
0100
2000
0000
3010
0000
,
2002
0000
0000
3003
0001
0100
0010
0100
,
0001
0000
1000
0000
0100
0000
1000
0001
1000
0000
0000
0000
0001
0000
1000
0000
,
1020
0000
0130
0001
0102
0300
1003
0100
,
0010
0100
0100
0001
0100
0100
1000
0000
,
1001
0000
0102
0000
1003
1000
0000
0001
,
0010
0100
1000
0000
1010
0000
0010
1000
,
1200
0320
0032
2003
,
3010
0100
0010
0000
1010
0000
0001
0010
,
0200
0000
1300
0000
1100
0000
0001
0100
,
0000
0100
0010
0000
1000
0001
1000
0000
,
0001
0010
0001
0010
1000
1000
0010
0001
,
1000
0010
1000
0010
0001
0001
0010
1000
,
0001
0010
0100
0010
1000
0010
0100
0010
,
0001
0100
0010
0100
1000
0100
0010
0100
,
0002
0000
0013
0100
0000
0100
2000
0000
,
3001
0000
1000
0010
0001
0010
2000
3000
;

//---------------dance-single - ----------------
#NOTEDATA:;
#CHARTNAME:;
#STEPSTYPE:dance-single;
#DESCRIPTION:;
#CHARTSTYLE:;
#DIFFICULTY:Challenge;
#METER:15;
#RADARVALUES:0.829174,0.963077,0.526062,0.464688,0.315637,662.000000,602.000000,60.000000,53.000000,0.000000,0.000000,0.000000,0.000000,0.000000,0.829174,0.963077,0.526062,0.464688,0.315637,662.000000,602.000000,60.000000,53.000000,0.000000,0.000000,0.000000,0.000000,0.000000;
#CREDIT:Ben Speirs;
#NOTES:
0000
0000
0000
0000
,
0000
0000
0000
0000
,
0001
0100
0001
0100
1000
0100
1000
0100
,
0001
0010
0100
1000
0010
0100
0110
0000
,
1000
0100
1000
0100
0001
0100
0001
0100
,
1000
0000
0010
0000
0100
0000
0001
0000
1000
0000
0001
0000
0100
0000
0010
0100
,
0010
1000
0010
0001
0010
1000
0010
0001
,
0010
1000
0100
0010
0001
0100
0110
0000
,
0001
0010
0011
0000
1000
0010
1010
0000
,
1000
0100
0010
0001
0000
0000
0000
0000
,
2000
0000
3010
0100
0002
0000
0013
0100
,
1000
0000
1010
0000
0001
0100
1000
0100
,
0002
0000
0013
0100
2000
0000
3010
0100
,
0001
0000
0000
0000
0101
0000
0000
0000
1000
0000
0001
1000
0001
0000
0100
0000
,
0020
0000
1030
0100
0020
0000
0031
1000
,
0010
0000
1001
0000
1000
0100
0001
0100
,
2000
0000
3010
0010
0100
0000
0001
1000
,
0200
0000
0000
0000
0310
0000
0001
0000
1000
0000
0010
0100
0010
0000
1000
0000
,
0001
0010
0001
0100
0001
1000
0001
0010
,
0200
0000
0310
0020
0000
0031
0100
0010
,
1000
0100
1000
0010
1000
0001
1000
0100
,
0010
0000
0002
0000
0030
0000
2003
0000
0000
0000
3310
0100
0010
0000
1000
0000
,
0001
0010
0000
0012
0000
0013
0100
1000
,
0000
1010
0000
0210
0000
0301
1000
0001
,
0010
0000
0000
0000
0010
0000
0000
0000
0001
0000
1000
0100
1000
0000
0001
0000
,
0100
0010
0100
0000
0010
0000
1000
0100
0010
0000
0001
1000
0001
0000
0000
0000
,
1100
0001
0000
0101
1000
0000
1010
0010
,
0000
0101
0200
0000
0301
0010
1000
0010
,
0011
0000
1000
0000
0000
0000
1010
0000
0001
0000
0000
0000
1000
0000
0001
0010
,
0100
1000
1020
0000
1030
0100
0001
0100
,
1100
1100
0000
0011
0011
0000
0110
0110
,
0000
1001
1001
0000
1000
0010
0001
0010
,
2000
0000
3100
0010
0002
0000
1003
0000
,
0001
0000
0100
0000
0010
0000
1000
0001
1000
0001
0010
0100
1000
0001
0100
0013
,
1000
0100
1100
0000
0001
0010
0011
0000
,
1003
0010
0100
1000
0100
0001
1001
0000
,
0001
0100
0101
0000
1000
0010
1010
0000
,
0001
0000
0100
0000
0010
0000
0001
0000
0010
0000
1000
0000
0001
0000
1000
0100
,
0020
0000
0032
0000
0100
0100
0103
0000
,
0001
0100
1000
0001
0010
1000
0001
0000
,
0001
0010
0011
0001
1000
0010
1010
0000
,
1002
0000
0000
0000
1003
0000
0100
0000
0010
0000
0001
1000
0010
0000
1000
0001
,
1000
0100
1001
0000
0001
0100
1001
0000
,
1000
0010
0001
0010
0100
0001
0101
0000
,
1000
0100
0011
0000
0001
0100
1010
0000
,
0001
0000
0100
0000
0010
0000
0010
0000
0100
0000
0001
0000
1000
0000
0001
0010
,
0200
0000
2330
0000
0010
0010
3010
0000
,
1000
0000
0100
0000
0001
0000
1000
0000
0010
0000
0001
0003
1000
0000
0001
0100
,
0010
1000
2100
0000
3001
0100
0102
0000
,
1303
0010
0001
0010
1000
0001
1001
0000
,
1000
0001
0010
0100
1000
0010
0100
0001
,
1000
0100
1000
0100
0010
0000
0001
0100
0001
0100
0010
0000
1000
0100
0010
0001
,
1000
0000
0000
0000
,
0000
0000
0000
0000
0000
0000
1000
0010
,
2000
0000
3302
0000
0023
0000
0030
0001
,
0100
0010
1000
0001
0020
0000
0230
0000
,
1300
0000
0001
0000
0000
0101
0000
0100
,
0010
0000
1010
0000
1000
0100
0010
0001
,
0200
0000
0313
0000
0320
0000
1030
0001
,
0000
0000
0000
0000
,
1000
0100
1000
0000
0001
0100
0001
0000
1000
0000
0100
0010
0001
0000
0000
0000
,
1000
0001
1000
0000
0000
0000
0001
0100
0020
0000
2030
0000
3001
0010
0001
0000
,
1000
0100
1000
0000
0100
0010
0100
0000
0010
0000
0001
1000
0010
0000
0000
0000
,
1000
0001
1000
0001
1000
0001
1000
0001
0100
0000
0010
0000
0200
0000
0300
0000
,
2002
0000
0000
0000
0000
0000
3003
0000
0001
0100
0001
0000
1000
0010
1000
0000
,
0000
0000
0001
0010
0100
0000
1030
0010
0200
0000
0302
0000
1003
0000
0010
0100
,
0010
1000
0100
0020
0000
0031
1000
0000
,
0001
0100
0010
1000
0100
0010
0001
1000
0001
0100
0000
0000
,
0001
1000
0001
0000
1000
0100
1000
0000
0001
0000
0100
0010
1000
0000
0001
0000
,
1000
0100
1000
0000
0100
0000
0010
0001
1000
0000
0010
0000
0100
0010
0100
0000
,
0001
0100
0001
0000
1000
0001
1000
0000
0001
0000
0010
0100
1000
0000
0001
0000
,
1000
0010
1000
0010
0100
0001
0100
0001
1000
0000
0001
0010
0000
0000
0000
0000
,
2002
0000
0000
0000
3003
0000
0000
0000
0001
1000
0100
0000
1000
0001
0100
0000
,
0010
0000
1000
0100
1000
0000
0001
0000
0100
0010
0100
0000
0001
0000
1000
0000
,
2100
0000
3001
0100
0102
0000
1003
0001
,
1000
0001
0100
0000
0100
0000
0001
1000
0100
0000
0100
0000
0010
0000
0000
0000
,
2100
0000
0100
0000
3001
0200
0000
0310
,
1000
0001
0010
0000
0011
0000
1000
0000
,
0201
0000
0320
0000
1030
0100
3000
0100
,
0003
0010
0010
0000
0001
1000
0001
0000
,
0101
0000
2010
0000
3001
0000
1000
0100
,
0000
0010
0001
0000
0101
0000
1031
0000
,
0001
0100
0010
0100
1000
0100
0010
1000
,
0001
0000
0010
0000
1000
0000
0010
0000
0001
0000
1000
0010
1000
0000
0001
0100
,
0001
0010
0011
0001
1000
0010
1010
0000
,
0001
0100
0101
0000
1010
0000
0110
0000
,
2001
0000
3100
0010
0000
0010
0002
0000
,
2003
0000
3001
0100
1000
0100
0002
0003
;

//---------------dance-single - ----------------
#NOTEDATA:;
#CHARTNAME:;
#STEPSTYPE:dance-single;
#DESCRIPTION:;
#CHARTSTYLE:;
#DIFFICULTY:Medium;
#METER:10;
#RADARVALUES:0.549860,0.615493,0.587436,0.718951,0.000000,439.000000,372.000000,67.000000,82.000000,0.000000,0.000000,0.000000,0.000000,0.000000,0.549860,0.615493,0.587436,0.718951,0.000000,439.000000,372.000000,67.000000,82.000000,0.000000,0.000000,0.000000,0.000000,0.000000;
#CREDIT:Ben Speirs;
#NOTES:
0000
0000
0000
0000
,
0000
0000
0000
0000
,
1001
0000
0101
0000
0100
0010
1000
0000
,
0002
0000
0023
0000
0130
1000
0001
0000
,
1001
0000
1010
0000
0010
0100
0001
0000
,
2000
0000
3200
0000
0310
0001
1000
0001
,
0200
0000
0320
0000
1030
0001
1000
0000
,
0001
0010
0100
0000
1000
0010
0100
0000
,
0101
1001
1100
1001
,
0001
0010
0100
1000
0000
0000
0000
0000
,
0002
0203
0320
2030
,
3001
0000
1000
0100
0000
0010
0001
0000
,
2000
3020
0230
0302
,
1003
0000
0001
0010
0000
0100
1000
0000
,
0002
0203
2300
3200
,
0302
0000
0023
0000
0230
0000
1300
0001
,
2000
0000
0010
0000
3010
0000
0010
0100
,
0002
0000
0010
0000
0010
0000
0013
0100
,
1000
1010
0010
0110
,
0200
0000
0301
2000
0000
0000
3010
0100
,
0001
0011
0010
0110
,
0200
0000
1300
0002
0000
0000
0103
0000
,
0001
2000
0000
3200
0000
0320
0000
0032
,
0000
0203
0000
0320
0000
2030
0000
3001
,
1000
0000
0000
0000
0101
0000
0000
1010
,
0000
0000
0110
0000
0000
0001
1000
0000
,
0001
0010
0000
0010
0100
0000
0100
1000
,
0000
1000
0010
0000
0110
0000
1001
0000
,
1000
0100
0000
0100
0010
0000
0010
0001
,
0000
0001
1000
0000
0110
0000
1001
0000
,
0001
0001
0000
1000
1000
0000
0010
0010
,
0000
0100
0100
0000
0110
0000
0110
0000
,
2001
3100
1002
0103
,
0001
1000
0001
1000
0100
0010
0001
0000
,
2200
0000
3300
0000
0100
0010
0001
0000
,
0202
0000
0303
0000
0100
0010
1000
0000
,
2020
0000
3030
0000
1000
0001
0010
0000
,
0022
0000
0033
0000
0001
1000
0020
0000
,
0230
0000
0302
0000
1003
0100
1000
0000
,
0001
0100
0001
0000
1000
0010
0100
0000
,
0101
0000
0101
0000
0001
0010
0100
0000
,
1100
0000
1100
0000
1000
0010
0100
0000
,
0202
0000
0333
0000
0100
0010
1000
0000
,
2200
0000
3330
0000
0100
0010
0001
0000
,
0011
0011
1001
1001
,
2020
0000
3330
0000
1000
0001
0200
0000
,
0320
0000
2030
0000
3001
0010
0001
0000
,
1000
0010
1000
0000
0001
0100
0010
0000
,
1010
0000
1010
0000
1000
0100
0010
0000
,
0011
0000
0011
0000
0001
0100
0010
0000
,
1000
0001
1000
0001
0100
0001
0100
0000
,
0001
1000
0001
1000
0100
1000
0200
0000
,
0310
0000
0000
0000
,
0000
0000
0000
0000
,
0001
0100
0010
0000
,
1000
0001
0100
0100
,
0000
0000
0001
0000
0000
0001
0000
0000
,
0000
0000
1000
0000
0000
1000
0000
0000
,
0001
1000
0010
0000
,
1000
0001
0100
0100
,
0110
0000
0110
0000
0000
1000
0000
0000
,
0001
0000
0000
0000
1000
0100
0010
0000
,
0011
0000
0011
0000
0000
1000
0000
0000
,
0001
0100
0001
0000
1000
0100
1000
0000
,
2002
3000
0133
0100
,
0000
0010
0000
0000
0110
0000
1000
0000
,
0101
0000
1000
0100
0000
0010
0001
0000
,
1000
0001
1000
0001
0100
0000
0100
0000
,
0002
0000
0000
0023
0000
0000
2030
0000
,
0000
3020
0000
0000
0031
0000
1000
0000
,
1010
0000
1010
0000
0001
0010
0100
0000
,
1000
0010
0100
0000
0001
0000
1000
0000
,
2002
3000
0013
0010
,
0000
0100
0000
0000
0110
0000
0100
0000
,
2200
3300
0202
0303
,
1000
1000
0000
0001
0001
0000
0100
0000
,
2002
0003
3001
0010
,
2200
3000
3310
0001
,
0201
0320
2030
3002
,
0023
0000
0130
0000
1001
0000
1000
0010
,
0100
0000
0100
0000
0101
0000
1000
0100
,
0000
0100
0010
0000
0011
0000
1000
0000
,
1010
0000
1010
0000
0010
0100
0001
0000
,
0011
0000
0011
0000
0010
0100
1000
0000
,
1001
0000
1001
0000
1000
0001
0100
0000
,
0001
1000
0100
0000
1000
0001
0010
0000
,
0002
0000
0000
2003
0000
0000
3020
0000
,
0230
0000
0301
0000
1000
0001
1000
0000
;

//---------------dance-single - ----------------
#NOTEDATA:;
#CHARTNAME:;
#STEPSTYPE:dance-single;
#DESCRIPTION:;
#CHARTSTYLE:;
#DIFFICULTY:Easy;
#METER:7;
#RADARVALUES:0.298102,0.384683,0.113980,0.236728,0.000000,238.000000,225.000000,13.000000,27.000000,0.000000,0.000000,0.000000,0.000000,0.000000,0.298102,0.384683,0.113980,0.236728,0.000000,238.000000,225.000000,13.000000,27.000000,0.000000,0.000000,0.000000,0.000000,0.000000;
#CREDIT:Ben Speirs;
#NOTES:
0000
0000
0000
0000
,
0000
0000
0000
0000
,
1000
0010
0100
0000
,
0001
0010
0100
0000
,
1000
1000
0100
0100
,
0010
0001
1000
0000
,
0001
0100
0010
0000
,
1000
0100
0010
0000
,
0001
0001
0100
0100
,
0001
1000
0000
0000
,
0001
0000
0010
0000
,
0100
1000
0100
0000
,
1000
0000
0010
0000
,
0100
0001
0100
0000
,
0001
0000
0010
0000
,
0100
1000
0001
1000
,
0100
0000
0010
0000
,
0001
0000
1000
0000
,
0001
0100
0001
0100
,
0010
0000
0010
0000
,
1000
0100
1000
0100
,
0010
0000
0010
0000
,
0001
1000
0001
0000
,
1000
0001
1000
0000
,
0001
0000
0001
0000
0100
0000
0000
0100
,
0000
0010
0000
0000
,
1000
0000
0000
0100
0000
0000
0010
0000
,
0000
0001
0000
0000
1000
0000
1000
0000
,
0001
0000
0000
0100
0000
0000
0010
0000
,
0000
1000
0000
0000
0001
0000
0001
0000
,
1000
0000
0000
0100
0000
0000
0010
0000
,
0000
0001
0000
0000
1000
0000
1000
0000
,
0002
0000
0203
0000
,
0320
0000
2030
3000
,
2002
0000
3003
0001
,
0020
0000
0030
0010
,
0200
0000
0300
0100
,
2000
0000
3000
1000
,
0001
0001
1000
1000
,
0010
0100
0001
0000
,
1000
0100
1000
0000
,
0001
0100
0001
0000
,
2002
0000
3003
1000
,
0200
0000
0300
0100
,
0010
0010
0031
1000
,
0002
0000
0003
0001
,
1000
1000
0001
0001
,
0100
0010
1000
0000
,
0001
0010
0001
0000
,
1000
0010
1000
0000
,
0001
0010
0100
1000
,
2002
0000
0000
3003
,
0001
0000
0000
0000
,
0000
0000
0000
0000
,
1000
0100
0010
0000
,
0001
0000
0100
0100
,
0000
0000
0000
0000
,
0000
0000
0000
0000
,
0001
0100
0010
0000
,
1000
0000
0100
0100
,
1001
0000
1000
0000
,
0001
1000
0010
0000
,
0100
0000
0110
0000
,
0010
0010
0100
0100
,
0002
0000
1003
0000
,
1000
0000
1001
0000
,
0001
0010
0100
0000
,
1000
0010
0100
0000
,
0001
0000
0101
0000
,
1000
0000
1100
0000
,
0001
0000
0011
0000
,
1000
0000
0001
0000
0100
0000
0010
0030
,
2002
3003
1000
0000
,
0001
0000
0101
0000
,
2000
0000
3200
0000
,
0320
0000
0031
0000
,
2002
0000
3003
0001
,
0200
0000
0300
0100
,
0010
0010
1000
1000
,
0002
0000
1003
0000
,
0001
0010
0100
0000
,
1000
0010
0100
0000
,
0010
0010
0100
0100
,
0001
0001
1000
1000
,
0001
0010
0100
2002
,
0000
0000
0000
3003
,
0001
0000
1000
0000
,
0010
0100
0001
1000
;

//---------------dance-single - ----------------
#NOTEDATA:;
#CHARTNAME:;
#STEPSTYPE:dance-single;
#DESCRIPTION:;
#CHARTSTYLE:;
#DIFFICULTY:Beginner;
#METER:3;
#RADARVALUES:0.139031,0.230152,0.026303,0.000000,0.000000,111.000000,108.000000,3.000000,0.000000,0.000000,0.000000,0.000000,0.000000,0.000000,0.139031,0.230152,0.026303,0.000000,0.000000,111.000000,108.000000,3.000000,0.000000,0.000000,0.000000,0.000000,0.000000,0.000000;
#CREDIT:Ben Speirs;
#NOTES:
0000
0000
0000
0000
,
0000
0000
0000
0000
,
0001
0000
0000
0000
,
1000
0000
0000
0000
,
0010
0000
0000
0000
,
0010
0000
0000
0000
,
1000
0000
0000
0000
,
0001
0000
0000
0000
,
0010
0000
0000
0000
,
0010
0000
0000
0000
,
0001
0000
0001
0000
,
0001
0000
0000
0000
,
1000
0000
1000
0000
,
1000
0000
0000
0000
,
0010
0000
0000
0000
,
0010
0000
0000
0000
,
0010
0000
0000
0000
,
0000
0000
0000
0000
,
1000
0000
1000
0000
,
1000
0000
0000
0000
,
0001
0000
0001
0000
,
0001
0000
0000
0000
,
0010
0000
0000
0000
,
0010
0000
0000
0000
,
0100
0000
0000
0000
,
0000
0000
0000
0000
,
1000
0000
1000
0000
,
1000
0000
0000
0000
,
0010
0000
0010
0000
,
0010
0000
0000
0000
,
0100
0000
0100
0000
,
0100
0000
0000
0000
,
0001
0000
0000
0000
,
1000
0000
0000
0000
,
1001
0000
0000
0000
,
0001
0000
0000
0000
,
0010
0000
0000
0000
,
0100
0000
0000
0000
,
1000
1000
0000
0000
,
0000
0000
0000
0000
,
0001
0001
0000
0000
,
1000
1000
0000
0000
,
1001
0000
0000
0000
,
1000
0000
0000
0000
,
0010
0000
0010
0000
,
0010
0000
0000
0000
,
0100
0100
0000
0000
,
0000
0000
0000
0000
,
0001
0001
0000
0000
,
0001
0001
0000
0000
,
1000
1000
0000
0000
,
1000
0000
0000
0000
,
0010
0000
0000
0000
,
0000
0000
0000
0000
,
1000
0000
0000
0000
,
0001
0000
0000
0000
,
0100
0000
0000
0000
,
0000
0000
0000
0000
,
0001
0000
0000
0000
,
1000
0000
0000
0000
,
0100
0100
0000
0000
,
0100
0000
0000
0000
,
0010
0010
0000
0000
,
0010
0000
0000
0000
,
0001
0000
0000
0000
,
1000
0000
0000
0000
,
0010
0000
0010
0000
,
0010
0000
0000
0000
,
1000
1000
0000
0000
,
1000
0000
0000
0000
,
0001
0001
0000
0000
,
0001
0000
0000
0000
,
0100
0000
0000
0000
,
0010
0000
0000
0000
,
0100
0000
0100
0000
,
0100
0000
0100
0000
,
1001
0000
0000
0000
,
0001
0000
0000
0000
,
0010
0000
0010
0000
,
0010
0000
0000
0000
,
0100
0100
0000
0000
,
0000
0000
0000
0000
,
1000
1000
0000
0000
,
1000
1000
0000
0000
,
0001
0001
0000
0000
,
0001
0001
0000
0000
,
0100
0000
0000
0000
,
0010
0000
0010
0000
;

//---------------dance-double - ----------------
#NOTEDATA:;
#CHARTNAME:;
#STEPSTYPE:dance-double;
#DESCRIPTION:;
#CHARTSTYLE:;
#DIFFICULTY:Challenge;
#METER:15;
#RADARVALUES:0.824164,0.924554,0.543597,0.412082,0.293718,658.000000,596.000000,62.000000,47.000000,0.000000,0.000000,0.000000,0.000000,0.000000,0.824164,0.924554,0.543597,0.412082,0.293718,658.000000,596.000000,62.000000,47.000000,0.000000,0.000000,0.000000,0.000000,0.000000;
#CREDIT:Ben Speirs;
#NOTES:
// measure 0
00000000
00000000
00000000
00000000
,  // measure 1
00000000
00000000
00000000
00000000
,  // measure 2
00010000
00001000
00000010
00001000
00010000
00001000
00000010
00001000
,  // measure 3
00010000
00100000
01000000
00010000
00100000
00001000
00011000
00000000
,  // measure 4
00001000
00010000
01000000
00010000
00001000
00010000
01000000
00010000
,  // measure 5
00001000
00000000
00000100
00000000
00000010
00000000
00001000
00000000
00000100
00000000
00010000
00000000
00001000
00000000
00100000
00010000
,  // measure 6
00100000
10000000
00100000
00010000
00100000
10000000
00100000
00010000
,  // measure 7
01000000
00100000
00010000
00001000
00000100
00000010
00001000
00000001
,  // measure 8
00000010
00001000
00000010
00000001
00000010
00001000
00000010
00000001
,  // measure 9
00000100
00001000
00010000
00000000
00000000
00000000
00000000
00000000
,  // measure 10
00002000
00000000
00013000
01000000
20000000
00000000
30100000
01000000
,  // measure 11
00010000
00000000
01010000
00000000
10000000
01000000
00100000
00001000
,  // measure 12
00020000
00000000
00031000
00000100
00000002
00000000
00000013
00000100
,  // measure 13
00001000
00000000
00000000
00000000
00001100
00000000
00000000
00000000
00000001
00000000
00001000
00000001
00001000
00000000
00000001
00000000
,  // measure 14
00000200
00000000
00002300
00000000
00023000
00000000
00130000
10000000
,  // measure 15
02000000
00000000
03020000
00000000
00031000
00100000
00010000
00100000
,  // measure 16
00002000
00000000
00013000
00000010
00000100
00000000
00000001
00001000
,  // measure 17
00000200
00000000
00000000
00000000
00010300
00000000
00000000
00000000
00001000
00000000
01000000
00010000
01000000
00000000
00010000
00000000
,  // measure 18
10000000
01000000
10000000
00010000
10000000
00100000
01000000
00000000
,  // measure 19
02010000
00000000
03031000
00020000
00000000
00030100
00000100
00000010
,  // measure 20
00000001
00001000
00000001
00000010
00000001
00000100
00000010
00000000
,  // measure 21
00001020
00000000
00000000
00000000
00013030
00000000
00002000
00000000
00000000
00000000
00103000
01000000
00100000
00000000
01000000
00000000
,  // measure 22
10000000
00100000
00000000
10200000
00000000
00310000
00000000
00021000
,  // measure 23
00000000
00031000
00000000
00002010
00000000
00003010
00000001
00001000
,  // measure 24
00000010
00000000
00000000
00000000
00000010
00000000
00000000
00000000
00001000
00000000
00000001
00000100
00000001
00000000
00001000
00000000
,  // measure 25
00000100
00010000
00000100
00000000
00010000
00000000
00001000
01000000
00001000
00000000
01000000
00000000
00100000
00000000
00000000
00000000
,  // measure 26
10100000
00010000
00030000
00110000
10000000
00000000
10010000
00010000
,  // measure 27
01000000
00100000
00020000
00003000
00031000
00000100
00000010
00000100
,  // measure 28
00000101
00000000
00001000
00000000
00000000
00000000
00001100
00000000
00000001
00000000
00000000
00000000
00000011
00000000
00000001
00001000
,  // measure 29
00000013
00000100
00002000
00000000
00013000
01000000
00100000
01000000
,  // measure 30
11000000
11000000
00000000
01010000
01010000
00000000
00011000
00011000
,  // measure 31
00000000
00001100
00001100
00000000
00000001
00000100
00001000
00000100
,  // measure 32
00000001
00000010
00000100
00001000
00000010
00000100
00000010
00010000
,  // measure 33
00010200
00000000
00000000
00000000
00010300
00000000
00001000
00010000
00001000
00010000
00001000
00100000
01000000
00000000
10000000
00000000
,  // measure 34
00010000
01000000
01010000
00000000
10000000
00100000
10100000
00000000
,  // measure 35
10000000
30000000
01000000
00000000
00010000
00000000
00001000
00000000
00000010
00000000
00000001
00000000
00001001
00000000
00000000
00000000
,  // measure 36
00000001
00000100
00000101
00000000
00001000
00000010
00001010
00000000
,  // measure 37
00000001
00000000
00000100
00000000
00001000
00000000
00010000
00000000
00100000
00000000
10000000
00000000
00010000
00000000
10000000
01000000
,  // measure 38
20000000
00000000
30020000
00003000
00100000
00100000
00130000
00000000
,  // measure 39
00010000
01000000
10000000
01000000
00010000
00100000
00101000
00000000
,  // measure 40
00100000
00001000
00010000
00001000
00000100
00000010
00000110
00000000
,  // measure 41
00002001
00000000
00000000
00000000
00003001
00000000
00000010
00000000
00001000
00000000
00000010
00000100
00000010
00000000
00000001
00001000
,  // measure 42
00000001
00000100
00001010
00000000
00001000
00000100
00000011
00000000
,  // measure 43
00000001
00000003
00000010
00000000
00001000
00000000
00010000
00000000
01000000
00000000
10000000
00000000
10010000
00000000
00000000
00000000
,  // measure 44
10000000
01000000
10010000
00000000
00010000
01000000
10010000
00000000
,  // measure 45
10000000
00000000
00100000
00000000
00010000
00000000
00001000
00000000
00000100
00000000
00000001
00000000
00001000
00000000
00000001
00000010
,  // measure 46
00000002
00000000
00002003
00030000
00000100
00000100
00003100
00000000
,  // measure 47
00001000
00000000
00000010
00000000
00000001
00000000
00000010
00000000
00001000
00000000
00000100
00000000
00010000
00000000
00001000
00010000
,  // measure 48
00001000
00100000
00110000
00010000
01000000
00001000
00011000
00000000
,  // measure 49
00010000
00000100
00001100
00001000
00000010
00010000
00011000
00000000
,  // measure 50
00001000
00010000
00100000
01000000
00010000
00100000
00001000
00010000
,  // measure 51
00000100
00010000
00000100
00010000
00001000
00000000
01000000
00001000
01000000
00001000
00010000
00000000
00001000
00010000
00001000
00010000
,  // measure 52
00001000
00000000
00000000
00000000
,  // measure 53
00000000
00000000
00000000
00000000
00000000
00000000
00001000
00010000
,  // measure 54
00200000
00000000
02300000
00000000
03200000
00000000
10300000
00010000
,  // measure 55
00100000
01000000
10000000
00100000
01000000
00000000
02000000
00000000
,  // measure 56
03001000
00000000
00011000
00000000
00000000
00011000
00000000
00010000
,  // measure 57
00000100
00000000
00001100
00000000
00000000
00001100
00000000
00000001
,  // measure 58
00000200
00000000
00000310
00000000
00000020
00000000
00001030
00000001
,  // measure 59
00001000
00000000
00000000
00000000
,  // measure 60
00000001
00000100
00000001
00000000
00001000
00000100
00001000
00000000
00000000
00000000
00000001
00001000
00000100
00000000
00000000
00000000
,  // measure 61
00010000
00001000
00010000
00000000
00000000
00000000
00001000
00100000
00002000
00000000
00023000
00000000
00031000
00000000
01000000
00000000
,  // measure 62
00010000
01000000
00010000
00000000
10000000
01000000
10000000
00000000
00000000
00000000
00010000
10000000
00010000
00000000
00000000
00000000
,  // measure 63
10000000
00100000
10000000
00100000
10300000
30100000
10000000
00100000
01000000
00000000
00010000
00000000
00100000
00000000
00000000
00000000
,  // measure 64
00202000
00000000
00000000
00000000
00303000
00000000
00000000
00000000
00001000
00010000
00001000
00000000
00010000
00001000
00010000
00000000
,  // measure 65
00000000
00000000
00001000
01000000
00100000
00000000
10000000
00010000
10000000
00000000
01000000
00000000
00100000
00000000
00010000
00000000
,  // measure 66
00110000
00000000
10000000
10100000
00000000
00010000
10010000
00000000
,  // measure 67
10000000
01000000
00100000
00010000
00001000
00000100
00000010
00000001
00001000
00000001
00000000
00000000
,  // measure 68
00001000
00000010
00001000
00000000
00000100
00010000
00000100
00000000
00010000
00000000
00001000
00010000
00001000
00000000
00000000
00000000
,  // measure 69
00100000
00010000
00100000
00000000
00010000
00000000
10000000
00100000
10000000
00000000
00100000
00000000
01000000
00100000
01000000
00000000
,  // measure 70
00010000
01000000
00010000
00000000
10000000
01000000
13000000
00000000
01000000
00000000
00100000
00010000
00100000
00000000
00000000
00000000
,  // measure 71
00001000
00010000
00001000
00010000
00001000
00010000
00001000
00010000
00001000
00000000
00000100
00000000
00000010
00000000
00000000
00000000
,  // measure 72
00002002
00000000
00000000
00000000
00003003
00000000
00000000
00000000
00000001
00000100
00000001
00000000
00001000
00000100
00001000
00000000
,  // measure 73
00000000
00000000
00000001
00000010
00000100
00000000
00000000
00000000
00001000
00000001
00001000
00000000
00000001
00000000
00000100
00000000
,  // measure 74
00000110
00000010
00001000
00000100
00010100
00010000
00001000
00100000
,  // measure 75
00010000
01000000
00100000
00000000
00100000
00000000
10000000
01000000
00100000
00000000
00100000
00000000
00010000
00000000
00000000
00000000
,  // measure 76
20010000
00000000
30200000
00000000
01300000
01000000
00000000
00010000
,  // measure 77
10000000
01000000
00100000
00000000
00101000
00000000
00001000
00010000
,  // measure 78
00000020
00000000
00000230
00000000
00000301
00000010
00000003
00000100
,  // measure 79
00003000
00000100
00001000
00000000
00000001
00000100
00001000
00010000
,  // measure 80
00000100
00000000
00000100
00000000
00011000
00000000
00100000
00010000
,  // measure 81
10000000
00010000
00100000
00000000
00001000
00010000
00001000
00000000
,  // measure 82
00010000
00000100
00001100
00001000
00000010
00010000
00011000
00000000
,  // measure 83
00001000
00000000
00100000
00000000
00110000
00000000
00010000
00000000
01000000
00000000
00001000
00010000
00001000
00000000
00010000
00001000
,  // measure 84
00010000
00001000
00000100
00000010
00001000
00000100
00000010
00000001
,  // measure 85
00000011
00001100
00110000
11000000
,  // measure 86
10020000
00000000
10030000
00200000
00000000
00310000
00200000
00000000
,  // measure 87
20300000
00000000
31000000
00010000
00001000
00000010
00000002
00000003
;

//---------------dance-double - ----------------
#NOTEDATA:;
#CHARTNAME:;
#STEPSTYPE:dance-double;
#DESCRIPTION:;
#CHARTSTYLE:;
#DIFFICULTY:Hard;
#METER:13;
#RADARVALUES:0.677618,0.693415,0.315637,0.745254,0.065758,541.000000,505.000000,36.000000,85.000000,0.000000,0.000000,0.000000,0.000000,0.000000,0.677618,0.693415,0.315637,0.745254,0.065758,541.000000,505.000000,36.000000,85.000000,0.000000,0.000000,0.000000,0.000000,0.000000;
#CREDIT:Ben Speirs;
#NOTES:
00000000
00000000
00000000
00000000
,
00000000
00000000
00000000
00000000
,
00001000
00100000
00001000
00100000
00001000
00010000
00001000
00010000
,
00100000
10000000
01000000
00100000
00020000
00000000
00130000
00001000
,
00010000
00000010
00010000
00000010
00010000
00001000
00010000
00001000
,
00000100
00000001
00000010
00000100
00001000
00000000
00010100
00000000
,
00010000
00001000
00010000
00001000
00000100
00001000
00000100
00001000
,
00010000
00100000
01000000
00010000
00100000
00000000
00101000
00000000
,
00001000
00010000
00001000
00010000
01000000
00010000
01000000
00010000
,
00001000
01000000
00100000
01000000
00000000
00000000
00000000
00000000
,
00020000
00000000
10030000
01000000
00200000
00000000
00302000
00000000
,
00023000
00000000
00030010
00000200
00000000
00000301
00001000
00000001
,
00002000
00000000
00003001
00000010
00000200
00000000
00020300
00000000
,
00032000
00000000
01003000
00200000
00000000
10300000
00010000
10000000
,
00020000
02030000
23000000
32000000
,
03020000
00000000
00230000
00000000
00301000
00010000
00001000
00010000
,
00000020
00000000
00000130
00000001
00001000
00000000
00000001
00000010
,
00000200
00000000
00001330
00000000
00000100
00010000
00001000
00100000
,
00010000
01010030
10000000
10100000
,
00020000
00000000
00130000
00002000
00000000
00013000
00000010
00010000
,
00000100
00001100
00000001
00000101
,
00002000
00000000
00003100
00020000
00000000
00031000
01000000
00001000
,
00010000
00200000
00000000
20300000
00000000
32000000
00000000
03020000
,
00000000
00032000
00000000
00003020
00000000
00000031
00001000
00000001
,
00000100
00000000
00000100
00000000
00000010
00000010
00000000
00001000
,
00001000
00000000
00000100
00000100
00000000
00001000
00000001
00000000
,
00000001
00000200
00000000
00001300
00020000
00000000
00130000
20000000
,
00000000
30010000
00200000
00000000
01300000
00000000
10020000
00000000
,
10030000
00200000
00000000
00310000
00002000
00000000
00003100
00000002
,
00000000
00001003
00000200
00000000
00000310
00000000
00002001
00000000
,
00003001
00000101
00000000
00001000
00001100
00000000
00001001
00001001
,
00000000
00000001
00000010
00001000
00020000
00000000
00031000
00000000
,
00100000
00010000
00100000
00010000
01000000
00001000
01000000
00001000
,
00010000
00100000
10000000
01000000
00100000
00010000
10000000
00000000
,
10200000
00000000
01300000
10000000
01000000
00010000
10000000
00000000
,
12000000
00000000
03100000
10000000
00100000
00010000
10000000
00000000
,
02010000
00000000
03100000
00010000
00001000
00000100
00000010
00000000
,
00001020
00000000
00000130
00001000
00000100
00000001
00001000
00000000
,
00001100
00000000
00020100
00000000
00031000
00100000
00001000
00000000
,
00100000
00010000
01000000
00100000
00010000
00001000
00100000
00000000
,
00001000
00100000
00010000
00100000
01000000
01000000
00100000
00001000
,
00010000
00000010
00001000
00000010
00000100
00000100
00000001
00001000
,
00002001
00000000
00003310
00000001
00000010
00001000
00000001
00000000
,
00000021
00000000
00000133
00000001
00000100
00001000
00000001
00000000
,
00000201
00002300
00023000
00230000
,
10300000
01000000
00100000
00100000
00010000
10000000
00010000
00100000
,
00001000
00000000
00102000
00000000
00013000
00000100
00010000
00000000
,
00000100
00001000
00000010
00000100
00001000
00010000
00000100
00000000
,
00010000
00000100
00001000
00000100
00000010
00000010
00000100
00010000
,
00001000
01000000
00010000
01000000
00100000
00100000
01000000
00001000
,
00010000
00000100
00000010
00000001
00000100
00001000
00010000
00100000
,
01000000
01000000
00010000
10000000
10000000
00010000
00100000
00001000
,
00010000
00000000
00000000
00000000
,
00000000
00000000
00000000
00000000
00000000
00000000
00001000
00010000
,
00000200
00000000
00002300
00000000
00003020
00000000
00000030
00001000
,
00000001
00000100
00000010
00001000
00000100
00000000
00000200
00000000
,
00010300
00000000
00012000
00000000
00000000
01003000
00000000
00000000
,
01000000
00000000
01020000
00000000
00000000
10030000
00000000
00000000
,
20000000
30020000
00230000
00000000
,
00301000
00000000
00000000
00000000
,
00010000
00001000
00000000
00000000
00010000
00001000
00000000
00000000
00000000
00000000
00010000
00000000
00000020
00000000
00000000
00000000
,
00000130
00000100
00000000
00000001
00000020
00000230
00001330
00000010
,
00010000
00001000
00000000
00000000
00010000
00001000
00000000
00000000
00100000
00000000
00010000
00000000
02000000
00000000
00000000
00000000
,
03100000
10000000
00010000
10000000
00100000
01000000
00010000
00000000
,
00202000
00000000
00000000
00000000
00303000
00000000
00000000
00000000
00001000
00010000
00000000
00000000
00001000
00010000
00000000
00000000
,
00000000
00001000
01000000
00100000
02000000
00000000
03010000
00000000
,
10010000
00000000
10000000
01000000
00000000
00100000
00010000
00000000
,
00100000
00001000
00100000
00001000
00100000
00001000
00020000
00000000
00000000
00030010
00000000
00000000
,
00001000
00000000
00000010
00000000
00001000
00000000
00000010
00000000
00000100
00000000
00000001
00001000
00000001
00000000
00000000
00000000
,
00001000
00000000
00000200
00003000
00000000
00000000
00010300
00001000
00010000
00000000
00001000
00000000
00100000
00000000
00010000
00000000
,
01000000
00000000
00100000
00000000
01000000
00000000
00100000
00000000
10000000
00000000
00010000
10000000
00010000
00000000
00000000
00000000
,
10000000
01000000
00010000
01000000
20000000
00000000
30130000
00000000
,
20020000
00000000
30030000
00000000
00010000
01000000
00010000
01000000
,
00001000
00000000
00010000
00001000
00010000
00000000
00000000
00000000
00001000
00000000
00000010
00000000
00000001
00000000
00000100
00000000
,
00000102
00001003
00002010
00003001
,
00001000
00000100
00000100
00000001
00000100
00000100
00001000
00000000
,
00001002
00000000
00000203
00000000
00000310
00000010
00000000
00001000
,
00000100
00010000
00001000
00000000
00011000
00000000
00100000
00010000
,
02000000
00000000
03200000
00000000
10300000
01000000
00000000
10000000
,
00000000
00010000
01000000
00000000
00011000
00000000
00010000
00000100
,
00000020
00000000
00000031
00000000
00000011
00000000
00000001
00000100
,
00000000
00000010
00001000
00000100
00010000
00001000
00010000
00000000
,
00001000
00100000
00010000
00100000
01000000
01000000
00100000
00001000
,
00010000
00000010
00001000
00000010
00000100
00000100
00000010
00010000
,
00001000
00100000
01000000
10000000
00100000
00010000
00001000
00000100
,
00000010
00001000
00000001
00000010
00000110
00000000
00001001
00000000
,
00001200
00000000
00010300
00000020
00000000
00010030
00000200
00000000
,
00002300
00000000
00003001
00000100
00001000
00010000
00200000
00300000
;

//---------------dance-double - ----------------
#NOTEDATA:;
#CHARTNAME:;
#STEPSTYPE:dance-double;
#DESCRIPTION:;
#CHARTSTYLE:;
#DIFFICULTY:Medium;
#METER:10;
#RADARVALUES:0.518547,0.615493,0.569901,0.894305,0.000000,414.000000,349.000000,65.000000,102.000000,0.000000,0.000000,0.000000,0.000000,0.000000,0.518547,0.615493,0.569901,0.894305,0.000000,414.000000,349.000000,65.000000,102.000000,0.000000,0.000000,0.000000,0.000000,0.000000;
#CREDIT:Ben Speirs;
#NOTES:
00000000
00000000
00000000
00000000
,
00000000
00000000
00000000
00000000
,
00012000
00000000
00233000
00000000
00310000
01000000
00010000
00000000
,
10000000
01000000
00100000
00000000
00001000
00000000
00011000
00000000
,
00020000
00000000
00030020
00000000
00001030
00000100
00001000
00000000
,
00000001
00000100
00000010
00000000
00010000
00000000
00011000
00000000
,
00201000
00000000
01300000
00000000
10000000
00010000
10000000
00000000
,
00010000
01000000
00002000
00000000
00023000
00000000
00031000
00000000
,
00010020
00000000
00000130
00000000
00000001
00001000
00000001
00000000
,
00001000
00000100
00001000
00000100
00000000
00000000
00000000
00000000
,
00020000
00000000
00032000
00000000
02003000
00300000
03200000
00000000
,
20300000
00000000
30010000
00200000
00000000
00000000
10300000
00010000
,
20000000
30200000
02300000
03020000
,
00230000
00000000
00301000
00020000
00000000
00000000
00030100
00001000
,
00000200
00002300
00003020
00000230
,
00002300
00000000
00023000
00000000
00230000
00000000
01300000
00010000
,
20030000
00000000
31000000
00000000
00000000
00000000
01000000
00100000
,
00020000
00000000
01030000
00000000
00001000
00010000
00001000
00010000
,
00000100
00001100
00000001
00000101
,
00002000
00000000
00003010
00020000
00000000
00000000
00031000
00100000
,
00010000
00110000
10000000
10100000
,
00020000
00000000
01030000
00002000
00000000
00000000
00013000
00000000
,
00000100
00000100
00000010
00000010
,
00000001
00000000
00000100
00000000
00000010
00000000
00001000
00000100
,
00010000
00000000
00010000
00000000
00011000
00000000
00000000
00101000
,
00000000
00000000
00011000
00000000
00000000
00010010
00000000
00000000
,
00010000
00002000
00000000
00103000
00002000
00000000
01003000
00002000
,
00000000
00013000
00001000
00000000
00210000
03000000
00301000
00000000
,
00001000
00020000
00000000
00030010
00020000
00000000
00030100
00020000
,
00000000
00031000
00010000
00000000
00001200
00000000
00010300
00000000
,
00001000
00001000
00000000
00010000
00010000
00000000
00100000
00100000
,
00000000
10000000
10000000
00000000
10010000
00000000
10010000
00000000
,
20000000
01000000
30020000
00100000
,
10030000
00100000
01000000
30000000
00010000
00100000
00001000
00000000
,
00202000
00000000
00303000
00000000
00001000
00010000
00000010
00000000
,
00002020
00000000
00003030
00000000
00000010
00010000
00001000
00000000
,
02020000
00000000
03030000
00000000
00001000
00010000
00000100
00000000
,
00002200
00000000
00003300
00000000
00010000
00001000
00200000
00000000
,
02300000
00000000
23000000
00000000
30010000
01000000
00010000
00000000
,
10000000
00100000
10000000
00000000
00010000
00100000
00010000
00000000
,
00101000
00000000
00101000
00000000
00001000
00010000
00000010
00000000
,
00001001
00000000
00001001
00000000
00001000
00000100
00010000
00000000
,
00020200
00000000
00030300
00000000
00010000
00001000
01000000
00000000
,
02020000
00000000
03030000
00000000
01000000
00001000
00010000
00000000
,
00010020
00002030
00003200
00020300
,
00032000
00000000
00103000
00000000
00001000
00010000
00000020
00000000
,
00000230
00000000
00000332
00000000
00001003
00000010
00001000
00000000
,
00000001
00000100
00000001
00000000
00001000
00000100
00001000
00000000
,
00001001
00000000
00001001
00000000
00001000
00000100
00010000
00000000
,
00011000
00000000
00011000
00000000
00001000
01000000
00010000
00000000
,
10010000
00000000
10010000
00000000
10000000
00100000
01000000
00000000
,
02200000
00000000
00000000
33330000
,
10000000
00000000
00000000
00000000
,
00000000
00000000
00000000
00000000
,
00010000
00100000
00002000
00003300
,
00010000
00000010
00000100
00000100
,
00000002
00000000
00000000
00000000
,
00002003
00000000
00000000
00000000
,
00003100
00010000
00001000
00010000
,
00000000
00000000
00000000
00000000
,
00101000
00000000
00101000
00000000
00000000
00100000
01000000
00000000
,
20000000
00000000
30000000
00000000
00010000
01000000
00010000
00000000
,
01010000
00000000
01010000
00000000
00000000
01000000
00001000
00000000
,
00010000
00000100
00000010
00000010
,
00002002
00003003
00000101
00000101
,
00000000
00000001
00001000
00000000
00000200
00000000
00000300
00000000
,
00010100
00000000
00000000
00011000
00000000
00000000
00101000
00000000
,
00010000
00001000
00022000
00033000
,
00010000
00000000
00000100
00000000
00001000
00000010
00001000
00000000
,
00000100
00010000
00011000
00000000
,
00001000
00000000
00100000
00000000
00010000
01000000
00010000
00000000
,
10000000
01000000
10000000
00000000
01000000
00000000
00100000
00000000
,
20020000
30030000
10100000
10100000
,
00000000
10000000
00010000
00000000
00200000
00000000
00300000
00000000
,
00202000
00303000
00022000
00033000
,
00020200
00030300
00022000
00033000
,
20020000
00030000
30010000
01000000
,
00100000
10000000
01000000
00000000
11000000
00000000
00000000
00000000
,
20000000
30020000
00230000
00302000
,
00023000
00000000
00030010
00000000
00000110
00000000
00000100
00000001
,
00002000
00003100
00001100
00000000
,
00010000
00000000
00001000
00000000
00100000
00010000
10000000
00000000
,
10010000
00000000
10010000
00000000
00010000
01000000
00001000
00000000
,
00011000
00000000
00011000
00000000
00010000
00000100
00001000
00000000
,
00001001
00000000
00001001
00000000
00000001
00000100
00000020
00000000
,
00000000
00000100
00000100
00000130
,
00002001
00000000
00000000
00003200
00000000
00000000
00020300
00000000
,
00032000
00000000
02003000
00000000
03301000
00010000
00001000
00000000
;

//---------------dance-double - ----------------
#NOTEDATA:;
#CHARTNAME:;
#STEPSTYPE:dance-double;
#DESCRIPTION:;
#CHARTSTYLE:;
#DIFFICULTY:Easy;
#METER:7;
#RADARVALUES:0.308122,0.384683,0.105212,0.394546,0.000000,246.000000,234.000000,12.000000,45.000000,0.000000,0.000000,0.000000,0.000000,0.000000,0.308122,0.384683,0.105212,0.394546,0.000000,246.000000,234.000000,12.000000,45.000000,0.000000,0.000000,0.000000,0.000000,0.000000;
#CREDIT:Ben Speirs;
#NOTES:
00000000
00000000
00000000
00000000
,
00000000
00000000
00000000
00000000
,
00010000
00010000
00001000
00001000
,
00100000
00010000
01000000
00000000
,
00001000
00001000
00010000
00010000
,
00000010
00001000
00000100
00000000
,
00010000
00010000
00001000
00001000
,
01000000
00010000
00100000
00000000
,
00001000
00001000
00010000
00010000
,
00000100
00001000
00000000
00000000
,
00000001
00000100
00000010
00001000
,
00000100
00000000
00000000
00000100
00000000
00000000
00000000
00000000
,
00010000
00001000
00100000
00010000
,
01000000
00000000
00000000
01000000
00000000
00000000
00000000
00000000
,
00010000
10000000
00100000
00000000
,
10000000
00010000
00100000
00000000
,
02000000
03000000
00000000
01000000
,
00200000
00300000
00000000
00000000
,
00010000
10000000
00100000
01000000
,
00100000
00000000
00000000
00100000
00000000
00000000
00000000
00000000
,
01000000
00001000
00010000
00000100
,
00000010
00000000
00000000
00000010
00000000
00000000
00000000
00000000
,
00000001
00001000
00000010
00000000
,
00001000
00000001
00000010
00000000
,
00000100
00000000
00000100
00000000
00010000
00000000
00000000
00010000
,
00000000
00001000
00000000
00000000
,
00001000
00000000
00000000
00100000
00000000
00000000
00001000
00000000
,
00000000
00010000
00000000
00000000
00001000
00000000
00001000
00000000
,
00010000
00000000
00000000
00000010
00000000
00000000
00010000
00000000
,
00000000
00001000
00000000
00000000
00010000
00000000
00010000
00000000
,
00001000
00000000
00000000
01000000
00000000
00000000
00001000
00000000
,
00000000
00010000
00000000
00000000
00001000
00000000
00001000
00000000
,
00200000
00300000
02000000
03000000
,
20000000
30000000
00020000
00030000
,
20020000
00000000
30030000
00010000
,
00200000
00000000
00300000
00100000
,
00002000
00000000
00003000
00001000
,
00020000
00000000
00030000
00010000
,
00000100
00000100
00000010
00000010
,
00000001
00001000
00000010
00000000
,
00001000
00001000
00000001
00000001
,
00000100
00000010
00001000
00000000
,
00002002
00000000
00003003
00001000
,
00000200
00000000
00000300
00000100
,
00010000
00010000
00031000
00001000
,
00200000
00000000
00313000
10000000
,
00100000
00100000
01000000
01000000
,
00010000
10000000
01000000
00000000
,
10000000
01000000
00100000
00100000
,
00010000
01000000
00001000
00001000
,
00010000
00000010
00000100
00000100
,
00000020
00000000
00000000
00000030
,
00001000
00000000
00000000
00000000
,
00000000
00000000
00000000
00000000
,
00000001
00000000
00000000
00000000
,
00000010
00000000
00000100
00000000
,
00020000
00000000
00030000
00000000
,
00002000
00000000
00003000
00000000
,
00100000
00100000
00100000
00000000
,
01000000
00000000
00000000
00000000
,
10000000
00000000
01000000
00000000
00000000
01000000
00000000
00000000
,
00100000
00000000
00010000
00000000
,
01000000
00000000
00001000
00000000
00000000
00001000
00000000
00000000
,
00010000
00000000
00000100
00000000
,
00002002
00003003
00000001
00000001
,
00000000
00001000
00000000
00000000
00000010
00000000
00000000
00000000
,
00000100
00000000
00000000
00000100
00000000
00000000
00000100
00000000
,
00000010
00000000
00000010
00000000
,
00002001
00000000
00000000
00003200
00000000
00000000
00020300
00000000
,
00000000
00032000
00000000
00000000
00103000
00000000
01000000
00000000
,
20000000
00000000
30010000
00000000
,
10000000
00100000
01000000
00000000
,
10020000
00000000
00000000
00230000
00000000
00000000
00302000
00000000
,
00000000
00023000
00000000
00000000
00030100
00000000
00000010
00000000
,
00002002
00003003
00000220
00000330
,
00002002
00003003
00000220
00000330
,
00002002
00003003
00001000
00000100
,
00020000
00030000
00001000
00100000
,
01000000
01000000
00100000
00100000
,
00020000
00030000
10000000
00100000
,
01000000
01000000
00010000
00000000
,
10000000
10000000
01000000
00000000
,
10000000
01000000
00100000
00100000
,
00001000
00010000
00001000
00001000
,
00010000
00000010
00000100
00000220
,
00000000
00000000
00000000
00000330
,
00002002
00003003
00001000
00000000
,
00000100
00010000
00001000
00001000
;
