#TITLE:Little April Shower;
#SUBTITLE:(AS-13 Remix);
#ARTIST:AS-13;
#TITLETRANSLIT:;
#SUBTITLETRANSLIT:;
#ARTISTTRANSLIT:;
#GENRE:;
#CREDIT:;
#BANNER:littleaprilshower-bn.png;
#BACKGROUND:littleaprilshower-bg.png;
#LYRICSPATH:;
#CDTITLE:;
#MUSIC:Little April Shower (AS-13 Remix).mp3;
#OFFSET:-0.055000;
#SAMPLESTART:39.411777;
#SAMPLELENGTH:12.000000;
#SELECTABLE:YES;
#BPMS:0.000000=195.000000
;
#STOPS:
;
#BGCHANGES:;
#KEYSOUNDS:;
#ATTACKS:;

//---------------dance-single - ----------------
#NOTES:
     dance-single:
     :
     Easy:
     5:
     0.354348,0.717072,0.180396,0.000000,0.000000,330.000000,306.000000,24.000000,0.000000,0.000000,0.000000,0.354348,0.717072,0.180396,0.000000,0.000000,330.000000,306.000000,24.000000,0.000000,0.000000,0.000000:
0000
0000
0000
0000
,
0000
0000
0000
0000
,
0000
0000
0000
0000
,
0000
0000
0000
0000
,
0000
0000
0000
0000
,
0000
0000
0000
0000
,
0000
0000
0000
0000
,
0000
0000
0010
0100
,
0001
0000
0100
0000
,
1000
0000
0100
0000
,
0001
0000
0010
0000
,
1000
0000
0100
0000
,
0001
0000
0010
0000
,
1000
0100
0010
0000
,
1000
0000
0100
0000
,
0010
1000
0100
0000
,
0010
0000
0100
0000
,
1000
0010
0001
0000
,
0100
0000
0010
0000
,
0001
0100
0010
0000
,
0001
0100
0010
0000
,
1000
0010
1000
0000
,
0000
0110
0000
1001
,
0000
0110
0000
1001
,
0001
0100
0001
0000
,
0010
0001
1000
0100
,
1000
0001
0100
0010
,
1000
0001
0100
0000
,
0001
0100
0010
0000
,
0100
0010
1000
0010
,
0100
0001
1000
0001
,
1000
0010
0100
0000
,
0001
0010
0001
0000
,
1000
0001
1000
0010
,
0100
0001
0100
0010
,
1000
0010
1000
0000
,
0100
1000
0010
0000
,
1000
0010
1000
0100
,
0010
0100
1000
0100
,
0001
0100
1000
0000
,
0001
0001
1000
1000
,
0100
1000
0001
0010
,
0100
0000
1001
0000
,
1000
0010
1000
0000
,
0001
0001
1000
0010
,
1000
0001
0010
0000
,
1001
0000
0110
0000
,
0010
0010
0001
0100
,
0001
1000
0010
0010
,
1000
0100
0010
0100
,
0110
0000
1001
0000
,
0001
1000
0100
0000
,
1000
0100
1000
0001
,
0100
0001
0100
0000
,
0010
0100
0010
0000
,
0001
0010
1000
0000
,
0001
0100
0010
1000
,
0100
0010
0001
1000
,
1001
0000
0100
0000
,
0001
0100
0010
0000
,
0100
0100
0010
1000
,
0001
1000
0100
0000
,
1000
0100
1000
0000
,
0001
0001
0100
0010
,
1000
0010
0100
0001
,
0100
0010
1000
0000
,
0100
0100
0010
0000
,
0010
0010
0001
0000
,
0010
0010
0001
0100
,
0010
0010
0100
0001
,
1000
0000
0010
1000
,
0001
1000
0010
0000
,
0100
0010
1000
1000
,
0010
1000
0100
0000
,
1000
0100
0010
0000
,
0001
1000
0010
0010
,
0001
0010
1000
0001
,
0100
1000
0100
0001
,
1000
0000
0100
0000
,
0110
0010
0100
0000
,
1000
0100
1000
0100
,
0010
0001
1000
0010
,
0100
0000
0010
0000
,
0110
0001
1000
0000
,
0001
0100
0010
1000
,
0010
0100
0001
1000
,
1001
0000
0100
0000
,
1000
0001
0100
0000
,
0010
1000
0100
0000
,
0001
0100
1000
0000
,
0001
0100
0001
0100
,
0010
1000
0010
1000
,
0001
0100
0010
1000
,
0100
0010
0001
1000
,
0010
0000
1000
0000
,
0100
0000
0001
0000
,
0100
0000
1000
0000
,
0001
0000
0010
0000
,
1000
0000
0010
0000
,
0001
0000
1000
0000
,
0010
0000
0001
0000
,
1000
0000
0100
0000
,
0001
0000
1001
0000
,
0100
0000
0110
0000
,
1001
1001
0110
0110
,
1001
0110
1001
0110
,
1001
0000
0000
0000
;

//---------------dance-single - ----------------
#NOTES:
     dance-single:
     :
     Medium:
     9:
     0.601318,0.677235,0.368308,0.030066,0.000000,560.000000,511.000000,49.000000,4.000000,0.000000,0.000000,0.601318,0.677235,0.368308,0.030066,0.000000,560.000000,511.000000,49.000000,4.000000,0.000000,0.000000:
0000
0000
0000
0000
,
0000
0000
0000
0000
,
0000
0000
0000
0000
,
0000
0000
0000
0000
,
0000
0000
0000
0000
,
0000
0000
0000
0000
,
0000
0000
0000
0000
,
0000
0000
0001
1000
,
1100
0000
0001
0001
0000
0000
0100
0000
,
0000
0000
1000
1000
0000
0100
0100
0000
,
0000
0000
0001
0001
0000
0000
0010
0000
,
0000
0000
1000
1000
0000
0100
0100
0000
,
0001
0000
0100
0000
1000
0000
0100
0001
,
0100
0010
0001
0010
,
1000
0000
0001
0010
0001
0000
0010
1000
,
0010
0001
1001
0000
,
1000
0000
0010
0000
1000
0000
0001
1000
,
0100
0001
0100
1000
,
0001
0000
1000
0001
0100
0000
1001
0000
,
0001
1000
0101
0000
,
0010
0100
1001
0000
,
0100
0010
0101
0000
,
0010
1010
1000
1100
,
0010
0011
0001
0101
,
0010
0000
1000
0001
0100
0000
0001
0100
,
0010
0100
0001
0110
,
1000
0000
0010
1000
0100
0000
1000
0100
,
1000
0000
0001
1000
0100
0000
0010
0000
,
1100
0000
0001
0010
0100
0000
0010
0001
,
1000
0001
1000
0000
0010
0000
1001
0000
,
0100
0010
0100
0010
0100
0000
0001
0100
,
0010
0000
1000
0001
1000
0000
0110
0000
,
1001
0000
0001
0100
0001
0000
0010
0001
,
0100
0000
0010
0100
0001
0100
0010
0000
,
1000
0000
1010
0000
0010
1000
0010
0100
,
0001
0100
1100
0101
,
1000
0001
0100
0000
0001
1000
0001
1000
,
0100
0000
0010
0001
0010
0000
1001
0000
,
0100
0000
1000
0010
1000
0000
0001
0010
,
0100
0000
0001
0100
2000
0000
3000
0000
,
1001
0000
0001
1000
1001
0000
0100
0001
,
0101
0000
1001
0000
0010
1000
0010
0100
,
0001
0000
0100
0000
1000
0000
0100
0001
,
0010
0000
0001
0010
0100
0000
1001
0000
,
1000
0000
0001
0010
0100
0000
0010
0001
,
0100
0000
1000
0100
0010
0000
1001
0000
,
1000
0010
1000
0000
0001
0100
0001
1000
,
0010
1000
1001
0011
,
0100
0010
0100
1000
0001
0000
0100
0001
,
0100
0000
0010
0100
0010
0100
0001
1000
,
0010
0000
1010
0000
0100
0010
1000
0001
,
1000
0010
1001
0011
,
0100
0010
0100
0010
0001
0000
1000
0001
,
0010
0000
0001
1000
0010
0000
0100
0000
,
1000
0100
1000
0000
0100
0001
0100
0010
,
0100
0000
0001
0010
0001
0000
1001
0000
,
1000
0000
0100
0010
1000
0000
0010
0001
,
0010
0000
0100
0010
0100
0010
0100
1000
,
0001
0000
1001
0000
0100
0001
0100
0001
,
1000
0001
0100
1001
,
0010
1000
0010
0100
0010
0000
1000
0001
,
1000
0000
0100
1000
0100
0000
0010
0000
,
1100
0000
0110
0000
0011
0000
0001
0010
,
0001
1000
0010
0001
,
0010
0100
0010
0100
0010
0000
1000
0010
,
0100
0000
0001
1000
0200
0000
0300
0000
,
1001
0000
0010
0001
0200
0000
0300
0000
,
1010
0000
0010
1000
0200
0000
0300
0000
,
1001
0000
0001
0010
0011
0000
1000
0010
,
1010
0000
0001
0010
0001
1000
0010
1000
,
0001
0000
0100
0000
0001
0100
0001
1000
,
0001
0000
0010
0001
1000
0000
0010
0000
,
1000
0100
1000
0100
0010
0000
0100
0010
,
0001
0000
0010
0001
0100
0001
0100
0001
,
1000
0000
0001
0000
0100
0001
1000
0001
,
0100
1000
0100
0001
,
1000
0100
0010
0001
0010
0000
0100
0010
,
0100
0000
0010
0100
1000
0001
0010
0000
,
1001
0000
1010
0000
0011
0000
1000
0010
,
1000
0000
0001
1000
0010
0000
1001
0000
,
1000
0100
1000
0000
0010
0000
0001
0010
,
1000
0000
0010
1000
0001
1000
0001
1000
,
0100
0000
0010
0000
0001
0000
0010
1000
,
0010
0000
0001
0000
1000
0010
0100
0000
,
0010
0100
0010
0000
1000
0010
1000
0001
,
0100
0000
0001
0100
0010
0000
0110
0000
,
1000
0000
0001
0100
0001
0100
0001
0000
,
1000
0000
0001
0010
0001
0010
0001
0000
,
1000
0000
0010
0100
0010
0100
0010
0000
,
1000
0000
0100
0010
0100
0010
0100
0000
,
1000
0000
0100
0000
1000
0100
0010
0000
,
0001
0000
0100
0000
0001
0100
0010
0000
,
1000
0010
0100
0000
0001
0010
0100
0000
,
1000
0100
1000
0001
0010
0001
1000
0001
,
0100
0000
0000
0000
0010
0010
0000
1000
,
0000
1000
0000
0000
0010
0010
0000
0000
,
0100
0000
0000
0000
0001
0001
0000
0100
,
0000
0010
0000
0000
1000
1000
0000
0000
,
0100
0000
0000
0000
1000
1000
0000
0001
,
0000
0001
0000
0000
1000
1000
0000
0000
,
0100
0000
0000
0000
0010
0010
0000
0001
,
0000
1000
0000
0000
0100
0100
0000
0000
,
1100
0000
0000
0000
0001
0000
0001
1000
,
0100
0000
0000
0000
0010
0000
0010
0001
,
0100
0010
1001
0100
,
1010
0000
0010
0100
0001
1000
0010
1000
,
0100
0000
0000
0000
;

//---------------dance-single - ----------------
#NOTES:
     dance-single:
     :
     Hard:
     11:
     0.598097,0.637397,0.338242,0.082681,0.000000,557.000000,512.000000,45.000000,11.000000,0.000000,0.000000,0.598097,0.637397,0.338242,0.082681,0.000000,557.000000,512.000000,45.000000,11.000000,0.000000,0.000000:
0000
0000
0000
0000
,
0000
0000
0000
0000
,
0000
0000
0000
0000
,
0000
0000
0000
0000
,
0000
0000
0000
0000
,
0000
0000
0000
0000
,
0000
0000
0000
0000
,
0000
0000
0000
0000
0010
1000
0001
1000
,
0100
0000
0000
0000
0100
0000
1000
0001
,
0100
0000
0000
0000
0100
0001
0001
1000
,
0100
0000
0000
0000
0100
0000
1000
0001
,
0100
0000
0000
0000
0001
0100
0100
0000
,
1100
0000
0000
0000
0001
0001
0000
1000
,
0000
0001
0000
0000
0010
0010
0000
0000
,
0001
0000
0000
0000
1000
1000
0000
0001
,
0000
0100
0000
0000
0100
0100
0000
0000
,
0001
0000
0000
0000
0100
0100
0000
0001
,
0000
0001
0000
0000
1000
0001
0000
0000
,
1000
0000
0000
0000
0100
0100
0000
1000
,
0000
0001
0000
0000
0100
0001
0000
0000
,
1000
0000
0000
0001
1000
0100
0000
0100
,
0000
1000
0001
0100
0001
0000
0100
0100
,
0010
0100
1000
0100
,
0010
0000
0100
0000
0001
0100
0010
1000
,
0100
1000
0100
1000
0001
0100
0001
0100
,
0010
1000
0100
0000
0001
0100
0001
0000
,
2000
0100
3002
0013
,
0100
1000
0001
1000
0010
1000
0100
0000
,
0010
0000
0110
0000
0001
0010
0001
1000
,
0010
1001
0100
1001
,
1000
0100
1000
0100
0010
0000
1000
0010
,
1000
0000
0100
0000
1000
0001
0100
0001
,
1001
0000
0100
0000
0110
0000
0010
1000
,
0100
0000
1000
0100
0001
0100
1000
0000
,
0100
1100
1000
0101
,
0001
1000
0001
1000
0100
0000
1000
0001
,
0100
0000
0010
0000
1001
0000
0001
1000
,
0001
0100
0010
0000
1000
0100
0010
0000
,
1000
0010
1000
0001
0100
0000
0001
1000
,
0100
0000
0001
0100
2000
0000
3000
0000
,
0001
0000
1000
0001
1000
0000
0010
1000
,
0010
0000
0100
0010
0100
0001
0100
0010
,
2000
0000
0100
0000
3001
0100
0010
0000
,
0001
0010
0001
0000
1000
1000
0100
0000
,
0010
0001
0100
0001
0100
0000
0010
1000
,
0100
0000
1001
0000
0100
0000
0010
1000
,
1100
0000
1000
0100
0010
0000
0001
0001
,
0010
0000
0100
0000
1000
0010
1000
0000
,
1100
0000
0010
0001
0010
0000
0001
0100
,
0001
0000
1000
0100
0001
0100
1000
0000
,
0011
0000
1010
0000
1001
0000
0010
0010
,
0010
0000
1100
0000
0001
1000
0100
0000
,
1000
0010
0100
0000
0001
0100
0010
0100
,
0010
0000
0001
1000
1001
0000
0001
1000
,
0100
0000
1000
0100
0010
0000
0001
0001
,
0010
0001
0100
0000
0001
0100
0010
0000
,
1001
1000
0101
0010
,
1001
0000
1000
0100
1000
0100
0001
0100
,
1000
0000
0100
0000
1000
1000
0010
0010
,
1000
0000
0001
0000
0100
0001
0101
0000
,
1000
0000
0001
0001
1000
0000
0010
0010
,
1000
0000
0001
0100
0100
0000
0001
0100
,
0001
0000
1000
0000
0010
0010
1000
1000
,
0001
0000
0010
0000
0001
0001
0100
0000
,
0001
0000
1000
0100
1100
0000
1000
1000
,
0010
0000
1000
0001
0010
0000
0001
1000
,
0010
0000
1001
0000
0100
0000
0001
0100
,
0001
0000
1010
0000
0100
0000
0010
0100
,
0001
0000
0100
0001
0010
0000
1000
0010
,
0001
0010
0100
0010
0001
0010
0001
1000
,
0100
0000
1100
0000
0101
0000
0001
1000
,
0100
0000
1001
0000
1000
0001
0010
0000
,
1000
0100
0010
0000
0100
1000
0100
1000
,
0100
0000
0010
0001
0100
0000
1001
0000
,
0100
1000
0010
0000
1000
0010
0001
0010
,
1000
0000
1100
0000
0010
0001
0100
0000
,
0010
1000
0001
1000
0001
0000
0100
0010
,
0110
0000
1000
0000
0010
1000
0100
1000
,
0100
0000
1100
0000
0010
0000
1001
0001
,
0010
0110
1001
0110
,
1000
0000
0001
0100
0001
0000
1000
0100
,
1000
0000
0001
1000
0001
1000
0001
1000
,
0100
0000
1000
0000
0010
0000
1000
0010
,
0100
0010
1001
0100
,
0001
0000
0010
0001
0100
0000
0001
0100
,
0001
0000
1000
0010
1000
0010
1000
0010
,
0100
0000
1010
0000
0001
1000
0100
0000
,
0010
0000
1100
0000
0001
1000
0100
0000
,
1000
0000
0110
0000
0001
0010
0100
0000
,
1000
0000
0101
0000
0010
1000
0100
0000
,
2000
0010
0001
0100
,
3002
0100
1000
0010
,
2003
0100
0010
3002
,
0010
0100
2003
3100
,
0202
0000
0303
0000
,
1000
1000
1000
0000
,
0010
0100
0010
0000
,
1000
0001
1000
0000
,
0100
0100
0100
0000
,
1000
0000
0001
0000
0100
0000
0001
0100
,
0010
0000
0100
0000
0001
0000
0100
0001
,
0100
0000
0001
0010
0001
0000
1000
0100
,
1100
0000
0001
0001
,
1000
1000
0100
0100
,
1000
1001
0100
1001
,
0100
0000
1001
0010
0001
1000
0001
0010
,
0100
0000
0000
0000
;

//---------------dance-single - ----------------
#NOTES:
     dance-single:
     :
     Beginner:
     3:
     0.162141,0.278861,0.015033,0.000000,0.000000,151.000000,149.000000,2.000000,0.000000,0.000000,0.000000,0.162141,0.278861,0.015033,0.000000,0.000000,151.000000,149.000000,2.000000,0.000000,0.000000,0.000000:
// measure 0
0000
0000
0000
0000
,  // measure 1
0000
0000
0000
0000
,  // measure 2
0000
0000
0000
0000
,  // measure 3
0000
0000
0000
0000
,  // measure 4
0000
0000
0000
0000
,  // measure 5
0000
0000
0000
0000
,  // measure 6
0000
0000
0000
0000
,  // measure 7
0000
0000
0000
0000
,  // measure 8
1000
0000
0000
0000
,  // measure 9
0001
0000
0000
0000
,  // measure 10
1000
0000
0000
0000
,  // measure 11
0001
0000
0000
0000
,  // measure 12
0100
0000
0000
0000
,  // measure 13
0010
0000
0000
0000
,  // measure 14
1000
0000
0000
0000
,  // measure 15
0001
0000
0000
0000
,  // measure 16
0010
0000
0000
0000
,  // measure 17
0100
0000
0000
0000
,  // measure 18
1000
0000
0000
0000
,  // measure 19
0001
0000
0000
0000
,  // measure 20
0100
0000
0000
0000
,  // measure 21
0010
0000
0000
0000
,  // measure 22
0000
1000
0000
1000
,  // measure 23
0000
1000
0000
1000
,  // measure 24
1000
0000
0001
0000
,  // measure 25
0001
0000
0000
0000
,  // measure 26
1000
0000
0001
0000
,  // measure 27
0100
0000
0000
0000
,  // measure 28
0001
0000
0001
0000
,  // measure 29
0010
0000
0000
0000
,  // measure 30
1000
0000
0010
0000
,  // measure 31
0001
0000
0000
0000
,  // measure 32
0100
0000
0100
0000
,  // measure 33
0010
0000
0000
0000
,  // measure 34
1000
0000
0001
0000
,  // measure 35
0100
0000
0000
0000
,  // measure 36
0010
0000
0010
0000
,  // measure 37
0100
0000
0000
0000
,  // measure 38
0001
0000
1000
0000
,  // measure 39
0010
0000
0000
0000
,  // measure 40
0100
0000
0100
0000
,  // measure 41
0100
0000
0100
0000
,  // measure 42
0010
0000
0000
0000
,  // measure 43
0100
0000
0010
0000
,  // measure 44
1000
0000
0000
0000
,  // measure 45
0010
0000
1000
0000
,  // measure 46
0001
0000
0000
0000
,  // measure 47
1000
0000
0001
0000
,  // measure 48
0010
0000
0000
0000
,  // measure 49
0001
0000
1000
0000
,  // measure 50
0100
0000
0100
0000
,  // measure 51
0010
0000
0010
0000
,  // measure 52
0001
0000
0001
0000
,  // measure 53
1000
0000
1000
0000
,  // measure 54
0010
0000
0100
0000
,  // measure 55
0010
0000
0100
0000
,  // measure 56
0001
0000
1000
0000
,  // measure 57
0001
0000
1000
0000
,  // measure 58
1001
0000
0000
0000
,  // measure 59
0100
0000
0100
0000
,  // measure 60
0001
0000
1000
0000
,  // measure 61
0100
0000
0100
0000
,  // measure 62
1000
0000
0000
0000
,  // measure 63
0001
0000
0100
0000
,  // measure 64
0100
0000
0000
0000
,  // measure 65
1000
0000
0100
0000
,  // measure 66
0001
0000
0000
0000
,  // measure 67
1000
0000
0000
0000
,  // measure 68
0010
0000
0100
0000
,  // measure 69
0001
0000
1000
0000
,  // measure 70
0100
0000
0000
0000
,  // measure 71
0010
0000
0010
0000
,  // measure 72
0001
0000
0000
0000
,  // measure 73
1000
0000
0001
0000
,  // measure 74
0010
0000
0000
0000
,  // measure 75
0100
0000
0100
0000
,  // measure 76
1000
0000
0000
0000
,  // measure 77
0010
0000
1000
0000
,  // measure 78
0001
0000
0001
0000
,  // measure 79
0010
0000
0010
0000
,  // measure 80
1000
0000
0010
0000
,  // measure 81
0001
0000
0000
0000
,  // measure 82
0100
0000
0100
0000
,  // measure 83
1000
0000
1000
0000
,  // measure 84
0100
0000
0001
0000
,  // measure 85
0100
0000
0000
0000
,  // measure 86
0010
0000
0000
0000
,  // measure 87
0100
0000
0000
0000
,  // measure 88
0001
0000
0000
0000
,  // measure 89
0010
0000
0000
0000
,  // measure 90
0100
0000
0100
0000
,  // measure 91
0010
0000
0010
0000
,  // measure 92
0001
0000
1000
0000
,  // measure 93
0010
0000
0100
0000
,  // measure 94
0100
0000
0000
0000
,  // measure 95
0001
0000
0000
0000
,  // measure 96
0010
0000
0000
0000
,  // measure 97
1000
0000
0000
0000
,  // measure 98
0001
0000
0000
0000
,  // measure 99
0010
0000
0000
0000
,  // measure 100
0100
0000
0000
0000
,  // measure 101
0001
0000
0000
0000
,  // measure 102
1000
0000
1000
0000
,  // measure 103
0100
0000
0100
0000
,  // measure 104
1000
0000
0001
0000
,  // measure 105
1000
0000
0100
0100
,  // measure 106
1001
0000
0000
0000
;
