#VERSION:0.83;
#TITLE:Light Switch;
#SUBTITLE:;
#ARTIST:Charlie Puth;
#TITLETRANSLIT:;
#SUBTITLETRANSLIT:;
#ARTISTTRANSLIT:;
#GENRE:;
#ORIGIN:;
#CREDIT:;
#BANNER:Light Switch-bn.png;
#BACKGROUND:Light Switch-bg.png;
#PREVIEWVID:;
#JACKET:Light Switch-jacket.png;
#CDIMAGE:;
#DISCIMAGE:;
#LYRICSPATH:;
#CDTITLE:;
#MUSIC:Light Switch.ogg;
#OFFSET:-0.021000;
#SAMPLESTART:42.537998;
#SAMPLELENGTH:12.688000;
#SELECTABLE:YES;
#DISPLAYBPM:79.000000:184.000000;
#BPMS:0.000=184.000,
124.000=79.250,
126.750=79.000,
128.000=184.000,
256.000=91.600,
258.000=92.000,
260.750=90.000,
261.250=92.000,
265.500=95.000,
266.500=92.000,
267.500=79.000,
268.000=82.000,
271.000=75.000,
272.000=92.250,
274.000=92.000,
276.000=184.000,
379.000=181.000;
#STOPS:;
#DELAYS:;
#WARPS:380.000=20.000;
#TIMESIGNATURES:0.000=4=4;
#TICKCOUNTS:0.000=4;
#COMBOS:0.000=1;
#SPEEDS:0.000=1.000=0.000=0;
#SCROLLS:0.000=1.000,
132.000=0.000,
132.500=1.000,
164.000=0.000,
164.500=1.000,
258.000=0.000,
258.250=1.000;
#FAKES:;
#LABELS:0.000=Song Start;
#BGCHANGES:0.000=Light Switch-bg.png=1.000=0=0=0=StretchNoLoop====,
0.001=Light Switch.mp4=1.000=0=0=1=====,
381.000=Light Switch-bg.png=1.000=0=0=1=====,
99999=-nosongbg-=1.000=0=0=0 // don't automatically add -songbackground-
;
#KEYSOUNDS:;
#ATTACKS:
;

//---------------dance-single - Highflyer----------------
#NOTEDATA:;
#CHARTNAME:;
#STEPSTYPE:dance-single;
#DESCRIPTION:Highflyer;
#CHARTSTYLE:;
#DIFFICULTY:Beginner;
#METER:2;
#RADARVALUES:0.193628,0.256743,0.000000,0.022342,0.000000,182.000000,182.000000,0.000000,3.000000,0.000000,0.000000,0.000000,0.000000,24.000000,0.193628,0.256743,0.000000,0.022342,0.000000,182.000000,182.000000,0.000000,3.000000,0.000000,0.000000,0.000000,0.000000,24.000000;
#CREDIT:;
#DISPLAYBPM:79.000000:184.000000;
#NOTES:
0000
0000
0000
0000
,
0000
0000
0000
0000
,
0000
0000
0000
0000
,
0000
0000
0000
0000
,
0000
0000
0000
0000
,
0000
0000
0000
0000
,
0000
0000
0000
0000
,
0000
0000
0000
0000
,
0000
0000
0000
0000
,
1000
0000
0000
1000
0000
0000
0000
0000
,
0001
0000
0100
0000
,
0010
0000
0000
0010
0000
0000
0000
0000
,
0100
0000
0001
0000
,
0010
0000
0000
0010
0000
0000
0100
0000
,
0100
0000
0000
0000
,
1000
1000
1000
0000
,
0001
0001
0001
0000
,
0100
0000
0000
0100
0000
0000
0000
0000
,
0010
0000
1000
0000
,
0100
0000
0000
0100
0000
0000
0000
0000
,
0010
0000
0001
0000
,
1000
0000
0000
1000
0000
0000
0010
0000
,
0010
0000
0000
0000
,
0100
0100
0100
0000
,
0010
0010
0010
0000
,
1000
0000
0001
0000
,
0020
0000
0130
0000
,
0010
0000
0001
0000
,
2000
0000
3001
0000
,
0100
0000
0010
0000
,
1000
0000
0100
0000
,
0010
0010
0010
0000
,
0001
0000
0010
0010
,
0000
0000
1000
0000
,
0010
0000
0001
0000
,
0100
0000
1000
0000
,
0010
0000
0100
0100
,
0000
0000
0010
0000
,
1000
0000
0000
1000
0000
0000
0001
0000
,
0000
0001
0000
0000
0010
0000
0000
0000
,
0010
0000
0100
0100
,
0100
0000
1000
0000
,
0010
0000
0001
0000
,
0100
0000
1000
0000
,
0010
0000
0100
0100
,
0100
0000
0010
0000
,
1000
0000
0000
1000
0000
0000
0001
0000
,
0000
0001
0000
0000
0010
0000
0000
0000
,
0010
0000
0000
0100
,
0000
0100
0000
0100
,
0000
0010
0000
0010
,
0000
0010
0000
0001
,
0000
0001
0000
1000
,
0000
1000
0000
0010
,
0000
0010
0000
0100
,
0000
0100
0000
0010
,
0000
0100
0000
0001
,
0000
1000
0000
0001
,
0000
0010
0000
0001
,
0000
1000
0000
0010
,
0000
0100
0000
0010
,
0000
1000
0000
0001
,
0000
0010
0000
0100
,
0000
0010
0000
0001
,
0001
0000
1000
0000
,
0010
0000
0001
0000
,
0100
0000
1000
0000
,
0010
0000
0010
0000
,
0200
0000
0300
0000
,
0001
0000
0100
0100
,
0000
0000
1000
0000
,
0100
0000
0001
0000
,
0010
0000
1000
0000
,
0001
0000
0010
0010
,
0000
0000
0100
0000
,
1000
0000
0000
1000
0000
0000
0001
0000
,
0000
0001
0000
0000
0100
0000
0000
0000
,
0010
0000
0000
0100
,
0000
0100
0000
0010
,
0000
0100
0000
0001
,
0000
1000
0000
0100
,
0000
0010
0000
0100
,
0000
0100
0000
1000
,
0000
0001
0000
0100
,
0000
0010
0000
1000
,
0000
0001
0000
0010
,
0000
0010
0000
0100
,
0000
0100
0000
1000
,
0000
0001
0000
0100
,
0000
0010
0000
0100
,
0000
0001
0000
1000
,
0000
0100
0000
0010
,
0000
0001
0000
1000
,
1000
0000
0001
0000
,
0100
0000
0010
0010
,
0010
1001
1001
0010
,
0110
1001
0100
0010
,
0001
1000
1010
0101
,
0110
1100
1001
0000
;

//---------------dance-single - XO DT DS- FS-----------------
#NOTEDATA:;
#CHARTNAME:Light Switch;
#STEPSTYPE:dance-single;
#DESCRIPTION:XO DT DS- FS-;
#CHARTSTYLE:;
#DIFFICULTY:Hard;
#METER:14;
#RADARVALUES:0.620248,0.891434,0.014894,0.491518,0.085643,583.000000,581.000000,2.000000,66.000000,6.000000,0.000000,0.000000,0.000000,39.000000,0.620248,0.891434,0.014894,0.491518,0.085643,583.000000,581.000000,2.000000,66.000000,6.000000,0.000000,0.000000,0.000000,39.000000;
#CREDIT:Highflyer;
#DISPLAYBPM:79.000000:184.000000;
#NOTES:
// measure 0
0000
0000
0000
0000
,  // measure 1
0000
0000
0000
0000
,  // measure 2
0000
0000
0000
0000
,  // measure 3
0000
0000
0000
0000
,  // measure 4
0000
0000
0000
0000
,  // measure 5
0000
0000
0000
0000
,  // measure 6
0000
0000
0000
0000
,  // measure 7
0000
0000
0000
0000
,  // measure 8
0000
0000
0000
0000
,  // measure 9
1000
0010
0100
0001
0000
0000
0010
0100
,  // measure 10
1000
0001
0100
0001
1000
0000
0100
0000
,  // measure 11
0010
0100
1000
0010
0000
0100
0001
1000
,  // measure 12
0100
1000
0010
0100
0001
0000
0010
0000
,  // measure 13
0100
1000
0001
0100
0000
0001
0010
1000
,  // measure 14
0020
0000
0230
0000
1300
0000
0001
1000
,  // measure 15
0020
0000
2030
0000
3200
0000
0310
0001
,  // measure 16
2000
3020
0230
0302
,  // measure 17
1003
0010
1000
0100
0000
0010
0100
0010
,  // measure 18
0001
0100
0010
1000
0001
0000
0010
0000
,  // measure 19
0100
1000
0010
0100
0000
0010
1000
0001
,  // measure 20
1000
0100
0010
0001
1000
0000
0010
0000
,  // measure 21
0100
0001
1000
0100
0000
1000
0010
0001
,  // measure 22
0020
0000
0230
0000
0301
0000
1000
0100
,  // measure 23
0020
0000
0032
0000
0203
0000
0310
1000
,  // measure 24
0002
0023
0230
2300
,  // measure 25
3001
0100
0010
1000
0000
0100
0010
0000
,  // measure 26
0002
0000
1003
0100
0002
0000
0103
0010
,  // measure 27
0001
1000
0010
0200
0000
0310
1000
0000
,  // measure 28
0002
0000
1003
0010
0002
0000
0013
0100
,  // measure 29
0001
0010
0100
1000
0000
0001
0100
0000
,  // measure 30
0010
0000
1000
0100
0010
0001
1000
0010
,  // measure 31
0200
0300
0000
0000
0020
0030
0000
0000
2000
0000
3100
0010
0001
0000
1000
0000
,  // measure 32
0010
0000
0100
0001
0100
00M0
0100
0000
,  // measure 33
1000
0000
0001
0100
1000
0100
0001
0010
,  // measure 34
0000
0100
0010
1000
0000
0010
0001
0200
,  // measure 35
0000
1300
0001
0020
0000
0230
0000
0301
,  // measure 36
0000
0010
0100
1000
0010
0000
0100
0000
,  // measure 37
1001
0000
0001
0010
0001
0100
0010
0000
,  // measure 38
2000
0000
3002
0010
0000
2003
0010
0000
,  // measure 39
3002
0100
0000
1003
0100
0010
0001
0000
,  // measure 40
1001
0000
0001
0010
0100
M000
0100
0000
,  // measure 41
1000
0000
100M
0100
0001
0100
1000
0010
,  // measure 42
0000
0100
0010
0001
0000
0010
1000
0200
,  // measure 43
0000
0301
1000
0020
0000
0230
0000
1300
,  // measure 44
0000
0001
0100
0010
2000
3100
2000
3001
,  // measure 45
2000
0000
3010
0100
0010
1000
0100
0010
,  // measure 46
0002
0000
2003
0010
0000
3002
0010
0000
,  // measure 47
2003
0100
0000
3002
0103
0002
0013
0100
,  // measure 48
1000
0000
0001
0100
0010
0000
1000
1000
,  // measure 49
0100
0010
0010
0001
0100
0100
0010
1000
,  // measure 50
1000
0001
0010
0010
0100
1000
0010
0100
,  // measure 51
0001
0010
0100
1000
0001
0100
1000
0100
,  // measure 52
0010
1000
0100
0001
0100
1000
0001
0001
,  // measure 53
0100
0010
0010
1000
0100
0100
0010
0100
,  // measure 54
0100
1000
0001
0001
0100
0010
1000
0001
,  // measure 55
1000
0100
0010
0001
1000
0010
0001
0010
,  // measure 56
0100
0001
0010
0100
2000
0000
3010
0010
,  // measure 57
0100
0001
0001
1000
0100
0100
1000
0010
,  // measure 58
0010
0100
0001
0001
1000
0001
0100
0010
,  // measure 59
1000
0100
1000
0001
1000
0100
0001
0100
,  // measure 60
0010
0001
0100
1000
0100
0001
1000
1000
,  // measure 61
0100
0010
0010
0100
1000
1000
0001
0100
,  // measure 62
0100
0010
1000
1000
0001
0010
0100
1000
,  // measure 63
0001
0100
0010
1000
0001
0010
0100
0000
,  // measure 64
0010
0000
0001
1000
0010
0M00
0010
0000
0001
0000
1000
0010
0001
0010
1000
0200
,  // measure 65
0000
0310
0100
0002
0000
1003
0010
0002
0000
1003
0010
0002
0000
0013
0000
0100
,  // measure 66
0000
0001
0010
0100
0010
0000
0001
0000
0000
0000
1000
0010
1000
0100
0010
0000
,  // measure 67
0001
1000
0010
0200
,  // measure 68
0020
0000
0000
0000
0000
0000
0000
0330
0100
0001
1000
0100
1000
0010
0100
0001
,  // measure 69
0010
0000
0100
1000
0010
0M00
0010
0000
,  // measure 70
0001
0000
1000
0010
0001
0010
1000
0100
,  // measure 71
0000
0010
0100
0001
0000
0100
1000
0020
,  // measure 72
0000
0031
1000
0200
0000
0320
0000
1030
,  // measure 73
0000
0100
0010
0001
0200
0000
0320
0000
,  // measure 74
1000
0000
0130
0001
1000
0100
0010
0000
,  // measure 75
0002
0000
2003
0100
0000
3002
0100
0000
,  // measure 76
2003
0010
0000
3001
0020
0000
0230
0000
,  // measure 77
2300
0000
0000
0000
0000
0000
3001
0100
0001
0000
0000
0000
1000
0000
1000
0000
,  // measure 78
0100
0010
0010
0100
1000
1000
0010
0100
,  // measure 79
0100
0001
1000
1000
0001
0100
1000
0100
,  // measure 80
0010
0001
0010
1000
0100
0001
0100
1000
,  // measure 81
0001
0100
1000
0100
0001
1000
0100
0100
,  // measure 82
0010
0001
0001
1000
0010
0010
0100
0010
,  // measure 83
0010
1000
0001
0001
1000
0010
0001
0010
,  // measure 84
0100
1000
0100
0010
1000
0100
0010
0001
,  // measure 85
2000
0000
3010
0100
0001
0010
1000
1000
,  // measure 86
0010
0001
0001
0100
1000
1000
0100
0001
,  // measure 87
0001
0010
1000
1000
0010
0100
1000
0001
,  // measure 88
0100
0010
0100
0001
1000
0100
0001
0100
,  // measure 89
1000
0001
0100
1000
0100
0010
1000
1000
,  // measure 90
0100
0001
0001
0100
1000
1000
0010
0001
,  // measure 91
0001
0010
1000
1000
0100
0010
0001
1000
,  // measure 92
0010
0100
0001
0010
0100
1000
0020
0000
,  // measure 93
0130
0001
1000
0100
0010
0100
1000
0000
,  // measure 94
0001
0000
0100
0010
0000
1000
0010
0M00
,  // measure 95
0010
0001
1000
0010
0100
0010
1000
0100
,  // measure 96
0010
0001
1000
0001
0100
0010
0100
0001
,  // measure 97
1000
0100
0010
0001
1000
0001
0100
0010
,  // measure 98
1000
0100
1000
0001
0100
0010
0100
0001
,  // measure 99
1000
0100
0001
0100
1000
0010
0100
0000
;

//---------------dance-single - FS SS XO BR----------------
#NOTEDATA:;
#CHARTNAME:Medium Switch;
#STEPSTYPE:dance-single;
#DESCRIPTION:FS SS XO BR;
#CHARTSTYLE:;
#DIFFICULTY:Challenge;
#METER:13;
#RADARVALUES:0.575565,0.874119,0.171286,0.364915,0.189905,541.000000,518.000000,23.000000,49.000000,48.000000,5.000000,0.000000,0.000000,45.000000,0.575565,0.874119,0.171286,0.364915,0.189905,541.000000,518.000000,23.000000,49.000000,48.000000,5.000000,0.000000,0.000000,45.000000;
#CREDIT:Highflyer;
#DISPLAYBPM:79.000000:184.000000;
#NOTES:
0000
0000
0000
0000
,
0000
0000
0000
0000
,
0000
0000
0000
0000
,
0000
0000
0000
0000
,
0000
0000
0000
0000
,
0000
0000
0000
0000
,
0000
0000
0000
0000
,
0000
0000
0000
0000
,
0000
0000
0000
0000
,
2000
0000
3010
0200
0000
0301
0010
0001
,
0100
00M0
0100
0000
1000
0000
0001
0000
0200
0000
0000
0000
0320
0000
0000
0000
,
1130
0001
1000
0201
0000
0310
0001
1000
,
0010
0M00
0010
0000
0001
0000
0100
0000
0020
0000
0000
0000
0230
0000
0000
0000
,
0311
1000
0001
1020
0000
0031
0010
1000
,
0020
0000
0130
1000
0001
0000
1000
0010
,
1100
0000
0011
0000
1100
0000
0001
1000
,
0101
1010
0101
2000
,
3011
1000
0001
1010
0000
0100
1000
0001
,
0100
00M0
0100
0000
1000
0000
0001
0000
0200
0000
0000
0000
0320
0000
0000
0000
,
1130
0001
1000
0101
0000
0010
0001
1000
,
0010
0M00
0010
0000
0001
0000
1000
0000
0200
0000
0000
0000
2300
0000
0000
0000
,
3011
0100
0001
1010
0000
0001
0100
1000
,
0200
0000
0320
1030
0000
0001
1000
0001
,
1100
0000
0011
0000
1100
0000
0001
0010
,
0101
1010
0101
0020
,
0031
1000
0010
0100
0000
0001
0010
0000
,
0002
0000
1003
0010
0002
0000
0013
0100
,
0001
0010
0000
0200
0000
1300
0001
0000
,
2000
0000
3001
0010
1000
0010
0100
1000
,
0010
0100
0000
0001
0000
1000
0100
0000
,
0010
0001
1000
0010
,
2000
0000
0000
0000
3002
0000
0000
0000
0023
0000
0000
0031
1000
0000
0001
0000
,
0100
0000
0001
1000
0100
00M0
0100
0000
,
0001
0000
1000
0100
0001
0100
1000
0020
,
0000
0130
0001
0010
0M00
0010
1000
0100
,
00M0
0100
0001
0020
0000
0130
1000
0001
,
0000
1000
0010
0100
0001
0000
0010
0000
,
1001
0000
0001
0100
0010
1000
0100
0000
,
0010
0000
0001
0100
0000
1000
0100
0000
,
0001
0100
0000
1000
0100
0001
0010
0000
,
0100
0000
1000
0010
0100
00M0
0100
0000
,
0010
0M00
0010
0100
1000
0100
0001
0020
,
0000
0130
1000
0010
0M00
0010
0001
0100
,
00M0
0100
1000
0020
0000
0130
0001
1000
,
0000
0100
0010
0100
2000
0000
3002
0000
,
0103
0000
0001
0010
0100
1000
0001
0000
,
1000
0000
0001
0010
0000
1000
0010
0000
,
0001
0010
0000
1000
0010
0000
0001
0000
,
1000
0000
0010
0100
0001
0000
1000
0100
,
00M0
0100
0001
0000
1000
0010
0M00
0010
,
0001
0000
1000
0100
00M0
0100
0010
0000
,
1000
0100
0000
0010
0001
0100
0010
0000
,
0200
0302
0023
0230
2300
3000
0001
0010
,
0M00
0010
1000
0000
0001
0100
00M0
0100
,
1000
0000
0001
0010
0M00
0010
0100
0000
,
0001
0010
0000
0100
1000
0010
0100
0001
,
0010
0100
0010
0000
0002
0000
1003
0010
,
0M00
0010
0001
0000
1000
0100
00M0
0100
,
0001
0000
1000
0010
0M00
0010
0100
0000
,
1000
0010
0000
0100
0001
0010
0100
1000
,
0001
0100
1000
0100
0001
0000
1000
0100
,
00M0
0100
0001
0000
1000
0010
0M00
0010
,
0001
0000
1000
0100
00M0
0100
0010
0000
,
1000
0100
0000
0010
0001
0100
0010
1000
,
0100
0000
1000
0001
0100
00M0
0100
0000
0010
0000
0001
0100
0010
1000
0100
0002
,
0000
0103
1000
0010
0M00
0010
0001
0100
00M0
0100
1000
0010
0000
0100
0000
0001
,
0000
1000
0100
0010
0001
0000
1000
0000
0000
0000
0001
0100
0010
1000
0200
0000
,
0320
0032
0203
0320
,
2030
0000
0000
0000
0000
0000
0000
0000
0000
0000
0000
0000
0000
0000
3001
0100
0001
0000
0010
0000
0100
0000
1000
0000
0010
0000
0100
0000
0010
0000
1000
0000
,
0100
0000
1000
0001
0100
00M0
0100
0000
,
0010
0000
0001
0100
1000
0100
0001
0020
,
0000
0130
1000
0010
0M00
0010
0001
0100
,
00M0
0100
1000
0020
0000
0130
0000
0001
,
0000
1000
0100
0010
0002
0000
2003
0000
,
3010
0000
1000
0100
0010
0100
1000
0000
,
0001
0000
1000
0010
0000
0001
0010
0000
,
1000
0010
0000
0001
0010
0100
0001
0010
,
0200
0000
0000
0000
1300
0000
0001
0100
0001
0000
0000
0000
1000
0000
0100
0000
,
00M0
0100
0001
0000
0001
0010
0M00
0010
,
1000
0000
1000
0100
00M0
0100
0010
0000
,
1000
0100
0000
0010
0001
0100
1000
0100
,
0010
1000
0100
0001
0100
0000
1000
0010
,
0M00
0010
0001
0000
0001
0100
00M0
0100
,
1000
0000
1000
0010
0M00
0010
0100
0000
,
1000
0010
0000
0100
0001
0010
0100
1000
,
0020
0000
0000
0000
0000
1030
0100
0001
,
M0M0
0001
0010
0000
0100
0001
M0M0
0001
,
0010
0000
0100
0001
M0M0
0001
1000
0000
,
0010
0100
0000
0010
1000
0001
0010
1000
,
0010
0100
1000
0010
0001
0010
0100
1000
,
00MM
1000
0010
0000
0100
1000
00MM
1000
,
0010
0000
0100
1000
00MM
1000
0001
0000
,
0010
0100
0000
1000
0001
0100
0010
1000
,
0100
0010
0100
1000
0010
0100
0001
0000
,
1000
0000
0100
0010
0000
0001
0100
00M0
,
0100
0000
1000
0100
0100
0001
0100
0100
1000
0010
0010
0001
0010
0010
1000
0001
,
1000
0100
0010
0100
1000
0001
0100
0010
1000
0001
1000
0100
1000
0001
0100
0010
,
0100
0001
0010
0100
1000
0100
0001
0100
1000
0001
0100
1000
0100
0001
0000
0000
;

//---------------dance-single - Highflyer----------------
#NOTEDATA:;
#CHARTNAME:;
#STEPSTYPE:dance-single;
#DESCRIPTION:Highflyer;
#CHARTSTYLE:;
#DIFFICULTY:Easy;
#METER:6;
#RADARVALUES:0.325551,0.371431,0.000000,0.096814,0.000000,306.000000,306.000000,0.000000,13.000000,0.000000,0.000000,0.000000,0.000000,20.000000,0.325551,0.371431,0.000000,0.096814,0.000000,306.000000,306.000000,0.000000,13.000000,0.000000,0.000000,0.000000,0.000000,20.000000;
#CREDIT:;
#DISPLAYBPM:79.000000:184.000000;
#NOTES:
0000
0000
0000
0000
,
0000
0000
0000
0000
,
0000
0000
0000
0000
,
0000
0000
0000
0000
,
0000
0000
0000
0000
,
0000
0000
0000
0000
,
0000
0000
0000
0000
,
0000
0000
0000
0000
,
0000
0000
0000
0000
,
1000
0000
0000
1000
0000
0000
0010
0000
,
0100
0010
1000
0100
,
0010
0000
0000
0010
0000
0000
0100
0000
,
1000
0001
0100
0010
,
1000
0000
0000
1000
0000
0000
0001
0000
,
0001
0010
0000
0100
,
0010
0010
0010
0100
,
1000
1000
1000
0001
,
0100
0000
0000
0010
0000
0000
0100
0000
,
0001
1000
0100
0010
,
0001
0000
0000
0001
0000
0000
1000
0000
,
0010
0100
0010
1000
,
0100
0000
0000
0100
0000
0000
0010
0000
,
0001
1000
0000
0010
,
0100
0100
0100
0010
,
1000
1000
1000
0100
,
0010
0000
0000
0100
0000
0000
1000
0000
,
0001
0000
0100
0000
,
0010
0000
0000
0100
0000
0000
0010
0000
,
1000
0000
0100
0000
,
0010
0000
0000
0001
0000
0000
1000
0000
,
0010
0100
0010
1000
,
0001
1000
0001
1000
,
1000
0100
0010
0010
,
1000
0001
0010
0001
,
1000
0010
0001
0100
,
1000
0010
0001
0100
,
1000
0010
0100
0010
,
1000
0001
0010
0100
,
0010
0000
0000
0001
0000
0000
0100
0000
,
0000
0010
0000
0000
1000
0000
0100
0000
,
0010
0001
0100
0100
,
0010
0010
1000
0100
,
0001
0010
1000
0100
,
0001
0010
1000
0100
,
0010
0001
0200
0020
,
0330
0010
1000
0100
,
0010
0000
0000
0100
0000
0000
0010
0000
,
0000
0001
0000
0000
1000
0000
0010
0000
,
0100
0000
0000
0010
,
1000
0001
0100
0010
,
1000
0100
0010
0100
,
1000
0001
0100
0010
,
0200
0000
0000
0310
,
1000
0100
0010
0100
,
1000
0001
0100
0010
,
1000
0100
0010
0001
,
1000
1000
0010
0100
,
0001
0010
0100
1000
,
0010
0100
0001
1000
,
0100
1000
0001
0100
,
0020
0000
0000
0130
,
0001
1000
0100
1000
,
0001
0100
0010
1000
,
0100
0010
0100
1000
,
0001
0100
0100
1000
,
0010
0001
0100
1000
,
0010
0100
0001
0010
,
0100
0010
0001
2000
,
0002
0000
0000
3000
1003
0010
0100
0001
,
1000
0010
0100
0100
,
0000
1000
0100
0010
,
0001
0100
1000
0010
,
0001
0100
1000
0010
,
0001
0100
0020
0200
,
0330
0010
1000
0100
,
0010
0000
0000
0001
0000
0000
1000
0000
,
0000
0010
0000
0000
0100
0000
0020
0000
,
2030
0000
3001
0010
,
0001
0100
0010
1000
,
0100
1000
0010
0100
,
0001
0010
0100
0010
,
0002
0000
0000
1003
,
0010
0100
0010
1000
,
0100
0010
0100
1000
,
0001
0100
0010
1000
,
0200
0000
0000
0310
,
0001
0100
0010
0100
,
0001
1000
0100
0010
,
0100
1000
0001
0100
,
0020
0000
0000
1030
,
0001
0100
0010
0100
,
0001
1000
0100
0010
,
0001
1000
0010
0100
,
0010
0000
0000
0100
0000
0000
0010
0000
,
1000
0000
0000
0001
0000
0000
0010
0000
,
0010
1000
0001
1000
,
0100
0010
0100
1000
,
0001
0100
0010
0100
,
0001
1000
0100
0010
,
0001
1000
0010
0100
;

//---------------dance-single - Highflyer----------------
#NOTEDATA:;
#CHARTNAME:;
#STEPSTYPE:dance-single;
#DESCRIPTION:Highflyer;
#CHARTSTYLE:;
#DIFFICULTY:Medium;
#METER:11;
#RADARVALUES:0.435131,0.631433,0.000000,0.223417,0.011171,409.000000,409.000000,0.000000,30.000000,4.000000,0.000000,0.000000,0.000000,30.000000,0.435131,0.631433,0.000000,0.223417,0.011171,409.000000,409.000000,0.000000,30.000000,4.000000,0.000000,0.000000,0.000000,30.000000;
#CREDIT:;
#DISPLAYBPM:79.000000:184.000000;
#NOTES:
0000
0000
0000
0000
,
0000
0000
0000
0000
,
0000
0000
0000
0000
,
0000
0000
0000
0000
,
0000
0000
0000
0000
,
0000
0000
0000
0000
,
0000
0000
0000
0000
,
0000
0000
0000
0000
,
0000
0000
0000
0000
,
1000
0000
0000
0010
0000
0000
0100
0000
,
0001
0010
0100
1000
,
0001
1000
0000
0010
0000
0000
0100
0000
,
0010
1000
0100
0010
,
0001
1000
0000
0010
0000
0000
0100
0010
,
0100
0010
0000
1000
,
0100
0000
0100
0000
0100
0000
0010
0001
,
1000
1000
1000
0010
,
0100
0000
0001
1000
0000
0000
1000
0000
,
0100
0010
0100
1000
,
0001
0100
0000
0010
0000
0000
0100
0000
,
0001
1000
0100
0010
,
0100
0010
0000
0001
0000
0000
1000
0010
,
1000
0000
0100
0000
0000
0000
0010
0001
,
1000
0000
1000
0000
1000
0000
0010
1000
,
0100
0100
0100
0010
,
0001
0100
0000
0010
0000
0010
0100
0000
,
0002
0000
1003
0100
1000
0000
0010
0000
,
1000
0001
0000
0001
0000
0010
0100
0000
,
0010
0000
0001
1000
0010
0000
0100
0000
,
0010
0100
0000
0100
0000
0001
0100
0000
,
0010
0100
0001
0010
,
0100
0000
0000
0000
0010
0000
0000
0000
0001
0000
0000
1000
0001
0000
1000
0000
,
0010
0000
1000
0000
0100
00M0
0100
0000
,
0001
0001
0100
1000
,
0100
0000
0001
0010
0000
1000
0100
0001
,
0000
0010
1000
0100
0000
0010
0000
0001
,
0000
1000
0010
0000
0100
0000
0010
0000
,
0000
1000
0100
0010
,
0001
0000
1000
0010
0000
1000
0100
0000
,
1000
0010
0000
1000
0100
0000
0010
0000
,
0001
1000
0100
0100
,
0010
0010
0001
0100
,
1000
0000
0100
0001
0000
0010
1000
0100
,
0000
0001
0010
1000
0000
0010
0000
0001
,
0000
1000
0010
0000
0200
0000
0002
0000
,
0303
0001
1000
0100
,
0010
0000
0001
1000
0000
0010
1000
0000
,
0100
1000
0000
0001
0100
0000
0010
0000
,
1000
0000
0100
0000
0010
0000
0001
0010
,
0000
0001
0010
0000
0001
0100
0000
0001
,
0100
0000
0010
1000
0000
0001
0010
0000
,
0100
1000
0000
0010
0100
0010
0100
0000
,
0020
0000
2030
0000
3200
0000
0310
0100
,
0000
0010
0100
0000
1000
0001
0000
1000
,
0001
0000
0100
0010
0000
1000
0100
0000
,
0010
0001
0000
1000
0020
0000
0130
0000
,
0002
0000
0023
0000
0130
0000
1000
0010
,
0000
1000
0010
0000
1000
0001
0000
1000
,
0001
0000
1000
0100
0000
0010
0001
0000
,
1000
0010
0000
1000
0200
0000
0310
0000
,
0002
0000
2003
0000
3002
0000
0103
0010
,
0000
0100
0010
0000
1000
0100
0000
1000
,
0100
0000
0010
0001
0000
1000
0010
0000
,
0100
0010
0000
1000
0100
0000
0010
0000
,
0001
0000
1000
0000
0100
00M0
0100
0000
0001
0000
1000
0000
0100
0000
0001
0000
,
0100
1000
0010
0001
0100
1000
0010
0001
,
0010
1000
0100
0010
0000
0001
1000
0010
,
0100
0010
1000
0200
,
0020
0000
0000
0000
0000
0000
0000
0000
0330
0001
0000
0000
1000
0000
0010
0000
,
0100
0000
0001
0000
0100
00M0
0100
0000
,
0000
0000
1000
0000
0001
0000
0100
1000
,
0000
1000
0100
0001
0000
0010
1000
0100
,
0000
0001
0010
1000
0000
0010
0000
0100
,
0000
1000
0001
0000
0200
0000
0020
0000
,
0330
0100
0001
1000
,
0100
0000
1000
0001
0000
1000
0100
0000
,
1000
0010
0000
0100
0001
0000
2000
0000
,
3200
0000
0000
0310
0001
0000
1000
0010
,
0000
1000
0100
0000
1000
0001
0000
1000
,
0010
0000
1000
0100
0000
0010
0001
0000
,
0100
0010
0000
0100
0002
0000
0013
0000
,
0200
0000
2300
0000
3020
0000
0130
0001
,
0000
0100
0010
0000
0100
0001
0000
0100
,
0010
0000
0100
0001
0000
1000
0100
0000
,
0010
0001
0000
1000
0020
0000
0130
0000
,
0002
0000
0000
0000
0000
0000
1003
0010
,
0000
1000
0100
0000
1000
0001
0000
1000
,
0100
0000
1000
0010
0000
0100
0001
0000
,
0010
0100
0000
0010
0002
0000
0103
0000
,
0020
0000
0230
0000
0302
0000
0013
0100
,
0000
0010
0001
0000
0010
0100
0000
0010
,
0001
0000
0010
0100
0000
1000
0001
0000
,
0100
0010
0000
1000
0200
0000
0310
0000
,
0001
0000
1000
0010
1000
0000
0001
0000
,
0010
0000
0100
0010
0000
0100
0010
000M
,
0010
1000
0001
0000
1000
0100
1000
0000
,
0001
0100
0010
0000
0100
0001
1000
0000
,
0100
0010
0100
0000
1000
0001
0100
0000
,
0010
0100
0001
0000
1000
0100
1000
0000
,
0001
0100
0010
0000
0100
0001
0010
0000
;
