#TITLE:Lift You Up;
#SUBTITLE:;
#ARTIST:wolli;
#TITLETRANSLIT:;
#SUBTITLETRANSLIT:;
#ARTISTTRANSLIT:;
#GENRE:;
#CREDIT:;
#MUSIC:Lift You Up.ogg;
#BANNER:Lift You Up.png;
#BACKGROUND:Lift You Up-bg.png;
#CDTITLE:;
#SAMPLESTART:41.292;
#SAMPLELENGTH:15.000;
#SELECTABLE:YES;
#OFFSET:2.580;
#BPMS:0.000=123.000;
#STOPS:;
#BGCHANGES:;
#FGCHANGES:;

//--------------- dance-single - forcednature ----------------
#NOTES:
     dance-single:
     forcednature:
     Beginner:
     1:
     0,0,0,0,0:
0000
0000
0000
0000
,
0000
0000
0000
0000
,
0000
0000
0000
0000
,
0000
0000
0000
0000
,
0000
0000
0000
0000
,
0000
0000
0000
0000
,
0001
0000
0000
0000
,
0000
0000
0000
0000
,
0000
0000
0000
0000
,
0000
0000
0000
0000
,
1000
0000
0000
0000
,
0000
0000
0000
0000
,
0000
0000
0000
0000
,
0000
0000
0000
0000
,
0010
0000
0000
0000
,
0000
0000
0000
0000
,
0000
0000
0000
0000
,
0000
0000
0000
0000
,
0100
0000
0000
0000
,
0000
0000
0000
0000
,
0001
0000
0000
0000
,
0000
0000
0000
0000
,
0000
0000
0000
0000
,
1000
0000
0000
0000
,
0000
0000
0000
0000
,
0001
0000
0000
0000
,
0000
0000
0000
0000
,
0010
0000
0000
0000
,
0000
0000
0000
0000
,
0100
0000
0000
0000
,
0000
0000
0000
0000
,
0000
0000
0000
0000
,
1001
0000
0000
0000
,
0000
0000
0000
0000
,
0000
0000
0000
0000
,
0000
0000
0000
0000
,
0001
0000
0000
0000
,
0000
0000
0000
0000
,
1000
0000
0000
0000
,
0000
0000
0000
0000
,
0010
0000
0000
0000
,
0000
0000
0000
0000
,
0100
0000
0000
0000
,
0000
0000
0000
0000
,
0001
0000
0000
0000
,
0000
0000
0000
0000
,
1000
0000
0000
0000
,
0100
0000
0000
0000
;

//--------------- dance-single - forcednature ----------------
#NOTES:
     dance-single:
     forcednature:
     Easy:
     3:
     0,0,0,0,0:
0000
0000
0000
0000
,
0000
0000
0000
0000
,
0000
0000
0000
0000
,
0000
0000
0000
0000
,
0000
0000
0000
0000
,
0000
0000
0000
0000
,
1000
0000
0000
0000
,
0001
0000
0100
0000
,
0001
0000
0000
0000
,
0010
0000
0000
0000
,
1001
0000
0000
0000
,
1000
0000
0010
0000
,
1000
0000
0000
0000
,
0001
0000
0010
0000
,
0001
0000
0000
0000
,
0100
0000
0010
0000
,
0100
0000
0000
0000
,
0010
0000
0010
0000
,
1000
0000
0000
0000
,
0100
0000
0000
0000
,
0010
0000
0001
0000
,
0010
0000
0200
0000
,
0000
0300
0000
0000
,
1001
0000
0001
1000
,
0001
0000
0000
0000
,
1000
0000
1000
0001
,
1000
0000
0000
0000
,
0010
0000
0010
0100
,
0010
0000
0100
0000
,
0010
0000
0100
0010
,
0100
0000
0000
0000
,
2002
0000
3003
0000
,
1000
0000
0000
0000
,
0100
0000
0000
0000
,
0010
0000
0000
0000
,
0001
0000
0001
0000
,
0100
0000
0000
0000
,
0010
0000
0000
0000
,
1000
0000
0000
0000
,
0001
0000
0001
0000
,
0010
0000
0010
0000
,
0100
0100
1000
0000
,
0001
0000
0001
0000
,
0100
0100
0010
0000
,
1000
0001
1000
0000
,
0001
1000
0001
0000
,
0100
0010
0100
0000
,
2002
0000
0000
0000
,
0000
3003
0000
0000
;

//--------------- dance-single - forcednature ----------------
#NOTES:
     dance-single:
     forcednature:
     Medium:
     8:
     0,0,0,0,0:
0000
0000
0000
0000
,
0000
0000
0000
0000
,
0000
0000
0000
0000
,
0000
0000
0000
0000
,
0000
0000
0000
0000
,
0000
0000
0000
0000
0001
0100
0010
1000
,
0000
0100
0000
0110
0000
0010
0001
1000
,
0000
0010
0100
0000
0001
1000
0100
0010
,
0000
0001
0000
0100
0000
0010
0000
2020
,
0000
3030
0000
0000
0000
0000
0000
0001
,
0020
0100
0230
1000
,
1300
0000
0001
1000
0001
0000
0000
0000
,
2000
0010
3020
0100
,
0130
0000
0001
1000
0001
0000
0000
0000
,
0020
0100
0230
1000
,
1300
0000
0001
0010
0001
0000
0100
0000
,
0010
0000
1000
0000
0001
0100
0001
0000
,
0010
0000
0001
1000
0001
0000
0100
0000
,
0010
0000
0000
0000
1001
0000
0000
0000
1000
0000
0000
0100
0000
0000
0000
0000
,
0010
0000
0000
0000
1001
0000
0000
0000
0001
0000
0000
0100
0000
0000
0000
0000
,
0010
0110
0100
1001
,
1000
0100
0010
0001
0200
0000
0000
0000
,
0310
0100
0010
0000
1000
0001
1000
0001
,
0000
0010
0000
0110
0000
0100
1000
2002
,
0000
3003
0000
0000
0100
0010
0100
0010
,
0000
1000
0000
1100
0000
0100
0010
0022
,
0000
0033
0000
0000
1000
0010
1000
0010
,
0000
0100
0000
0101
0000
0001
1000
0200
,
0000
0310
0020
0000
0130
1000
0100
1000
,
0000
0010
0000
0110
0000
0100
0000
2002
,
0000
0000
3003
0000
1000
1000
0100
0010
,
0002
0000
0000
0000
,
0103
0100
0010
0010
,
1000
1000
0001
0010
,
0100
0100
1000
1000
,
1001
0000
1001
0000
0001
0100
0010
2000
,
0000
3002
0000
0023
0000
0130
1000
0100
,
0000
0010
0001
0000
1000
0010
1000
0002
,
0000
0023
0000
0230
0000
1300
0010
0200
,
0000
0300
0000
0000
0001
1000
0001
1000
,
0100
0010
0001
0000
0100
0010
1000
0000
,
0001
0010
0100
1000
0100
0010
0001
0000
,
1000
0010
0100
0000
0001
0010
0100
0000
,
1000
0001
0100
0001
1000
0100
0010
0000
,
0100
1000
0100
1000
0001
0010
0001
0001
,
0100
0001
0100
0001
1000
0010
1000
1000
,
0100
0010
0001
1000
0010
0010
0100
0000
,
2002
0000
0000
0000
,
0000
3003
0000
0000
;

//--------------- dance-single - forcednature ----------------
#NOTES:
     dance-single:
     forcednature:
     Hard:
     12:
     0,0,0,0,0:
0000
0000
0000
0000
,
0000
0000
0000
0000
,
0000
0000
0000
0000
,
0000
0000
0000
0000
,
0000
0000
0000
0000
,
0000
0000
0000
0000
0000
0000
0000
0000
1000
0000
0100
0000
0010
0000
0001
1000
,
0001
0100
0000
0110
0000
0010
1000
0002
,
0000
0000
0013
0000
1001
0000
0000
0000
0001
0000
0010
0000
0100
0000
1000
0001
,
1000
1010
0000
0110
0000
0101
0000
0001
,
0010
0000
0100
0000
0010
0000
0100
0000
1000
0000
0000
1000
0000
0000
0010
0000
,
1000
0000
0000
0100
0000
0000
1000
0000
0001
0000
0000
0100
0000
0000
0001
0000
,
0010
0000
0000
0100
0000
0000
0010
0000
2002
0000
0000
0000
3003
0000
0001
1000
,
0001
0000
0000
0100
0000
0000
0001
0000
1000
0000
0000
0100
0000
0000
1000
0000
,
0010
0000
0000
0100
0000
0000
0010
0000
2002
0000
0000
0000
3003
0000
1000
0010
,
1000
0000
0000
0100
0000
0000
0001
0000
1000
0000
0000
0010
0000
0000
0001
0000
,
0100
0000
0000
0010
0000
0000
0100
0000
2001
0000
0000
0000
3100
0000
0010
0000
,
0001
0000
0000
0101
0000
0000
0100
0000
0010
0000
0001
0000
0010
0000
1000
0000
,
0100
0000
0000
0110
0000
0000
0010
0000
1002
0000
0000
0000
0103
0000
0010
0000
,
1000
0000
0000
0100
0001
0000
0100
0000
0010
0000
0000
0011
0000
0000
1000
0000
,
0001
0000
0000
0100
1000
0000
0100
0000
0001
0000
0000
1010
0000
0000
1000
0001
,
1000
0000
0000
0100
0010
0000
0001
0000
0100
0000
0000
0000
0110
0000
0000
0000
,
0002
0203
2300
3020
0032
0000
0000
0003
,
0100
0010
0100
0010
0100
0010
0000
0000
1000
0000
1000
0000
0001
1000
0001
0000
,
1001
0000
1000
0001
0100
0000
0010
0000
1000
0000
0001
1000
0100
0000
0010
0000
,
0001
0000
1000
0010
0100
0000
0001
0000
0020
0000
0230
0000
2300
0000
3002
0000
,
0103
0000
0010
1000
0001
0000
0010
0000
0100
0000
1000
0001
0100
0000
0010
0000
,
1000
0000
0001
0010
0100
0000
1000
0000
0020
0000
0230
0000
0302
0000
0023
0000
,
0130
0000
0010
0001
1000
0000
0010
1000
0010
0000
0100
0001
1000
0000
0100
0000
,
1000
0000
0001
0010
0100
0000
1000
0000
0020
0000
0230
0000
0302
0000
0023
0000
,
0130
0000
1000
0001
0010
0000
0100
0000
0010
0000
0001
1000
0010
0000
0100
0001
,
0100
0010
1000
0100
0001
1000
0010
0000
,
2002
0000
0000
3003
,
1000
0000
1000
0000
0100
0020
0000
0001
,
0000
0100
0130
0000
0010
0001
1000
0020
,
0000
0000
0100
0000
1030
0001
0010
0200
,
1000
0000
1000
0000
0310
0001
0100
0110
,
0000
0101
0000
1010
0000
0001
0100
1000
,
0000
0100
0110
0000
0010
1000
0100
0110
,
0000
1100
0000
0011
0000
0001
0100
0001
,
0010
0000
0010
0000
0100
0000
0100
0000
1000
0001
1000
0001
0100
0010
0100
0000
,
0001
0000
1000
0010
1000
0000
0100
0010
0001
0000
1000
0001
0100
0000
0110
0000
,
0010
0000
1000
0001
0010
0000
0100
1000
0100
0000
0010
0000
0011
0000
0101
0000
,
0001
0000
1000
0001
0010
0000
0001
0100
0010
0000
1000
0100
1000
0000
1010
0000
,
0010
0000
0100
0001
1000
0000
0100
0010
0001
0000
1000
0001
1000
0001
1000
0000
,
0100
0000
1100
0000
0100
0000
0110
0000
0100
0000
1100
0000
0100
0010
0000
0001
,
0100
0000
0101
0000
0100
0000
0110
0000
0100
0000
0101
0000
0100
0010
0000
1000
,
0100
1000
0001
0000
0100
0001
1000
0000
0010
0100
0010
0100
0001
1000
0001
1000
,
0200
0000
0000
0000
,
0000
0300
0000
0000
;

//--------------- dance-double - forcednature ----------------
#NOTES:
     dance-double:
     forcednature:
     Easy:
     4:
     0,0,0,0,0:
00000000
00000000
00000000
00000000
,
00000000
00000000
00000000
00000000
,
00000000
00000000
00000000
00000000
,
00000000
00000000
00000000
00000000
,
00000000
00000000
00000000
00000000
,
00000000
00000000
00000000
00000000
,
00001000
00000000
00000000
00000000
,
01000000
00000000
00010000
00000000
,
01000000
00000000
00000000
00000000
,
00100000
00000000
00000000
00000000
,
10010000
00000000
00000000
00000000
,
10000000
00000000
01000000
00000000
,
10000000
00000000
00000000
00000000
,
01000000
00000000
00100000
00000000
,
01000000
00000000
00000000
00000000
,
00100000
00000000
00001000
00000000
,
00010000
00000000
00000000
00000000
,
00000010
00000000
00000010
00000000
,
00001000
00000000
00000000
00000000
,
00000001
00000000
00000000
00000000
,
00000010
00000000
00000100
00000000
,
00001000
00000000
00000020
00000000
,
00000000
00000030
00000000
00000000
,
00001001
00000000
00001000
00000001
,
00001000
00000000
00000000
00000000
,
00000100
00000000
00010000
00001000
,
00010000
00000000
00000000
00000000
,
00001000
00000000
01000000
00010000
,
01000000
00000000
00100000
00000000
,
10000000
00000000
00010000
10000000
,
00010000
00000000
00000000
00000000
,
20020000
00000000
30030000
00000000
,
00010000
00000000
00000000
00000000
,
01000000
00000000
00000000
00000000
,
00001000
00000000
00000000
00000000
,
00010000
00000000
00010000
00000000
,
00000100
00000000
00000000
00000000
,
00001000
00000000
00000000
00000000
,
00000001
00000000
00000000
00000000
,
00000100
00000000
00000100
00000000
,
00000010
00000000
00000010
00000000
,
00001000
00001000
00000010
00000000
,
00000100
00000000
00000001
00000000
,
00000100
00000100
00000001
00000000
,
00001000
00000100
00010000
00000000
,
00001000
01000000
00010000
00000000
,
00100000
01000000
00100000
00000000
,
20020000
00000000
00000000
00000000
,
00000000
30030000
00000000
00000000
;

//--------------- dance-double - forcednature ----------------
#NOTES:
     dance-double:
     forcednature:
     Medium:
     9:
     0,0,0,0,0:
00000000
00000000
00000000
00000000
,
00000000
00000000
00000000
00000000
,
00000000
00000000
00000000
00000000
,
00000000
00000000
00000000
00000000
,
00000000
00000000
00000000
00000000
,
00000000
00000000
00000000
00000000
00001000
00010000
01000000
00100000
,
00000000
00010000
00000000
01010000
00000000
01000000
00100000
10000000
,
00000000
01000000
00010000
00000000
00001000
00000010
00000001
00000100
,
00000000
00000010
00000000
00001000
00000000
00010000
00000000
02020000
,
00000000
03030000
00000000
00000000
00000000
00000000
00000000
10000000
,
02000000
00100000
03200000
00010000
,
00310000
00000000
00100000
00001000
00010000
00000000
00000000
00000000
,
00000020
00001000
00002030
00000001
,
00003001
00000000
00000010
00000100
00001000
00000000
00000000
00000000
,
00000020
00010000
00020030
00001000
,
00031000
00000000
00100000
00010000
10000000
00000000
00100000
00000000
,
01000000
00000000
00001000
00000000
00010000
00000100
00001000
00000000
,
00000010
00000000
00010000
00001000
00000010
00000000
00000001
00000000
,
00000100
00000000
00000000
00000000
00001000
00000000
00000000
00000000
00010000
00000000
00000000
00100000
00000000
00000000
00000000
00000000
,
10000000
00000000
00000000
00000000
01000000
00000000
00000000
00000000
00010000
00000000
00000000
00001000
00000000
00000000
00000000
00000000
,
00000010
00000000
00000000
00000001
00000000
00000000
00000100
00000000
00000010
00000000
00000000
00000000
00001001
00000000
00000000
00000000
,
00000001
00000100
00001000
00010000
00200000
00000000
00000000
00000000
,
00000000
00000000
00300000
00000000
10000000
00010000
10000000
01000000
,
00000000
00010000
00000000
00011000
00000000
00001000
00100000
00020000
,
00000000
00030000
00000000
00000000
01000000
00001000
00010000
00000010
,
00000000
00001000
00000000
00001100
00000000
00000100
00000010
00000002
,
00000000
00000003
00000000
00000000
00000100
00000001
00000100
00000010
,
00000000
00010000
00000000
00011000
00000000
00001000
00100000
02000000
,
00000000
13000000
20000000
00000000
30100000
01000000
00010000
01000000
,
00000000
00001000
00000000
00011000
00000000
00000100
00000000
00002002
,
00000000
00000000
00003003
00000000
00000001
00000100
00001000
00000000
,
00022000
00000000
00000000
00033000
,
00001000
00001000
01000000
00001000
,
00010000
00010000
00000100
00010000
,
00001000
00001000
00100000
00001000
,
00011000
00000000
00011000
00000000
00010000
00000010
00001000
00000200
,
00000000
00000320
00000000
00000032
00000000
00000103
00000001
00000100
,
00000000
00001000
00010000
00000000
00100000
01000000
00100000
20000000
,
00000000
32000000
00000000
03020000
00000000
00031000
00100000
00020000
,
00000000
00030000
00000000
00000000
01000000
00001000
00010000
00001000
,
00000010
00000100
00001000
00000000
00000010
00000100
00000001
00000000
,
00000010
00000100
00010000
00001000
01000000
00100000
10000000
00000000
,
00010000
00100000
01000000
00000000
00100000
00001000
00010000
00000000
,
00000010
00001000
00000100
00000010
00000100
00010000
00001000
00000000
,
01000000
00010000
01000000
00010000
00100000
00001000
00010000
00010000
,
00000100
00001000
00000100
00001000
00000010
00010000
00001000
00001000
,
01000000
00100000
00010000
00001000
00000010
00000010
00000100
00000000
,
00002002
00000000
00000000
00000000
,
00000000
00003003
00000000
00000000
;

//--------------- dance-double - forcednature ----------------
#NOTES:
     dance-double:
     forcednature:
     Hard:
     12:
     0,0,0,0,0:
00000000
00000000
00000000
00000000
,
00000000
00000000
00000000
00000000
,
00000000
00000000
00000000
00000000
,
00000000
00000000
00000000
00000000
,
00000000
00000000
00000000
00000000
,
00000000
00000000
00000000
00000000
00000000
00000000
00000000
00000000
00001000
00000000
00010000
00000000
00100000
00000000
01000000
00100000
,
01000000
00010000
00000000
00110000
00000000
00100000
01000000
00020000
,
00000000
00000000
00031000
00000000
00000010
00000000
00000000
00000000
00000100
00000000
00001000
00000000
00000001
00000000
00000100
00000001
,
00000100
00000010
00000000
00001010
00000000
00011000
00000000
01010000
,
00000000
00000000
01000000
00000000
00100000
00000000
01000000
00000000
00010000
00000000
00000000
00010000
00000000
00000000
00100000
00000000
,
01000000
00000000
00000000
10000000
00000000
00000000
01000000
00000000
00010000
00000000
00000000
00001000
00000000
00000000
00010000
00000000
,
00001000
00000000
00000000
00000010
00000000
00000000
00000001
00000000
00000200
00000000
00000000
00000000
00000300
00000000
00000001
00001000
,
00000001
00000000
00000000
00000100
00000000
00000000
00001000
00000000
00010000
00000000
00000000
00001000
00000000
00000000
00000100
00000000
,
00000010
00000000
00000000
00001000
00000000
00000000
00010000
00000000
02000000
00000000
00000000
00000000
03000000
00000000
00010000
10000000
,
00010000
00000000
00000000
00100000
00000000
00000000
01000000
00000000
00010000
00000000
00000000
00001000
00000000
00000000
00000010
00000000
,
00000100
00000000
00000000
00001000
00000000
00000000
00000010
00000000
00000200
00000000
00000000
00000000
00000301
00000000
00000010
00000000
,
00001000
00000000
00000000
00011000
00000000
00000000
00010000
00000000
00100000
00000000
10000000
00000000
01000000
00000000
10000000
00000000
,
00100000
00000000
00000000
00010000
00000000
00000000
00001000
00000000
00000020
00000000
00000000
00000000
00000130
00000000
00001000
00000000
,
00000001
00000000
00000000
00000001
00000100
00000000
00001000
00000000
00010000
00000000
00000000
00011000
00000000
00000000
00001000
00000000
,
00010000
00000000
00000000
00010000
00100000
00000000
10000000
00000000
01000000
00000000
00000000
01100000
00000000
00000000
00100000
01000000
,
10000000
00000000
00000000
00100000
10000000
00000000
01000000
00000000
00010000
00000000
00000000
00000000
00011000
00000000
00000000
00000000
,
00002000
00003200
00000302
00000023
00002030
00000000
00000000
00003000
,
00010000
00000100
00001000
00000100
00010000
00000100
00000000
00000000
00000010
00000000
00000010
00000000
00000001
00000100
00000010
00000000
,
00001000
00000000
00000100
00010000
00001000
00000000
00100000
00000000
00010000
00000000
01000000
00001000
00010000
00000000
00000010
00000000
,
00001000
00000000
00000100
00010000
00001000
00000000
00100000
00000000
02000000
00000000
03020000
00000000
00032000
00000000
00003020
00000000
,
00000031
00000000
00000100
00000010
00001000
00000000
00000100
00000000
00010000
00000000
00001000
01000000
00010000
00000000
00100000
00000000
,
01000000
00000000
10000000
00010000
01000000
00000000
00001000
00000000
00020000
00000000
00230000
00000000
20300000
00000000
32000000
00000000
,
03100000
00000000
00001000
00010000
00000100
00000000
00001000
00000100
00001000
00000000
00000100
00000010
00000001
00000000
00001000
00000000
,
00000010
00000000
00010000
00001000
01000000
00000000
00010000
00000000
00200000
00000000
02300000
00000000
03020000
00000000
00032000
00000000
,
00003010
00000000
00000100
00001000
00000001
00000000
00000100
00000000
00000010
00000000
00010000
00001000
01000000
00000000
00010000
10000000
,
00010000
01000000
00100000
00010000
00001000
00000010
00000100
00000000
,
00002002
00000000
00000000
00003003
,
00000001
00000000
00000001
00000000
00000100
00002000
00000000
00010000
,
00000000
00100000
00103000
00000000
00001000
00010000
00100000
02000000
,
00000000
00000000
10000000
00000000
03100000
01000000
00001000
00020000
,
00000100
00000000
00000100
00000000
00031000
00000010
00000001
00000101
,
00000000
00001100
00000000
00011000
00000000
00010000
01000000
10000000
,
00000000
00100000
01100000
00000000
00100000
00010000
00001000
00011000
,
00000000
00001010
00000000
00000011
00000000
00000001
00000100
00001000
,
00010000
00000000
00010000
00000000
00100000
00000000
00100000
00000000
10000000
00010000
10000000
00010000
00100000
01000000
00100000
00000000
,
01000000
00000000
10000000
01000000
00100000
00000000
01000000
00100000
00010000
00000000
01000000
00001000
00010000
00000000
00011000
00000000
,
00001000
00000000
00010000
00000100
00001000
00000000
00000010
00000100
00000010
00000000
00001000
00000000
00001100
00000000
00000110
00000000
,
00000010
00000000
00000001
00000100
00000010
00000000
00001000
00000100
00010000
00000000
00001000
01000000
00010000
00000000
00110000
00000000
,
00100000
00000000
01000000
10000000
00010000
00000000
01000000
00001000
00010000
00000000
00000100
00001000
00000100
00001000
00000100
00000000
,
00000010
00000000
00001000
00000000
00010000
00000000
00001000
00000000
01000000
00000000
00001000
00000000
00010000
00000010
00000000
00001000
,
00000100
00000000
00010000
00000000
00001000
00000000
00010000
00000000
00100000
00000000
00010000
00000000
00001000
01000000
00000000
00010000
,
00100000
01000000
00100000
00000000
01000000
10000000
01000000
00000000
00010000
00001000
00010000
00000100
00001000
00000100
00000010
00000000
,
00002002
00000000
00000000
00000000
,
00000000
00003003
00000000
00000000
;
