#VERSION:0.83;
#TITLE:Let's Go To The Mall;
#SUBTITLE:;
#ARTIST:Robin Sparkles;
#TITLETRANSLIT:;
#SUBTITLETRANSLIT:;
#ARTISTTRANSLIT:;
#GENRE:;
#ORIGIN:;
#CREDIT:;
#BANNER:;
#BACKGROUND:;
#PREVIEWVID:;
#JACKET:jacket.png;
#CDIMAGE:;
#DISCIMAGE:;
#LYRICSPATH:;
#CDTITLE:;
#MUSIC:Let's Go To The Mall.ogg;
#OFFSET:0.555000;
#SAMPLESTART:43.431099;
#SAMPLELENGTH:16.000006;
#SELECTABLE:YES;
#BPMS:0.000=120.000;
#STOPS:;
#DELAYS:;
#WARPS:;
#TIMESIGNATURES:0.000=4=4;
#TICKCOUNTS:0.000=4;
#COMBOS:0.000=1;
#SPEEDS:0.000=1.000=0.000=0;
#SCROLLS:0.000=1.000;
#FAKES:;
#LABELS:0.000=Song Start;
#BGCHANGES:1.000=Let's Go To The Mall.avi=1.000=0=0=1=====,
99999=-nosongbg-=1.000=0=0=0 // don't automatically add -songbackground-
;
#KEYSOUNDS:;
#ATTACKS:
;

//---------------dance-single - ----------------
#NOTEDATA:;
#CHARTNAME:;
#STEPSTYPE:dance-single;
#DESCRIPTION:;
#CHARTSTYLE:;
#DIFFICULTY:Beginner;
#METER:2;
#RADARVALUES:0.096427,0.142415,0.007417,0.029670,0.000000,91.000000,90.000000,1.000000,4.000000,0.000000,0.000000,0.000000,0.000000,0.000000,0.096427,0.142415,0.007417,0.029670,0.000000,91.000000,90.000000,1.000000,4.000000,0.000000,0.000000,0.000000,0.000000,0.000000;
#CREDIT:Venomothim;
#NOTES:
// measure 0
0000
0000
0000
0000
,  // measure 1
0000
0000
0000
0000
,  // measure 2
0000
0000
0000
0000
,  // measure 3
1000
0000
0000
0000
,  // measure 4
0001
0000
0000
0000
,  // measure 5
0100
0000
0000
0000
,  // measure 6
0010
0000
0000
0000
,  // measure 7
1000
0000
1000
0000
,  // measure 8
0100
0000
0100
0000
,  // measure 9
0010
0000
0010
0000
,  // measure 10
0001
0000
0001
0000
,  // measure 11
0100
0000
0100
0000
,  // measure 12
0010
0000
0010
0000
,  // measure 13
1000
0000
1000
0000
,  // measure 14
0001
0000
0001
0000
,  // measure 15
2000
0000
0000
3000
,  // measure 16
0002
0000
0000
0003
,  // measure 17
0200
0000
0000
0300
,  // measure 18
0020
0000
0000
0030
,  // measure 19
1000
0000
1000
0000
,  // measure 20
0001
0000
0001
0000
,  // measure 21
0100
0000
0000
0000
,  // measure 22
0001
0000
0001
0000
,  // measure 23
0001
0000
0000
0000
,  // measure 24
1000
0000
1000
0000
,  // measure 25
1000
0000
0000
0000
,  // measure 26
0100
0000
0100
0000
,  // measure 27
0100
0000
0000
0000
,  // measure 28
0010
0000
0000
0000
,  // measure 29
0010
0000
0000
0000
,  // measure 30
0001
0000
0001
0000
,  // measure 31
0100
0000
0100
0000
,  // measure 32
0010
0000
0010
0000
,  // measure 33
1000
0000
1000
0000
,  // measure 34
0100
0000
0100
0000
,  // measure 35
0010
0000
0010
0000
,  // measure 36
0001
0000
0001
0000
,  // measure 37
1000
0000
1000
0000
,  // measure 38
1001
0000
0000
0000
,  // measure 39
0001
0000
0000
0000
,  // measure 40
0100
0000
0000
0000
,  // measure 41
0010
0000
0000
0000
,  // measure 42
1000
0000
0000
0000
,  // measure 43
0000
0000
0000
0000
,  // measure 44
1000
0000
1000
0000
,  // measure 45
0100
0000
0000
0000
,  // measure 46
0010
0000
0010
0000
,  // measure 47
0001
0000
0000
0000
,  // measure 48
0001
0000
0001
0000
,  // measure 49
0100
0000
0000
0000
,  // measure 50
0010
0000
0010
0000
,  // measure 51
1000
0000
0000
0000
,  // measure 52
0001
0000
0001
0000
,  // measure 53
1000
0000
0000
0000
,  // measure 54
1000
0000
1000
0000
,  // measure 55
0001
0000
0000
0000
,  // measure 56
0100
0000
0100
0000
,  // measure 57
0010
0000
0000
0000
,  // measure 58
0010
0000
0010
0000
,  // measure 59
0100
0000
0000
0000
,  // measure 60
0001
0000
0000
0000
,  // measure 61
0010
0000
0000
0000
,  // measure 62
0100
0000
0000
0000
,  // measure 63
1000
0000
0000
0000
,  // measure 64
0001
0000
0000
0000
;

//---------------dance-single - ----------------
#NOTEDATA:;
#CHARTNAME:;
#STEPSTYPE:dance-single;
#DESCRIPTION:;
#CHARTSTYLE:;
#DIFFICULTY:Easy;
#METER:4;
#RADARVALUES:0.191794,0.244776,0.037087,0.074175,0.000000,181.000000,176.000000,5.000000,10.000000,0.000000,0.000000,0.000000,0.000000,0.000000,0.191794,0.244776,0.037087,0.074175,0.000000,181.000000,176.000000,5.000000,10.000000,0.000000,0.000000,0.000000,0.000000,0.000000;
#CREDIT:Venomothim;
#NOTES:
0000
0000
0000
0000
,
0000
0000
0000
0000
,
0000
0000
0000
0000
,
1000
0000
0001
0000
,
0100
0000
0010
0000
,
1000
0000
0100
0000
,
0010
0000
0001
0000
,
1000
1000
0100
0000
,
0010
0010
0001
0000
,
1000
0010
0100
0001
,
0010
0100
1000
0000
,
0001
0001
0010
0000
,
0001
0001
1000
0000
,
0001
0100
0010
1000
,
0100
0010
0001
0000
,
0200
0000
1000
0000
,
0010
0000
0301
0001
,
0020
0000
0001
0000
,
0100
0000
0031
0001
,
1000
1000
0010
0010
,
0100
0100
0001
0001
,
0110
0000
0110
0000
,
1000
0100
0010
0001
,
0100
0010
1000
0000
,
0001
0010
0100
1000
,
0010
0100
0001
0000
,
1000
1000
0001
0001
,
0100
0000
0100
0000
,
0010
0000
0010
0000
,
0100
0000
0001
0000
,
1000
0100
0010
0000
,
0001
0100
0010
0000
,
1000
0001
0101
0000
,
0001
1000
1100
0000
,
1000
0010
0001
0000
,
0001
0010
1000
0000
,
0001
0001
0100
0000
,
0010
1000
0100
0000
,
2001
0000
0000
0000
,
3200
0000
0000
0000
,
0320
0000
0000
0000
,
0032
0000
0000
0000
,
1003
1000
0010
0010
,
0100
0100
0001
0001
,
1000
0100
0010
0001
,
0100
0010
1000
0000
,
0001
0010
0100
1000
,
0010
0100
0001
0000
,
1000
0100
0010
0100
,
1000
0000
1000
0000
,
0001
0000
0001
0000
,
1000
0000
1000
0000
,
0001
0100
0010
1000
,
0100
0010
0001
0000
,
0001
1000
0100
0010
,
0100
1000
0001
0000
,
0001
0100
0010
0100
,
0001
0000
0001
0000
,
1000
0000
1000
0000
,
0100
0000
0100
0000
,
1000
0000
0010
0000
,
0100
0000
0001
0001
,
0010
0000
0001
0000
,
0100
0000
0010
0010
,
2000
0000
3002
0000
,
0203
0000
0320
0000
,
0030
0000
0000
0000
;

//---------------dance-single - ----------------
#NOTEDATA:;
#CHARTNAME:;
#STEPSTYPE:dance-single;
#DESCRIPTION:;
#CHARTSTYLE:;
#DIFFICULTY:Medium;
#METER:7;
#RADARVALUES:0.314712,0.391642,0.222524,0.126097,0.000000,297.000000,267.000000,30.000000,17.000000,0.000000,0.000000,0.000000,0.000000,0.000000,0.314712,0.391642,0.222524,0.126097,0.000000,297.000000,267.000000,30.000000,17.000000,0.000000,0.000000,0.000000,0.000000,0.000000;
#CREDIT:Venomothim;
#NOTES:
0000
0000
0000
0000
,
0000
0000
0000
0000
,
0000
0000
0000
0000
,
1000
0100
0010
0000
,
0001
0100
0010
0000
,
1000
0001
0100
0000
,
0001
1000
0100
0000
,
1000
0000
0010
0000
0100
0001
1000
0000
,
0001
0000
0010
0000
0100
1000
0001
0000
,
0100
0100
0010
0100
,
0001
1000
1100
0011
,
1000
0000
0010
0000
0100
0001
1000
0000
,
0001
0000
0010
0000
0100
1000
0001
0000
,
0100
0000
0010
0000
0100
0001
1000
0000
,
0100
0010
0110
1001
,
0002
0000
0100
0010
,
0100
0010
1003
0000
,
2000
0000
0010
0100
,
0010
0100
3001
1001
,
0001
0100
0010
1000
,
0100
0010
0100
0000
1000
0000
0001
0000
,
0100
0100
0100
0000
0010
0000
1001
0000
,
0001
0100
0010
0100
,
0001
1000
0000
0100
0000
0010
0100
0000
,
1000
0010
0100
0010
,
1000
0001
0000
0010
0000
0001
1000
0000
,
0002
0100
2003
0010
,
3001
0101
1000
1100
,
0001
0000
1000
0100
0010
0000
0001
0000
,
1000
0000
0001
0100
0010
0000
0000
0000
,
1000
0100
1000
0000
1010
0000
1100
0000
,
0001
0010
0001
0000
0101
0000
0011
0000
,
0001
1000
0100
0000
0010
0001
0100
0000
,
0010
0010
0010
0000
1010
0000
0101
0000
,
0001
0010
1000
0000
1000
0010
0001
0000
,
1000
0010
0001
0000
0001
0010
1000
0000
,
0100
0100
0100
0000
0110
0000
0011
0000
,
0001
0100
0010
0000
0110
0000
1010
0000
,
2001
0000
0100
0000
,
3002
0000
0100
0000
,
2003
0000
0010
0000
,
3002
0000
0010
0000
,
1003
0100
1000
0000
0010
0000
0100
0000
,
0001
0010
0001
0000
0100
0000
0010
0000
,
1000
0100
0010
0001
,
1000
0010
0000
0100
0000
0100
0001
0000
,
0001
0010
0100
1000
,
0001
0100
0000
0010
0000
0010
1000
0000
,
0002
0100
2003
0010
,
3001
0101
1000
1100
,
1000
0000
0100
0000
0010
0001
1000
0000
,
0001
0000
0100
0000
0010
1000
0001
0000
,
0001
0100
0010
1000
,
0001
0100
0000
0010
0000
0100
0001
0000
,
1000
0100
0010
0001
,
1000
0100
0000
0010
0000
0100
1000
0000
,
0002
0010
2003
0100
,
3001
0011
1000
1010
,
1000
0000
0010
0000
0100
0001
1000
0000
,
0001
0000
0010
0000
0100
1000
0001
0000
,
1000
0100
0010
0000
0110
0000
0000
0000
,
0001
1000
0010
0000
0110
0000
0101
0000
,
0001
0010
0100
0000
0110
0000
0000
0000
,
0010
0100
1000
0000
1100
0000
1010
0000
,
1002
0000
0203
0000
,
0320
0000
2030
0002
,
3003
0000
0000
0000
;

//---------------dance-single - ----------------
#NOTEDATA:;
#CHARTNAME:;
#STEPSTYPE:dance-single;
#DESCRIPTION:;
#CHARTSTYLE:;
#DIFFICULTY:Hard;
#METER:13;
#RADARVALUES:0.492731,0.636418,0.200271,0.385708,0.378291,465.000000,438.000000,27.000000,52.000000,0.000000,0.000000,0.000000,0.000000,0.000000,0.492731,0.636418,0.200271,0.385708,0.378291,465.000000,438.000000,27.000000,52.000000,0.000000,0.000000,0.000000,0.000000,0.000000;
#CREDIT:Venomothim;
#NOTES:
0000
0000
0000
0000
,
0000
0000
0000
0000
,
0000
0000
0000
0000
,
1000
0000
0000
0000
0001
0000
0000
0100
0000
0010
0100
0000
0001
0000
1000
0000
,
0001
0000
0000
0000
1000
0000
0000
0100
0000
0010
0100
0000
1000
0000
0001
0000
,
0100
0000
0000
0000
0010
0000
0000
1000
0000
0100
0010
0000
0100
0000
1000
0000
,
0001
0000
0000
0000
0100
0000
0000
0010
0000
0100
0001
0000
1000
0000
0000
0000
,
0101
0000
0000
0000
1000
0100
0000
0000
0001
0000
0100
0000
1000
0000
0000
0000
,
1100
0000
0000
0000
0001
0100
0000
0000
0002
0000
0000
0000
1003
0000
0000
0000
,
0010
0000
1000
0000
0100
0000
0000
0000
0010
0000
0001
0100
0000
0000
0010
0000
,
2000
0100
0010
3001
,
0001
0000
1000
0000
0100
0000
0001
0000
0100
0000
0010
0001
0000
0001
1000
0000
,
0010
0000
0100
0001
0100
0000
0010
0000
2000
0000
0001
0000
3001
0000
0000
0000
,
1000
0000
0100
0010
0001
0000
0000
0000
0001
0000
0100
0010
0000
0010
1000
0000
,
0100
0000
0000
0000
0110
0000
0000
0000
0001
0000
0100
0001
0000
0000
0000
0000
,
2000
0000
0000
3001
0010
1000
0001
0100
,
2000
0001
0000
3001
0000
0100
0010
1000
,
0002
0000
0000
1003
0010
0001
1000
0100
,
0002
0000
1000
0000
0000
0000
1003
0000
0000
0000
0000
0010
1000
0000
0000
0000
,
0100
0000
1010
0000
0001
0010
0011
0001
,
0100
0000
0010
0100
0000
0000
0001
0000
0011
0000
0000
0000
1100
0000
0000
0000
,
1000
0010
0000
0010
0100
0000
0100
0001
0000
0001
1000
0000
1001
0000
1001
0000
,
0002
0100
1003
0000
2000
0100
3001
0000
,
0001
0000
0100
0000
1000
0000
0100
0010
0000
0100
0010
0000
1000
0000
0000
0000
,
2000
0010
3001
0000
0002
0010
1003
0000
,
1000
0000
0010
0000
0001
0000
0010
0100
0000
0010
0100
0000
0001
0000
0000
0000
,
2000
3200
0320
0032
,
1003
0000
0000
0000
1010
0000
0000
0001
0000
1000
0001
0000
0011
0000
0001
0000
,
1000
0000
0000
0000
0010
0000
0000
1000
0000
0100
0010
0000
0100
0000
1000
0000
,
0001
0000
0000
0000
0100
0000
0000
0010
0000
0100
0001
0000
1000
0000
0000
0001
,
0010
0000
0100
0000
0010
0000
0100
0000
1000
0001
1000
0001
1000
0000
0000
0001
,
0100
0000
0010
0000
0100
0000
0001
1000
0000
1000
0100
0000
0010
0000
0000
0001
,
1000
0000
1000
0000
0010
0100
0010
0100
0001
0000
0001
0000
1000
0000
0000
0100
,
1000
0000
1000
0000
0010
0000
0100
0001
0010
0000
0110
0000
1001
0000
0000
0001
,
1000
0100
0001
1000
0010
0001
1000
0000
,
0001
0100
1000
0001
0010
1000
0001
1000
,
0100
0000
0010
0000
0001
0000
0001
0100
0010
0000
0010
1000
0000
0000
0100
1000
,
0010
0100
0000
0100
0001
0000
0001
0010
0000
0010
0100
0000
0010
0000
0001
1000
,
0002
0000
0000
0000
0000
0103
0010
0200
0000
0010
0320
0000
0000
0000
0000
0000
,
2030
0000
0000
0000
0000
3100
0010
0200
0000
0010
0320
0000
0000
0000
0000
0000
,
0032
0000
0000
0000
0000
1003
0010
2000
0000
0010
3020
0000
0000
0000
0100
0000
,
0230
0000
0000
0000
0000
0301
1000
0002
0000
0010
0023
0000
0130
1000
0100
1000
,
0010
1000
0000
1000
0010
0000
0010
0100
0000
0100
0001
0000
1010
0000
0101
0000
,
1000
0100
0000
0100
0010
0000
0010
0001
0000
0001
0100
0000
0101
0000
1010
0000
,
0002
0010
1003
0000
2000
0010
3001
0000
,
0001
0000
0010
0000
1000
0000
0010
0100
0000
0010
0100
0000
1000
0000
0000
0000
,
2000
0010
3001
0000
0002
0010
1003
0000
,
1000
0000
0010
0000
0001
0000
0010
0100
0000
0010
0100
0000
0001
0000
0000
0000
,
2000
3200
0320
0032
,
0103
0000
0000
0000
1001
0000
0000
0001
0000
1000
0100
0000
0110
0000
0010
0000
,
0001
0000
0000
0000
1000
0000
0000
0100
0000
1000
0001
0000
1001
0000
0000
0000
,
1000
0000
0000
0000
0001
0000
0000
0100
0000
0001
1000
0000
1001
0000
0000
0000
,
0002
0100
1003
0000
2000
0100
3001
0000
,
0001
0000
0100
0000
1000
0000
0100
0010
0000
0100
0010
0000
1000
0000
0000
0000
,
2000
0100
3001
0000
0002
0100
1003
0000
,
1000
0000
0100
0000
0001
0000
0100
0010
0000
0100
0010
0000
0001
0000
0000
0000
,
0002
0203
0320
2030
,
3100
0000
0000
0000
1001
0000
0000
1000
0000
0001
0100
0000
0110
0000
0010
0000
,
1000
0000
0000
0000
1100
0000
0000
0001
0000
0100
0010
0000
1000
0000
0001
0000
,
1000
0000
0000
0000
0011
0000
0000
1000
0000
0100
0010
0000
0001
0000
0000
0000
,
1000
0100
0001
0100
1000
0000
1010
0000
,
0001
0000
0100
0000
1000
0000
0100
0001
0000
0001
0000
1000
0000
0000
0000
0000
,
0001
0010
1000
0010
0001
0000
0011
0000
,
1000
0000
0010
0000
0001
0000
0010
1000
0000
1000
0000
0002
0000
0000
0203
0000
,
0000
0000
0320
2030
0000
0000
3200
0320
,
0000
0000
0032
0203
0000
0020
0000
0000
,
0330
0000
0000
0000
;
