#VERSION:0.83;
#TITLE:Let's Get It Started;
#SUBTITLE:(Disco Funk ver.);
#ARTIST:Aruvn;
#TITLETRANSLIT:;
#SUBTITLETRANSLIT:;
#ARTISTTRANSLIT:;
#GENRE:;
#ORIGIN:;
#CREDIT:;
#BANNER:Let's Get It Started (Disco Funk ver.).png;
#BACKGROUND:Let's Get It Started (Disco Funk ver.)-bg.png;
#PREVIEWVID:;
#JACKET:Let's Get It Started (Disco Funk ver.)-jacket.png;
#CDIMAGE:;
#DISCIMAGE:;
#LYRICSPATH:;
#CDTITLE:;
#MUSIC:Let's Get It Started (Disco Funk ver.).ogg;
#OFFSET:-0.680000;
#SAMPLESTART:48.660358;
#SAMPLELENGTH:16.779186;
#SELECTABLE:YES;
#BPMS:0.000=118.000,
171.000=59.000,
189.000=118.000;
#STOPS:3.750=2.034,
90.000=0.508;
#DELAYS:;
#WARPS:;
#TIMESIGNATURES:0.000=4=4;
#TICKCOUNTS:0.000=4;
#COMBOS:0.000=1;
#SPEEDS:0.000=1.000=0.000=0;
#SCROLLS:0.000=1.000;
#FAKES:;
#LABELS:0.000=Song Start;
#BGCHANGES:;
#KEYSOUNDS:;
#ATTACKS:
;

//---------------dance-single - ----------------
#NOTEDATA:;
#CHARTNAME:;
#STEPSTYPE:dance-single;
#DESCRIPTION:;
#CHARTSTYLE:;
#DIFFICULTY:Hard;
#METER:14;
#RADARVALUES:0.575033,0.684420,0.069401,0.305363,0.669716,580.000000,570.000000,10.000000,44.000000,8.000000,0.000000,0.000000,0.000000,0.000000,0.575033,0.684420,0.069401,0.305363,0.669716,580.000000,570.000000,10.000000,44.000000,8.000000,0.000000,0.000000,0.000000,0.000000;
#CREDIT:;
#NOTES:
// measure 0
0000
0000
0000
0000
,  // measure 1
0000
0000
0000
0000
,  // measure 2
0000
0000
0000
0000
0000
0000
0000
0000
1000
0100
1000
0100
0010
0001
0010
0001
,  // measure 3
1000
0000
0001
0100
0010
0100
0001
0000
1000
0000
0001
0010
0100
0000
0100
1000
,  // measure 4
0000
1000
0001
0000
1000
0000
0010
0000
0002
0000
0013
0000
2000
0000
3000
0000
,  // measure 5
0001
0000
1000
0100
0010
0100
1000
0100
0010
0000
0000
0001
0000
0000
1001
0000
,  // measure 6
0000
0000
0001
0100
0010
0000
0000
0000
0100
0000
0000
0000
MMMM
0000
0000
0000
,  // measure 7
1000
0000
0000
1000
0000
0000
0100
0000
0010
0000
0000
0010
0000
0000
0001
0000
,  // measure 8
1000
0000
0000
1000
0000
0000
0010
0000
0100
0000
0001
0000
1000
0000
0000
0000
,  // measure 9
0001
0000
0000
0001
0000
0000
0100
0000
0010
0000
0000
0010
0000
0000
1000
0000
,  // measure 10
0001
0010
1000
0001
0100
1000
0001
0001
,  // measure 11
1000
0000
0000
1000
0000
0000
0001
0000
0100
0000
1000
0000
0100
0000
0001
0000
,  // measure 12
1000
0000
0000
1000
0000
0000
0100
0000
0010
0000
0000
0000
0100
0000
0010
0000
,  // measure 13
0001
0000
0000
0001
0000
0000
1000
0000
0010
0000
0001
0000
0010
0000
1000
0000
,  // measure 14
0001
0000
0000
0001
0000
0000
0001
0010
0100
0000
1000
0000
0010
0100
0001
0000
,  // measure 15
1000
0000
0001
0010
0100
0000
1000
0000
0010
0000
0100
0001
1000
0000
0100
0000
,  // measure 16
0010
0000
0001
1000
0010
0000
0100
0000
0001
0000
1000
0000
1001
0000
0000
0000
,  // measure 17
0001
0000
1000
0100
0010
0100
1000
0000
0001
0000
1000
0010
0100
0000
0010
0100
,  // measure 18
0001
0000
1000
0010
0100
0010
1000
0001
0010
0100
1000
0001
1000
0000
0001
0000
,  // measure 19
2000
0000
0000
3010
0000
0000
0020
0000
0000
0000
0130
0000
0000
0000
0010
0100
,  // measure 20
0002
0000
0000
0013
0000
0000
0020
0000
0000
0000
0130
0000
0000
0000
0010
0100
,  // measure 21
2000
0000
0000
3010
0000
0000
0020
0000
0000
0000
0130
0010
1000
0001
1000
0100
,  // measure 22
0010
0010
0110
0110
1MM1
0000
1000
0010
,  // measure 23
0100
0010
1000
0100
0010
0000
0010
0001
0000
0001
2000
0000
0000
0000
0001
0000
,  // measure 24
3001
0000
1000
0000
0010
0000
0001
0010
0100
0001
1000
0100
0020
0000
0000
0000
,  // measure 25
0130
0000
0010
0000
0001
0000
0010
0100
1000
0001
0200
0000
1000
0000
0000
0000
,  // measure 26
0310
0000
1000
0000
0001
0010
0100
0000
1000
0010
0100
0000
2000
0000
0000
0000
,  // measure 27
3100
0010
1000
0001
0010
0000
0010
0100
0000
0100
1000
0000
0002
0000
0000
0000
,  // measure 28
1003
0000
0001
0000
0100
0000
1000
0100
0010
1000
0001
0010
0100
0000
1000
0000
,  // measure 29
0001
0000
0100
0000
1000
0000
0100
0000
0001
0000
1000
0000
0100
0000
0010
0100
,  // measure 30
1000
0000
0010
0100
0001
0000
0010
0100
1000
0010
0100
0010
1000
0000
1000
0100
,  // measure 31
0010
0001
0100
0000
0110
0000
0000
0101
0000
0000
0012
0000
0000
0000
0013
0100
,  // measure 32
1000
0010
0200
0000
0000
0000
0310
0100
0001
1000
0001
0000
0010
0100
1000
0001
,  // measure 33
0000
0000
0100
0010
1000
0001
0000
0000
0010
0100
0000
1000
0000
1000
0000
0010
,  // measure 34
0000
0010
0100
0010
1000
0001
1000
0100
0020
0000
0000
0000
0032
0000
0000
0000
,  // measure 35
0000
0000
0013
0001
1000
0010
0000
0100
0000
0010
2000
0000
0000
0000
3001
1000
,  // measure 36
0100
0010
0001
0100
0010
0100
0001
1000
0100
0010
0001
0100
0010
0100
0001
1000
,  // measure 37
0100
0010
0100
1000
0010
0100
0001
0010
0100
1000
0200
0000
0000
0000
0310
0100
,  // measure 38
1000
0000
0000
0001
0000
0000
0100
0000
0000
0010
0000
0000
0001
0000
0000
0010
0000
0000
0100
0000
0000
0001
0000
0000
0010
0000
0000
0100
0000
0000
1000
0000
0000
0000
0000
0000
0001
0000
1000
0000
0001
0000
1000
0000
0000
0000
0000
0000
,  // measure 39
0010
0000
1000
0000
0010
0000
1000
0000
0000
0000
0000
0000
0001
0000
0000
0000
0000
0000
0010
0000
0000
0100
0000
0000
1000
0000
0000
0010
0000
0000
0100
0000
0000
0010
0000
0000
1000
0000
0000
0100
0000
0000
0010
0000
0000
0001
0000
0000
,  // measure 40
0100
0010
0100
0000
0001
0000
1000
0100
0010
0001
0100
0010
0100
0001
0000
0010
,  // measure 41
0000
0100
0000
1000
0000
0001
0100
0010
0100
0000
1000
0100
0010
0100
0001
1000
,  // measure 42
0001
0010
0100
1000
0100
0010
0001
0100
0010
1000
0001
0010
M200
0000
0000
0000
,  // measure 43
0000
0320
0032
2003
,  // measure 44
0000
3002
0203
0320
,  // measure 45
1030
0000
0100
0000
0000
0000
0020
0000
0000
0000
0000
0000
0030
0000
0000
0000
0010
0000
0000
0010
0000
0000
0002
0000
0000
0000
0000
0000
0003
0000
0000
0000
,  // measure 46
0001
0000
0000
0100
0000
0000
0020
0000
0000
0000
0000
0000
0000
0000
0000
0000
0000
0000
0000
0000
0000
0000
0000
0000
0200
0000
0000
0000
0000
0000
0330
0000
,  // measure 47
0000
0010
1001
0000
0M01
0000
0010
0000
0100
0010
0001
0100
0010
0000
0010
1000
,  // measure 48
0000
1000
0002
0000
0000
0000
1000
0000
1003
0000
0001
0000
0010
0000
1000
0010
,  // measure 49
0100
1000
0001
0100
0020
0000
0000
0000
0130
0000
0010
0000
1000
0000
0010
0100
,  // measure 50
0001
1000
0200
0000
0001
0000
0000
0000
0310
0000
0001
0000
1000
0010
0100
0000
,  // measure 51
0001
0010
0100
0000
0002
0000
0000
0000
0103
0010
0001
1000
0010
0000
0010
0100
,  // measure 52
0000
0100
0001
0000
2000
0000
0000
0000
3001
0000
1000
0000
0100
0000
0001
0100
,  // measure 53
0010
0001
1000
0010
0100
0000
0001
0000
1000
0000
0100
0000
0001
0000
0100
0000
,  // measure 54
1000
0001
0200
1000
0000
0001
0000
1000
,  // measure 55
1300
0000
0100
0010
2000
0000
0010
0000
3002
0000
1000
0000
0013
0000
0001
1000
,  // measure 56
0000
1000
0010
0100
0000
0100
0001
0000
1000
0000
0001
0000
0010
0000
0001
1000
,  // measure 57
0010
0100
0001
0010
0002
0000
0010
0000
2003
0000
0001
0000
3010
0000
1000
0001
,  // measure 58
0000
0001
0010
0100
0000
0100
1000
0000
0001
0000
1000
0000
0010
0000
1000
0001
,  // measure 59
0010
0100
1000
0001
0100
0010
0001
0000
0110
0000
1000
0001
0010
0000
0010
0001
,  // measure 60
1000
0000
1000
0010
0000
0010
0100
0000
0001
0000
1000
0000
0010
0000
1000
0001
,  // measure 61
0010
0100
1000
0010
2000
0000
0010
0000
3002
0000
1000
0000
0013
0000
0001
1000
,  // measure 62
0000
1000
0010
0100
0000
0100
0001
0000
1000
0000
0001
0000
0010
0000
0001
1000
,  // measure 63
0010
0100
0002
0000
2000
0000
0000
0000
0000
0000
3003
0000
0000
0000
0000
0000
;

//---------------dance-single - ----------------
#NOTEDATA:;
#CHARTNAME:;
#STEPSTYPE:dance-single;
#DESCRIPTION:;
#CHARTSTYLE:;
#DIFFICULTY:Medium;
#METER:11;
#RADARVALUES:0.373772,0.419483,0.124921,0.353943,0.176971,377.000000,359.000000,18.000000,51.000000,7.000000,0.000000,0.000000,0.000000,0.000000,0.373772,0.419483,0.124921,0.353943,0.176971,377.000000,359.000000,18.000000,51.000000,7.000000,0.000000,0.000000,0.000000,0.000000;
#CREDIT:;
#NOTES:
0000
0000
0000
0000
,
0000
0000
0000
0000
,
0000
0000
0000
0000
1000
1000
0001
0001
,
2000
0000
0000
0000
0010
0000
0000
0000
3001
0000
0000
0010
0000
0000
0100
0000
,
0000
0100
0000
0000
0010
0000
0000
0000
0110
0000
0000
0000
1001
0000
0000
0000
,
0001
0000
0000
0000
0100
0000
0000
0000
1000
0000
0000
0100
0000
0000
0001
0000
,
0000
1000
0001
0000
1000
0000
MMMM
0000
,
1000
0000
0000
1000
0000
0000
0000
0000
0100
0000
0000
0100
0000
0000
0000
0000
,
0010
0000
0000
0010
0000
0000
0001
0000
1000
0000
0000
0000
1001
0000
0000
0000
,
0001
0000
0000
0001
0000
0000
0000
0000
0100
0000
0000
0100
0000
0000
0000
0000
,
0010
0100
0001
1000
0001
0010
0200
0000
,
1300
0000
0000
1000
0000
0000
0010
0000
0100
0000
0010
0000
1000
0000
0000
0000
,
0001
0000
0000
0001
0000
0000
0010
0000
0100
0000
0000
0000
0100
0000
1000
0000
,
0001
0000
0000
0001
0000
0000
0100
0000
0010
0000
0100
0000
0001
0000
0000
0000
,
1000
0000
0000
1000
0000
0000
0100
0000
0010
0000
0002
0000
2000
0000
0000
0000
,
3003
0000
0000
0001
0100
0010
1000
0200
,
0000
0000
0310
0020
0000
0230
0000
2300
,
0000
3020
0000
0230
0000
0302
0000
2003
,
0000
0002
0000
0000
0000
0000
3003
0000
,
1000
0000
0000
1000
0000
0000
0200
0000
0000
0000
0310
0000
0000
0000
0010
0000
,
0001
0000
0000
0001
0000
0000
0200
0000
0000
0000
0310
0000
0000
0000
0010
0000
,
1000
0000
0000
1000
0000
0000
0200
0000
0000
0000
0310
0000
0100
0000
0010
0000
,
0001
0001
1000
1000
1MM1
0000
0101
0000
,
1100
0000
0000
0000
0101
0000
0000
1001
0000
0000
0011
0000
0000
0000
0010
0000
,
0010
0100
1000
0001
0100
0010
0001
0000
,
0001
0010
0100
0001
1000
0200
0001
0000
,
0310
0001
0100
0010
0100
0001
0010
0000
,
0100
1000
0010
0100
0010
1000
0100
0000
,
0010
0001
0100
0010
0100
0001
0001
0010
,
0100
0010
0001
1000
0010
0200
0000
1000
,
0000
0001
0000
1000
1300
0100
0020
0000
,
1030
0000
0000
0000
1010
0000
0000
1001
0000
0000
0012
0000
0000
0000
0013
0000
,
0100
0000
2000
0000
0000
0000
3010
0000
0100
0000
0001
0000
2000
0000
0000
3100
,
0000
0000
0200
0000
0000
0310
0000
0000
0010
0000
0000
0001
0000
0010
0000
0001
,
0000
1000
0001
0000
2000
0000
0000
0000
3020
0000
0000
0000
0230
0000
0000
0000
,
0000
0000
0300
0000
0010
0000
0000
0100
0000
0000
0001
0000
0000
0000
0001
0000
,
0010
0100
1000
0010
0100
1000
0001
0010
,
0100
0010
1000
0010
0100
1000
0000
1000
,
0100
0000
0010
0000
1000
0000
0100
0000
0010
0000
0001
0000
1000
0100
0010
0000
,
0100
0010
0001
0000
1000
0000
0010
0000
0100
0000
0001
0000
0010
0000
0001
0000
,
0100
0000
0010
0000
1000
0000
0001
0000
0001
0000
0010
0000
0100
0000
0000
1000
,
0000
0100
0000
1000
0000
0001
1000
0000
0010
0000
0001
0000
0010
0000
0100
0000
,
0001
1000
0010
0100
0001
1000
02M0
0000
,
0000
0320
0032
2003
,
0000
3002
0203
0320
,
0230
0000
0000
0002
0000
0000
0303
0000
0002
0000
0000
0020
0000
0000
0033
0000
,
0020
0000
0000
0200
0000
0000
0000
0000
0000
0000
0300
0000
0032
0000
0000
0000
,
0000
1003
0001
0000
1100
0000
0000
0000
0101
0000
0000
0000
1100
0000
0000
1001
,
0000
1010
0000
0010
0010
0100
0001
1000
,
0100
0010
1000
0000
1000
0010
0100
1000
,
0001
0200
1000
0000
0310
1000
0100
0010
,
0100
1000
0010
0000
0100
0001
0010
0100
,
0010
0001
0100
0000
0010
1000
0100
0010
,
0100
1000
1000
0010
0100
0010
1000
0001
,
0010
0200
0000
0001
0000
1000
0000
0001
,
0301
0000
0100
0000
0020
0000
0000
0000
0032
0000
0000
0000
1003
0000
0000
0010
,
0000
0000
0001
0000
0000
0001
0000
0000
0010
0000
1000
0000
0100
0000
0010
0001
,
0000
0100
0010
0000
0200
0000
0000
0000
0302
0000
0000
0000
1003
0000
0000
0100
,
0000
0000
0001
0000
0000
0001
0000
0000
0100
0000
1000
0000
0010
0000
0100
0001
,
0000
0010
0100
0000
1000
0000
1000
0000
2010
0000
0000
0000
3001
0000
0000
0010
,
0000
0000
1000
0000
0000
1000
0000
0000
0010
0000
0001
0000
0100
0000
0010
1000
,
0000
0100
0010
0000
0200
0000
0000
0000
2300
0000
0000
0000
3001
0000
0000
0100
,
0000
0000
1000
0000
0000
1000
0000
0000
0100
0000
0001
0000
0010
0000
0100
1000
,
0000
0010
0200
0000
0020
0000
0000
0000
0000
0000
0330
0000
0000
0000
0000
0000
;

//---------------dance-single - ----------------
#NOTEDATA:;
#CHARTNAME:;
#STEPSTYPE:dance-single;
#DESCRIPTION:;
#CHARTSTYLE:;
#DIFFICULTY:Easy;
#METER:7;
#RADARVALUES:0.232988,0.309093,0.242902,0.381703,0.006940,235.000000,200.000000,35.000000,55.000000,2.000000,0.000000,0.000000,0.000000,0.000000,0.232988,0.309093,0.242902,0.381703,0.006940,235.000000,200.000000,35.000000,55.000000,2.000000,0.000000,0.000000,0.000000,0.000000;
#CREDIT:;
#NOTES:
0000
0000
0000
0000
,
0000
0000
0000
0000
,
0000
0000
0100
0010
,
1002
0010
1003
0010
,
0100
0100
0110
1001
,
1000
0000
0100
0000
0010
0000
0000
1001
,
0000
0010
0010
0000
,
0100
0001
0000
0001
,
0010
1000
0000
1000
,
0100
0010
0000
0010
,
1000
0001
0010
0100
,
0100
1000
0000
1000
,
0010
0001
0000
0001
,
0100
0010
0000
0010
,
0001
1000
0001
0110
,
0001
0012
0103
0110
,
0001
0012
0103
0110
,
1000
2010
3100
0110
,
1000
2010
3100
0110
,
2000
0000
0000
0002
0000
0000
3003
0000
,
0002
0000
0000
0200
0000
0000
0303
0000
,
0200
0000
0000
0020
0000
0000
0330
0000
,
0010
0010
1MM1
1000
,
0100
0000
0010
0000
0000
2002
0000
3003
,
0000
0001
1000
0010
,
0100
0000
0010
0000
0000
2002
0000
0000
,
3003
1000
0100
0002
,
1003
0001
0100
2000
,
3000
0001
0100
0100
,
1000
0100
0001
0020
,
1000
0001
1000
0032
,
0000
0000
1003
0000
0000
0110
0000
0000
,
0000
1001
0000
0000
0000
0000
1000
0000
,
0000
0000
1000
0000
0000
0000
0000
0000
0001
0000
0000
0001
0000
0000
0000
1000
,
0000
0001
0210
0302
,
0000
0000
0013
0000
0000
0020
0000
0000
,
0031
0100
1000
0010
,
0001
0100
1000
0000
,
1000
0100
0001
0011
,
1010
0001
0010
1000
,
0001
0100
1000
1000
,
0010
0001
0001
0010
,
1000
0001
0010
0200
,
0000
2300
3020
0230
,
0000
0302
0023
0230
,
0000
2300
0000
3020
,
0000
0230
0000
0020
,
0330
1001
1000
0000
0100
0000
0010
0000
,
0000
2002
0000
3003
0000
0000
0001
0000
,
1000
0010
0100
0010
,
0000
2002
0000
0000
3003
0000
1000
0000
,
0100
0002
1003
0001
,
0100
2000
3000
0001
,
0100
0100
1000
0100
,
0001
0020
1000
0001
,
1000
0032
0203
2300
,
0000
0002
0000
0000
3003
0000
0110
0000
,
1001
2000
3200
0302
,
0000
2000
0000
0000
3003
0000
0110
0000
,
1001
1010
0210
1000
,
0301
0010
0100
0110
,
1001
0002
0203
2300
,
0000
0002
0000
0000
3003
0000
0110
0000
,
1001
0000
0220
0000
0000
0330
0000
0000
;

//---------------dance-single - ----------------
#NOTEDATA:;
#CHARTNAME:;
#STEPSTYPE:dance-single;
#DESCRIPTION:;
#CHARTSTYLE:;
#DIFFICULTY:Beginner;
#METER:3;
#RADARVALUES:0.130870,0.154546,0.000000,0.124921,0.000000,132.000000,132.000000,0.000000,18.000000,0.000000,0.000000,0.000000,0.000000,0.000000,0.130870,0.154546,0.000000,0.124921,0.000000,132.000000,132.000000,0.000000,18.000000,0.000000,0.000000,0.000000,0.000000,0.000000;
#CREDIT:;
#NOTES:
0000
0000
0000
0000
,
0000
0000
0000
0000
,
0000
0000
1000
1000
,
2000
0000
0000
3000
,
0000
0000
0001
0001
,
0001
0000
0100
0000
,
0000
0010
0010
0000
,
0010
0000
0000
0000
,
0100
0000
0000
0000
,
0001
0000
0000
0000
,
1000
0000
1000
0000
,
1000
0000
0000
0000
,
0010
0000
0000
0000
,
0100
0000
0000
0000
,
0001
0000
1000
2000
,
3000
1000
0000
1000
,
0000
0010
0000
0010
,
0000
0100
0000
0100
,
0000
0001
0000
0001
,
0001
0000
0000
0001
,
1000
0000
0000
1000
,
0001
0000
0000
0001
,
1000
1000
1000
0000
,
0001
0000
0010
0000
,
0100
0000
1000
0000
,
0010
0000
0100
0000
,
0001
0000
1000
1000
,
0000
0100
0100
0100
,
0000
0010
0010
0010
,
0000
0001
0000
1000
,
0000
0001
0001
0002
,
0000
0003
0001
0000
,
1000
0000
0010
0010
,
0010
0000
0100
0000
,
0001
0001
0000
2000
,
3000
1000
1000
0000
,
0100
0000
0100
0000
,
0010
0000
0010
0000
,
0001
0000
0001
0001
,
0001
0000
0100
0000
,
0100
0000
0010
0000
,
0010
0000
1000
0000
,
1000
0000
0001
0002
,
0000
0000
0003
0000
,
0000
0000
0000
2000
,
3000
0200
0300
0020
,
0030
0002
0003
2000
,
3000
0000
0001
0000
,
0100
0000
0010
0000
,
1000
0000
0100
0000
,
0010
0000
0001
0000
,
1000
1000
0000
0010
,
0010
0010
0000
0100
,
0100
0100
0000
0001
,
0000
1000
0000
0001
,
0001
0002
1003
2000
,
3001
0000
0010
0000
,
0010
0002
0013
0020
,
0031
0000
1000
0000
,
1000
1000
0000
0002
,
1003
0000
0010
0000
,
0010
2000
3010
0020
,
1030
0000
0001
0000
,
1000
0000
2000
0000
0000
3000
0000
0000
;
