#VERSION:0.83;
#TITLE:La'qryma of the Wasteland;
#SUBTITLE:;
#ARTIST:DJ Noriken;
#TITLETRANSLIT:;
#SUBTITLETRANSLIT:;
#ARTISTTRANSLIT:;
#GENRE:;
#CREDIT:;
#MUSIC:La'qryma of the Wasteland.ogg;
#BANNER:La'qryma of the Wasteland.png;
#BACKGROUND:La'qryma of the Wasteland-bg.png;
#CDTITLE:;
#SAMPLESTART:81.889;
#SAMPLELENGTH:15.000;
#SELECTABLE:YES;
#OFFSET:0.953;
#BPMS:0.000=168.000
,168.000=84.000
,183.000=168.000
;
#STOPS:183.000=0.357;
#TIMESIGNATURES:0.000=4=4;
#BGCHANGES:;
#FGCHANGES:;

//--------------- dance-single - extraordiberry heals forcednature ----------------
#NOTEDATA:;
#STEPSTYPE:dance-single;
#DESCRIPTION:extraordiberry heals forcednature;
#CREDIT:extraordiberry heals forcednature;
#DIFFICULTY:Beginner;
#METER:5;
#RADARVALUES:0,0,0,0,0;
#NOTES:
0000
0000
0000
0000
,
0000
0000
0000
0000
,
0000
0000
0000
0000
,
0000
0000
0000
0000
,
0000
0000
0000
0000
,
0000
0000
0000
0000
,
1000
0000
0000
0000
,
0001
0000
0000
0000
,
1000
0000
0001
0000
,
1001
0000
0000
0000
,
1000
0000
0001
0000
,
0010
0000
0001
0000
,
1000
0000
0001
0000
,
0100
0000
0001
0000
,
1000
1000
1000
0000
,
0100
0100
0100
0000
,
0010
0010
0010
0000
,
0001
0000
1000
0000
,
1001
0000
0001
0000
,
0100
0000
0001
0000
,
1000
0000
0100
0000
,
1000
0000
0001
0001
,
1000
1000
1000
0000
,
0010
0010
0010
0000
,
0100
0100
0100
0100
,
0001
0000
1001
0000
,
2000
0000
0000
0000
,
0000
0000
3000
0000
,
0200
0000
0000
0000
,
0000
0000
0300
0000
,
0020
0000
0000
0000
,
0000
0000
0030
0000
,
0002
0000
0000
0000
,
0000
0000
0003
0000
,
1000
0000
0010
0000
,
0100
0000
0000
0000
,
0001
0000
0010
0000
,
0100
0000
0000
0000
,
0100
0000
1000
0000
,
0010
0000
0000
0000
,
0100
0000
0001
0000
,
0010
0000
0000
0000
,
0001
0000
0000
0000
,
0100
0000
0000
0000
,
0010
0000
0000
0000
,
1000
0000
0000
1001
,
0000
0000
1000
0000
,
0000
0000
0100
0000
,
0000
0000
0010
0000
,
0000
0000
0001
0000
,
0001
0001
0001
0000
,
1000
1000
1000
0000
,
0010
0010
0010
0010
,
0100
0000
0110
0000
,
1000
0001
1000
0000
,
0001
1000
0001
0000
,
0010
0100
0010
0000
,
0100
0010
0100
0000
,
1000
1000
1000
0000
,
0001
0001
0001
0000
,
1000
0010
1000
0000
,
0001
0000
1001
0000
,
1000
0100
1000
0000
,
0001
0010
0001
0000
,
1000
0010
1000
0000
,
0001
0100
0001
0000
,
1000
1000
0100
0000
,
0010
0010
0001
0000
,
0001
0100
0010
1000
,
0001
0000
1001
0000
,
1000
0000
0100
0000
,
1000
0000
0010
0000
,
0100
0000
0001
0000
,
0100
0000
0010
0000
,
0010
0000
1000
0000
,
0100
0000
1000
0000
,
0010
0000
0100
0000
,
0001
0000
1000
0000
,
1000
0100
1000
0000
,
0001
0010
0001
0000
,
1000
0010
1000
0000
,
0001
0100
0001
0000
,
1000
0100
0010
0000
,
0001
0100
0010
1000
,
0002
0000
0000
0000
,
1003
0000
1001
0000
;

//--------------- dance-single - extraordiberry heals forcednature ----------------
#NOTEDATA:;
#STEPSTYPE:dance-single;
#DESCRIPTION:extraordiberry heals forcednature;
#CREDIT:extraordiberry heals forcednature;
#DIFFICULTY:Easy;
#METER:9;
#RADARVALUES:0,0,0,0,0;
#NOTES:
0000
0000
0000
0000
,
0000
0000
0000
0000
,
0000
0000
0000
0000
,
0000
0000
0000
0000
,
0000
0000
0000
0000
,
0000
0000
0000
0000
,
1000
0000
1001
0000
,
0010
0000
0110
0000
,
0001
0001
1000
1000
,
0002
0010
1000
0103
,
0001
1000
0010
0000
,
1000
0001
0010
0000
,
0001
0100
0010
0000
,
1000
0100
0010
0000
,
0001
0100
0010
1000
,
1000
0100
0010
0001
,
0001
1000
0001
0000
1000
0001
1000
0000
,
1001
0000
0110
0000
,
1001
0000
1000
0000
0001
0100
0001
0000
,
1000
0000
0001
0000
1000
0100
1000
0000
,
0010
0000
0100
0000
0001
1000
0001
0000
,
0010
0100
0110
0000
,
1000
0010
0100
0000
0001
0000
1000
0000
,
0001
0010
0100
0000
1000
0000
0010
0000
,
1000
0000
0001
0000
0100
0000
0000
0000
0001
0000
0000
0010
0000
0000
0000
0000
,
0012
0010
1000
0103
,
0020
0000
0000
0000
,
0000
0000
1030
0100
,
0020
0000
0000
0000
,
0000
0000
0031
0100
,
0020
0000
0000
0000
,
0000
0000
1030
0100
,
0020
0000
0000
0002
0000
0000
0000
0000
,
0033
0000
0000
0000
0001
0001
1000
0000
,
0001
0000
0100
0001
0000
0001
0100
0000
,
0010
0000
1000
0000
0001
0100
0010
0000
,
1000
0000
0100
1000
0000
1000
0100
0000
,
0010
0000
0001
0000
1000
0100
0010
0000
,
0001
0000
0100
0001
0000
0001
1000
0000
,
1001
0000
0001
0000
0100
0010
1000
0000
,
1000
0000
0100
0010
0000
0010
0001
0000
,
2002
0000
0000
3003
,
2000
0000
3000
0002
0000
0003
0000
0200
,
0000
0300
0000
0020
0000
0030
0000
2000
,
0000
3000
0000
0002
0000
0003
0000
0020
,
0000
0000
0030
0000
0000
0000
0200
0000
0000
0000
0300
0000
2000
3000
0000
0000
,
0001
0000
1000
0000
,
0010
0000
0100
0000
,
0001
0001
0010
0010
,
0100
0100
1000
1000
,
0001
0000
1000
0000
0010
0100
0010
0000
,
1000
0000
0001
0000
0010
0100
0010
0000
,
0001
0100
0001
0000
1000
0010
1000
0000
,
2010
0010
0001
3100
,
1000
0000
0100
0000
1000
0100
1000
0000
,
0001
0000
0100
0000
0001
0100
0010
0000
,
1000
0000
0001
0000
0010
0001
0010
0000
,
0001
0000
0100
0000
0010
1000
0100
0000
,
1000
0100
0110
0010
,
0001
0100
0110
1001
,
1000
0000
0100
0000
0010
0100
0010
0000
,
0001
0000
0100
0000
0001
0100
0010
1000
,
0001
0000
0010
0000
0001
0010
0100
0000
,
1000
0000
0010
0000
0100
0001
1000
0000
,
0001
0000
0010
0000
0100
0010
0001
0000
,
1000
0000
0010
0010
0100
0000
0001
0001
,
1000
0000
1001
0000
0001
1000
0001
0000
,
0010
0000
0110
0000
0100
0010
0100
0000
,
1000
0000
0100
0000
0010
0000
0001
0000
1000
0000
0000
0010
0000
0000
0000
0000
,
2010
0001
3100
0000
,
1000
0000
0001
0010
0000
0000
0001
0000
,
0010
0000
0001
0000
1000
0001
0100
0000
,
0001
0000
1000
0010
0000
0000
1000
0000
,
0010
0000
1000
0000
0001
1000
0100
0000
,
0010
0000
0100
0010
0000
0010
0001
0000
,
1000
0000
0001
0000
1000
0010
0100
0000
,
0001
0000
0100
0010
0000
0010
1000
0000
,
0001
1000
1001
0110
,
0001
0000
0001
0010
0000
0010
0100
0000
,
1000
0100
1000
0000
0001
0100
0010
0000
,
1000
0000
1000
0010
0000
0010
0100
0000
,
0001
0100
0001
0000
1000
0100
0010
0000
,
0110
0000
0001
0100
0000
0100
0010
0000
,
0110
0000
1000
0100
0000
0100
0010
0000
,
0011
0000
0001
0100
0000
0100
0010
0000
,
2000
0010
0001
3100
;

//--------------- dance-single - "ANGEL"+"Prince" ----------------
#NOTEDATA:;
#STEPSTYPE:dance-single;
#DESCRIPTION:"ANGEL"+"Prince";
#CREDIT:"ANGEL"+"Prince";
#DIFFICULTY:Medium;
#METER:13;
#RADARVALUES:0,0,0,0,0;
#NOTES:
0000
0000
0000
0000
,
0000
0000
0000
0000
,
0000
0000
0000
0000
,
0000
0000
0000
0000
,
0000
0000
0000
0000
,
0000
0000
0000
0000
,
2200
3300
0202
0303
,
1010
1000
0011
0001
,
1000
0100
1000
0001
1000
0010
1000
0001
,
0020
0000
0000
0000
0130
0000
2000
0000
0000
0001
0000
0000
3020
0000
0000
0000
,
1030
0100
0010
0100
0002
0000
0103
0010
,
0001
0100
0010
0100
2000
0000
3100
0001
,
1000
0010
1000
0100
0002
0000
0103
1000
,
0001
0010
0001
0100
2000
0000
3100
0001
,
1000
0100
0010
0001
0011
0000
0001
1000
,
0010
0100
0001
1000
1010
0000
1000
0100
,
0010
0001
0100
0010
0110
0000
1000
0001
,
1001
0000
0000
0000
0000
0000
0000
0000
2000
0000
0000
0100
0000
0000
0001
0000
,
3020
0000
1030
0001
0100
0100
0010
0000
,
1000
0010
0100
0001
0010
0010
0100
0000
,
1000
0100
0010
0001
0100
0100
0010
1000
,
0001
0000
0100
0000
0010
0000
1000
0000
0100
0000
0000
1000
0000
0001
0010
0000
,
0001
0100
0010
0100
1000
0100
0002
0000
,
1003
0100
0010
0100
0001
0100
2000
0000
,
3010
0000
0010
0000
0100
0000
0100
0000
0001
0000
0000
1001
0000
0000
0100
0000
,
0110
0000
0000
0000
1000
0000
0002
0000
0000
0100
0000
0000
0013
0000
0000
0000
,
0002
0000
0000
0200
0000
0000
0000
0000
,
0000
0000
0303
0000
1000
0100
0010
0001
,
2000
0000
0000
0001
0000
0000
0000
0000
,
0020
0000
3030
0000
0001
0100
0010
1000
,
0002
0000
0000
0200
0000
0000
0000
0000
,
0000
0000
0303
0000
1000
0100
0010
0001
,
2000
0000
0000
0020
0000
0000
0000
0000
,
0000
0000
0000
0000
3030
0000
0000
0000
1000
0001
1000
0000
0001
0000
0000
0000
,
1000
1000
0100
1000
0000
0001
0010
0001
,
0100
0100
0010
1000
0001
0100
1000
0100
,
0001
0001
1000
0010
0000
0100
0001
1000
,
0100
0100
0010
0001
1000
0100
0001
0100
,
1000
1000
0001
0010
0000
0100
2000
0000
,
3001
0001
0100
0010
1000
0100
0001
0100
,
1000
1000
0001
0010
0000
0001
0200
0000
,
0020
0000
0000
0330
,
0002
0000
0000
0000
0000
0000
0010
0023
0000
0000
0000
0000
0000
0000
0100
0230
,
0000
0000
0000
0000
0000
1300
1000
0002
0000
0000
0000
0000
0003
0000
0100
0020
,
0000
0000
0000
0000
0030
0000
1000
0200
0000
0000
0000
0000
0300
0000
1000
0002
,
0000
0000
0000
0000
0003
0000
0001
2000
0000
0000
0000
0000
3020
0030
0000
0000
,
1000
0000
1000
0100
0001
0000
0001
0100
,
1000
0000
1000
0001
0010
0000
0110
0000
,
0001
0000
0001
0100
1000
0000
1000
0100
,
0001
0000
0001
0010
0100
0000
0110
0000
,
1000
0100
1000
0010
1000
0100
1000
0001
,
0001
0100
0001
0010
0001
0100
0001
1000
,
1000
0000
0100
0010
0100
0000
0010
0000
0001
0000
0100
0010
0100
0000
0010
0000
,
1001
0000
0000
0000
0001
0000
2000
0000
0000
0100
0000
0000
3020
0000
0000
0000
,
1030
0000
0100
0000
0010
0000
0100
1000
0000
0001
0000
0100
0000
0000
0001
0000
,
0010
0000
0100
0000
1000
0000
0001
0100
0000
0010
0000
0010
0000
2000
0000
0000
,
3001
0000
0010
0000
0100
0000
0010
0001
0000
1000
0000
0010
0000
0000
0100
0000
,
0001
0000
0010
0000
0100
0000
1000
0001
0000
0100
0000
0100
0000
0020
0000
0000
,
1030
0000
0000
0001
0000
0000
0010
0000
0001
0000
0100
0000
2000
0000
0000
0000
,
3100
0000
0000
0001
0000
0000
1000
0000
0100
0000
0000
0010
0000
0002
0000
0000
,
1003
0000
0010
0000
0100
0000
0001
0010
0000
0001
0000
0100
0000
0000
0010
0000
,
1000
0000
0000
0100
0000
0000
0010
0000
0001
0000
0100
0000
1000
0000
0100
0000
,
0001
0000
0010
0000
0100
0000
1000
0010
0000
1000
0000
0100
0000
0000
0010
0000
,
0001
0000
1000
0000
0010
0000
0100
0001
0000
0010
0000
0010
0000
0002
0000
0000
,
1003
0000
0010
0000
0100
0000
0001
0010
0000
0001
0000
0100
0000
0000
0010
0000
,
1000
0000
0001
0000
1000
0100
1000
0000
0100
0000
0010
0001
0000
0001
0000
0000
,
1000
0100
0001
0100
1000
0100
0010
0010
,
0001
0100
1000
0100
0001
0100
0010
0010
,
1000
0001
1000
0000
0001
1000
0001
0000
0010
0000
0000
0110
0000
0000
0100
0000
,
1001
0000
0220
0330
,
1000
1000
0100
0020
0000
0031
0100
0010
,
1000
1000
0100
0010
0001
0100
1000
0100
,
0001
0001
0100
0020
0000
1030
0100
0010
,
0001
0001
0100
0010
1000
0100
0001
0100
,
1000
1000
0010
0200
0000
0301
0010
0010
,
0001
0100
0010
1000
0001
0010
1000
0010
,
0001
0001
0010
0200
0000
1300
0010
0010
,
1000
0100
0010
0001
1000
0010
0002
0000
,
0013
0100
0001
2001
0000
3100
0010
0100
,
1000
0000
0010
0000
0100
0000
0001
0000
0010
0001
0010
0000
0100
0010
0100
0000
,
1000
0010
0100
0102
0000
0013
0100
1000
,
0010
1000
0010
0000
0100
0000
0001
0000
1000
0100
1000
0000
0100
0010
0100
0000
,
1000
0001
1000
0000
0010
0000
0100
0000
0100
0000
0001
0000
0010
0000
0010
0000
,
0001
1000
0001
0000
0100
0000
0010
0000
1000
0100
1000
0000
0001
0100
0001
0000
,
0020
0000
0130
0002
0000
0103
2000
0000
,
3020
0000
0000
0000
0130
0001
0000
0010
0000
0100
0000
0000
0002
0000
0000
0000
,
0003
0000
0000
0000
;

//--------------- dance-single - "ANGEL"+"Prince" ----------------
#NOTEDATA:;
#STEPSTYPE:dance-single;
#DESCRIPTION:"ANGEL"+"Prince";
#CREDIT:"ANGEL"+"Prince";
#DIFFICULTY:Hard;
#METER:16;
#RADARVALUES:0,0,0,0,0;
#NOTES:
0000
0000
0000
0000
,
0000
0000
0000
0000
,
0000
0000
0000
0000
,
0000
0000
0000
0000
,
0000
0000
0000
0000
,
0000
0000
0000
0000
,
1100
0001
0101
1000
,
1200
0000
0310
0001
0201
0000
0310
1000
,
0001
1000
0100
0000
1000
0001
0100
0000
0010
1000
0001
0000
0010
0001
1000
0000
,
2001
0000
0000
0000
3010
0000
0010
0100
0000
0001
0000
1000
0200
0000
0000
0000
,
1300
0010
0100
0001
0021
0000
0031
0100
,
0001
0010
0100
1000
1020
0000
1030
0100
,
1000
0010
0001
0010
2010
0000
3001
0100
,
0001
0010
1000
0010
0012
0000
0103
0100
,
0001
0000
0010
0000
0100
0000
0010
0000
0001
1000
0010
0000
1000
0000
0100
0000
,
1000
0000
0010
0000
0100
0000
0010
0000
1000
0001
0010
0000
0001
0000
0100
0000
,
0010
0000
1000
0000
0100
0000
1000
0000
0010
0100
0001
0000
1000
0000
0100
0000
,
0220
0330
2002
3003
,
0201
0000
0000
0000
1300
0000
0100
0000
0010
1000
0001
0000
0100
0000
0010
0000
,
1000
0000
0100
0000
0001
0000
0100
0000
0010
0001
1000
0000
0010
0000
0100
0000
,
0001
0010
0001
0000
1000
0000
0010
0000
0100
0001
1000
0000
0100
0000
0010
0000
,
0001
1000
0001
0000
0100
0000
0010
0000
1000
0100
0010
0100
0000
1000
0001
0010
,
0001
0000
0100
0000
0010
0000
0100
0000
0001
0100
0010
1000
0002
0000
0000
0000
,
1003
0000
0100
0000
0010
0000
0100
0000
1000
0100
0010
0001
2000
0000
0000
0000
,
3001
0100
0010
0100
0001
1000
0010
1000
0001
0000
0000
0011
0000
0000
0010
0100
,
2000
0000
0000
0000
3010
0000
0100
0001
0000
1000
0000
0100
0010
0000
0000
0000
,
1002
0000
0000
0200
0000
0000
0000
0000
,
0000
0000
0303
0000
0002
0023
0230
2300
,
3020
0000
0000
0200
0000
0000
0330
0000
,
2002
0000
0000
3003
2000
3200
0320
0032
,
2003
0000
0000
0020
0000
0000
0000
0000
,
0000
0000
3030
0000
0002
0023
0230
2300
,
3002
0000
0000
0020
0000
0000
0000
0000
,
0000
0000
0033
0000
0000
0000
0001
0100
0001
0100
0001
0000
1000
0000
0100
0000
,
0010
0000
0001
0010
0100
0000
0010
0001
0000
1000
0001
0000
0100
0000
0000
0000
,
0010
0000
1000
0001
0100
0000
0010
1000
0002
0000
0023
0000
0230
0000
2300
0000
,
3001
0000
0100
0001
1000
0000
0100
0010
0000
0001
0100
0000
0010
0000
1000
0001
,
0010
0000
0010
0000
0001
0000
0100
0010
2000
0000
3200
0000
0320
0000
0032
0000
,
0103
0000
0010
1000
0001
0000
0010
0100
0000
1000
0010
0000
0100
0000
0001
1000
,
0100
0000
0100
0000
1000
0000
0010
0100
0002
0000
0023
0000
0230
0000
2300
0000
,
3100
0000
0010
0001
1000
0000
0001
0100
0000
0010
1000
0000
0100
0000
0000
0000
,
0220
0000
0000
0330
,
1002
0000
0000
0000
0000
0000
0203
0320
0000
0000
0000
0000
0000
0000
2030
3002
,
0000
0000
0000
0000
0000
0023
0230
2300
0000
0000
0000
0000
0000
0000
3002
0200
,
0000
0000
0000
0000
0303
0000
2000
0020
0000
0000
0000
0000
3030
0000
0002
0020
,
0000
0000
0000
0000
0033
0000
2000
0200
0000
0000
3300
0000
2002
3003
0000
0000
,
0102
0000
0100
0000
1000
0000
0010
0010
,
0010
0000
0000
0000
1003
0000
0000
0000
0001
0000
0001
0000
0001
0000
0100
0010
,
2000
0000
0100
0000
0001
0000
0010
0010
,
3010
0000
1000
0000
0001
0000
1000
0100
0000
0010
0000
0001
0000
0100
0001
0100
,
0010
0000
1000
0001
0000
1000
0100
0000
0010
0001
0010
0000
0100
0000
1000
0001
,
0100
0000
0001
1000
0000
0001
0010
0000
0100
0000
1000
0010
0000
0100
0010
0100
,
0001
1000
0100
0000
1000
0001
0100
0000
0010
1000
0001
0000
0010
0001
1000
0000
,
2001
0000
0000
0000
3010
0000
0010
0100
0000
0001
0000
1000
0200
0000
0000
0000
,
1300
0000
0001
0000
0100
0000
0001
1000
0000
0100
0000
0010
0000
0001
1000
0010
,
0100
0000
0001
0000
1000
0000
0010
1000
0000
0100
0000
0001
0000
0100
0010
0001
,
1000
0000
0001
0000
0010
0000
0001
1000
0000
0010
0000
0100
0000
0001
1000
0100
,
0010
0000
0100
1000
0010
0000
1000
0001
0000
0100
0000
1000
0000
0100
0010
0100
,
0001
0000
1000
0100
0000
0010
0100
0000
1000
0000
0001
0000
0100
0010
1000
0001
,
0100
0000
0001
0010
0000
0100
0010
0000
0001
0000
0100
1000
0000
0100
0010
1000
,
0001
0000
0010
0000
0100
0000
0010
0001
0000
0100
0000
0010
0000
1000
0100
0010
,
0001
0000
1000
0010
0000
0100
0001
0000
1000
0100
0010
0001
1000
0001
0010
0100
,
1000
0000
0010
0000
0100
0000
0001
0010
0000
0100
0000
1100
0000
1000
0010
0100
,
0001
0000
1000
0000
0100
0000
1000
0010
0000
1010
0000
0101
0000
1000
0100
0010
,
0001
0000
0100
0000
0010
0000
1000
0100
0000
0110
0000
1001
0000
0001
0010
0100
,
1000
0000
0010
0000
0100
0001
0010
0001
1000
0000
1000
0010
0000
0001
0010
0100
,
0010
0000
0010
1000
0001
1000
0100
0000
0110
0000
0010
0000
0001
0100
0010
1000
,
0001
0000
0100
1000
0000
0100
0001
0000
1001
0000
1000
0100
0000
0010
0001
1000
,
0010
0100
0001
0100
0010
1000
0001
1000
0100
0000
0000
0110
0000
0010
0001
1000
,
0020
0000
0000
0100
0000
0000
1030
0000
2002
0000
0000
0000
0000
0000
3003
0000
,
0001
0100
0001
0000
1000
0000
0100
0010
0001
0000
1000
0000
0001
0000
0100
0000
,
0010
0001
0010
0100
0002
0023
0230
2300
,
3010
0100
0001
0000
1000
0000
0001
0010
0100
0000
1000
0000
0010
0000
0100
0000
,
0001
1000
0100
0000
0010
0000
0001
0000
2000
0000
3020
0000
0230
0000
0302
0000
,
1003
0100
0010
0000
0100
0000
1000
0001
0100
0000
0010
0000
2010
0000
0000
0000
,
3001
0100
1000
0100
0002
0023
0230
2300
,
3001
1000
0010
0000
0100
0000
0001
1000
0100
0000
0010
0000
0012
0000
0000
0000
,
1003
0000
0100
0000
0001
0000
0100
0000
1000
0001
1000
0001
0100
0000
0010
0000
,
1000
0001
0010
0100
1000
0000
0001
1000
0010
0000
0100
0000
0101
0000
0001
0000
,
0010
0100
1100
1000
0020
0032
2003
3200
,
0301
1000
0010
0100
0001
0000
1000
0001
0010
0000
0100
0000
1100
0000
1000
0000
,
0010
0100
0001
1000
0010
0000
1000
0000
0200
0000
0302
0000
2003
0000
3020
0000
,
0031
0010
0001
0010
0100
1000
0100
0000
0010
0001
1000
0000
0010
1000
0001
0000
,
1000
0010
1000
0001
0100
0010
0100
0001
1000
0100
0010
0001
0100
0010
1000
0001
,
0020
0000
0100
0230
0000
1000
2300
0000
,
3002
0000
0000
0000
0103
0010
0000
1000
0000
0001
0000
0010
2000
0000
0000
0000
,
3000
0000
0000
0000
;

//--------------- dance-double - forcednature resurrects extraordiberry ----------------
#NOTEDATA:;
#STEPSTYPE:dance-double;
#DESCRIPTION:forcednature resurrects extraordiberry;
#CREDIT:forcednature resurrects extraordiberry;
#DIFFICULTY:Easy;
#METER:10;
#RADARVALUES:0,0,0,0,0;
#NOTES:
00000000
00000000
00000000
00000000
,
00000000
00000000
00000000
00000000
,
00000000
00000000
00000000
00000000
,
00000000
00000000
00000000
00000000
,
00000000
00000000
00000000
00000000
,
00000000
00000000
00000000
00000000
,
00011000
00000000
01000000
00000000
,
00011000
00000000
00000100
00000000
,
00010000
00010000
00001000
00001000
,
02000000
00010000
00010000
03100000
,
01000000
00000000
00010000
10000000
,
01000000
00000000
00100000
00001000
,
00010000
00000000
00000010
00001000
,
00000100
00001000
00000010
00001000
,
00000001
00000000
00000010
00000100
,
00010000
00000000
00001000
00100000
,
00010000
00010000
10000000
10000000
,
10010000
00000000
02200000
00000000
,
03300000
10000000
01000000
00010000
,
00001000
00000000
00010000
00000000
00000100
00001000
00000100
00000000
,
00000010
00000001
00001000
00000001
,
00000100
00000010
00000110
00000000
,
00000010
00001000
00000010
00000000
00010000
00000000
00001000
00000000
,
00100000
00010000
00100000
00000000
01000000
00000000
10000000
00000000
,
00010000
00000000
01000000
00000000
00010000
00000000
00000000
00000000
00100000
00000000
00000000
00100000
00000000
00000000
00000000
00000000
,
00012000
00010000
01000000
00003000
,
00020000
00000000
00000000
00000000
,
00000000
00000000
00030100
00001000
,
00000002
00000000
00000000
00000000
,
00000000
00000000
00000103
00000010
,
00020000
00000000
00000000
00000000
,
00000000
00000000
00031000
00100000
,
00020000
00000000
00000000
20000000
00000000
00000000
00000000
00000000
,
30030000
00000000
00000000
00000000
10000000
10000000
00010000
00000000
,
01000000
00000000
00001000
00010000
00000000
00010000
00001000
00000000
,
00010000
00000000
00000100
00000000
00001000
00000001
00000010
00000000
,
00000001
00000000
00001000
00000010
00000000
00000010
00001000
00000000
,
00000100
00000000
00010000
00000000
00001000
01000000
00010000
00000000
,
01000000
00000000
00100000
10000000
00000000
10000000
01000000
00000000
,
01100000
00000000
00100000
00000000
00001000
00010000
00000100
00000000
,
00001000
00000000
00000001
00000100
00000000
00000100
00000010
00000000
,
00002002
00000000
00000000
00003003
,
00002000
00000000
00003000
00000200
00000000
00000300
00000000
00020000
,
00000000
00030000
00000000
00002000
00000000
00003000
00000000
02000000
,
00000000
03000000
00000000
00200000
00000000
00300000
00000000
20000000
,
00000000
00000000
30000000
00000000
00000000
00000000
02000000
00000000
00000000
00000000
03000000
00000000
00020000
00030000
00000000
00000000
,
00001000
00000000
00010000
00000000
,
00000010
00000000
00010000
00000000
,
00001000
00001000
00100000
00100000
,
00001000
00001000
01000000
01000000
,
00001000
00000000
00010000
00000000
00000100
00001000
00000100
00000000
,
00010000
00000000
00001000
00000000
01000000
00010000
01000000
00000000
,
00001000
00100000
00001000
00000000
00010000
00000010
00010000
00000000
,
00012000
00010000
01000000
00103000
,
00001000
00000000
00010000
00000000
00000010
00001000
00000010
00000000
,
00000100
00000000
00000001
00000000
00001000
00000100
00001000
00000000
,
00000100
00000000
00010000
00000000
00001000
00010000
00001000
00000000
,
01000000
00000000
00010000
00000000
10000000
00100000
10000000
00000000
,
01000000
00010000
00011000
00001000
,
00000010
00000001
00001001
00000110
,
00001000
00000000
00000100
00000000
00010000
00001000
00010000
00000000
,
00001000
00000000
01000000
00000000
00010000
01000000
00100000
10000000
,
00010000
00000000
00100000
00000000
00001000
00010000
00000100
00000000
,
00001000
00000000
00000010
00000000
00000100
00000001
00001000
00000001
,
00000010
00000000
00000100
00000000
00010000
00001000
00100000
00000000
,
00010000
00000000
00000000
00000000
01000000
00000000
01000000
00000000
00100000
00000000
00000000
00100000
00000000
00000000
10000000
00000000
,
00010000
00100000
00010000
00000000
01000000
00010000
01000000
00000000
,
00001000
00010000
00001000
00000000
00011000
00000000
00010000
00000000
,
00000100
00000000
00001000
00000000
00000100
00000000
00000010
00000000
00000001
00000000
00000000
00000001
00000000
00000000
00000000
00000000
,
00002100
00000001
00003010
00000000
,
00001000
00000000
00000100
00010000
00000000
00000000
00001000
00000000
,
01000000
00000000
00010000
00000000
00100000
01000000
10000000
00000000
,
01000000
00000000
00010000
00001000
00000000
00000000
00010000
00000000
,
00000100
00000000
00001000
00000000
00000001
00000100
00000010
00000000
,
00000100
00000000
00001000
00010000
00000000
00010000
00001000
00000000
,
01000000
00000000
00010000
00000000
10000000
01000000
00100000
00000000
,
00001000
00000000
00010000
00000010
00000000
00000010
00001000
00000000
,
00000100
00000010
00000110
00001001
,
00000001
00000000
00000001
00000100
00000000
00000010
00001000
00000000
,
00000100
00001000
00000100
00000000
00010000
00001000
00100000
00000000
,
00010000
00000000
00010000
10000000
00000000
10000000
00100000
00000000
,
01000000
00010000
01010000
00000000
00001000
00010000
00000100
00000000
,
00000110
00000000
00000010
00000000
00000100
00010000
00001000
00000000
,
00011000
00000000
00001000
00000000
01000000
00010000
00100000
00000000
,
01100000
00000000
01000000
00000000
10000000
00100000
01000000
00000000
,
00002000
00100000
00010000
01003000
;

//--------------- dance-double - forcednature resurrects extraordiberry ----------------
#NOTEDATA:;
#STEPSTYPE:dance-double;
#DESCRIPTION:forcednature resurrects extraordiberry;
#CREDIT:forcednature resurrects extraordiberry;
#DIFFICULTY:Medium;
#METER:14;
#RADARVALUES:0,0,0,0,0;
#NOTES:
00000000
00000000
00000000
00000000
,
00000000
00000000
00000000
00000000
,
00000000
00000000
00000000
00000000
,
00000000
00000000
00000000
00000000
,
00000000
00000000
00000000
00000000
,
00000000
00000000
00000000
00000000
,
02002000
03003000
00020200
00030300
,
00102000
00013000
00020010
00031000
,
00010000
00000100
00001000
00000010
00010000
00001000
00100000
00010000
,
02000000
00000000
00000000
00000000
03100000
00000000
20000000
00000000
00000000
00010000
00000000
00000000
32000000
00000000
00000000
00000000
,
03010000
00001000
00010000
00000100
00002000
00000000
00003010
00000100
,
00001000
00010000
00001000
01000000
00020000
00000000
00130000
01000000
,
00010000
00001000
00010000
00000100
00002000
00000000
00003010
00000100
,
00001000
00010000
00001000
01000000
00020000
00000000
00130000
01000000
,
00010000
00001000
00000010
00000100
00000110
00000000
00000100
00000010
,
00001000
00010000
00100000
01000000
01100000
00000000
01000000
00100000
,
00010000
00001000
00000010
00000100
00000110
00000000
00000001
00001000
,
00001001
00000000
00000000
00000000
00000000
00000000
00000000
00000000
00020000
00000000
00000000
00000100
00000000
00000000
00001000
00000000
,
00030020
00000000
00000130
00001000
00010000
00010000
00100000
00000000
,
01000000
00010000
00100000
00010000
10000000
10000000
00100000
00000000
,
10000000
01000000
00010000
00001000
00100000
00100000
00001000
00010000
,
00000010
00000000
00001000
00000000
00000100
00000000
00000010
00000000
00000001
00000000
00000000
00000100
00000000
00000010
00001000
00000000
,
00000100
00010000
00001000
00010000
00100000
01000000
00200000
00000000
,
01300000
00001000
00010000
00001000
00000010
00000100
00000020
00000000
,
00000130
00000000
00000100
00000000
00010000
00000000
00010000
00000000
00001000
00000000
00000000
00001000
00000000
00000000
01000000
00000000
,
01100000
00000000
00000000
00000000
00100000
00000000
20000000
00000000
00000000
00010000
00000000
00000000
31000000
00000000
00000000
00000000
,
00020000
00000000
00000000
00200000
00000000
00000000
00000000
00000000
,
00000000
00000000
00330000
00000000
00001000
00010000
00000100
00001000
,
00000002
00000000
00000000
00000100
00000000
00000000
00000000
00000000
,
00002000
00000000
00003003
00000000
00001000
00000010
00010000
00001000
,
02000000
00000000
00000000
00020000
00000000
00000000
00000000
00000000
,
00000000
00000000
03030000
00000000
10000000
01000000
00010000
00001000
,
00200000
00000000
00000000
00020000
00000000
00000000
00000000
00000000
,
00000000
00000000
00000000
00000000
00330000
00000000
00000000
00000000
00001000
00010000
00001000
00000000
00010000
00000000
00000000
00000000
,
00000100
00000100
00001000
00000001
00000000
00000100
00000010
00001000
,
00000100
00000100
00000010
00000001
00000100
00001000
00010000
00100000
,
01000000
01000000
00010000
10000000
00000000
01000000
00100000
00010000
,
01000000
01000000
00100000
10000000
01000000
00010000
00001000
00000010
,
00000100
00000100
00001000
00000001
00000000
00000100
00002000
00000000
,
00003100
00000100
00000001
00000010
00000100
00010000
01000000
00010000
,
00001000
00001000
01000000
00010000
00000000
00100000
02000000
00000000
,
00020000
00000000
00000000
03030000
,
00002000
00000000
00000000
00000000
00000000
00000000
00000010
00003020
00000000
00000000
00000000
00000000
00000000
00000000
00000001
00000032
,
00000000
00000000
00000000
00000000
00000000
00000103
00000100
00002000
00000000
00000000
00000000
00000000
00003000
00000000
00010000
00200000
,
00000000
00000000
00000000
00000000
00300000
00000000
10000000
02000000
00000000
00000000
00000000
00000000
03000000
00000000
00010000
00002000
,
00000000
00000000
00000000
00000000
00003000
00000000
00000010
00000200
00000000
00000000
00000000
00000000
00020300
00030000
00000000
00000000
,
00001000
00000000
00001000
00010000
00100000
00000000
00100000
10000000
,
01000000
00000000
01000000
00010000
00001000
00000000
00000110
00000000
,
00010000
00000000
00010000
00001000
00000010
00000000
00000010
00000001
,
00000100
00000000
00000100
00001000
00010000
00000000
01100000
00000000
,
10000000
01000000
00010000
00001000
00100000
00001000
00010000
00000000
,
00000001
00000100
00001000
00010000
00000010
00010000
00001000
00000000
,
00010000
00000000
00000100
00001000
00000100
00000000
00010000
00000000
00001000
00000000
01000000
00010000
01000000
00000000
00001000
00000000
,
00011000
00000000
00000000
00000000
00001000
00000000
00000020
00000000
00000000
00000100
00000000
00000000
00000032
00000000
00000000
00000000
,
00000103
00000000
00000010
00000000
00001000
00000000
00000010
00000100
00000000
00000001
00000000
00001000
00000000
00000000
00000100
00000000
,
00010000
00000000
00001000
00000000
00100000
00000000
00010000
01000000
00000000
00100000
00000000
00100000
00000000
20000000
00000000
00000000
,
31000000
00000000
00010000
00000000
00001000
00000000
00010000
00000100
00000000
00001000
00000000
00000010
00000000
00000000
00000100
00000000
,
00000001
00000000
00000010
00000000
00000100
00000000
00010000
00001000
00000000
01000000
00000000
01000000
00000000
00020000
00000000
00000000
,
10030000
00000000
00000000
00100000
00000000
00000000
00010000
00000000
00001000
00000000
00000100
00000000
00000002
00000000
00000000
00000000
,
00000013
00000000
00000000
00000100
00000000
00000000
00010000
00000000
00001000
00000000
00000000
01000000
00000000
00200000
00000000
00000000
,
10300000
00000000
01000000
00000000
00100000
00000000
01000000
10000000
00000000
00010000
00000000
01000000
00000000
00000000
00001000
00000000
,
00010000
00000000
00000000
00000100
00000000
00000000
00001000
00000000
00000010
00000000
00000100
00000000
00001000
00000000
00010000
00000000
,
00100000
00000000
01000000
00000000
00010000
00000000
10000000
01000000
00000000
00100000
00000000
00010000
00000000
00000000
01000000
00000000
,
00001000
00000000
00010000
00000000
00000100
00000000
00001000
00000010
00000000
00000100
00000000
00000100
00000000
00002000
00000000
00000000
,
00003100
00000000
00000001
00000000
00001000
00000000
00000100
00000010
00000000
00000100
00000000
00010000
00000000
00000000
00001000
00000000
,
01000000
00000000
00010000
00000000
00100000
00010000
00100000
00000000
01000000
00000000
10000000
00010000
00000000
00010000
00000000
00000000
,
00100000
01000000
10000000
01000000
00010000
00001000
00000100
00000100
,
00000010
00000100
00000001
00000100
00001000
00010000
01000000
01000000
,
00100000
01000000
00100000
00000000
00010000
10000000
00010000
00000000
01000000
00000000
00000000
01100000
00000000
00000000
01000000
00000000
,
10010000
00000000
00022000
00033000
,
00000100
00000010
00000001
00000200
00000000
00000301
00000010
00000100
,
00010000
00010000
00001000
00100000
01000000
00010000
00001000
00000010
,
00000100
00001000
00000001
00000200
00000000
00001300
00010000
00100000
,
01000000
01000000
00100000
00010000
00001000
00000010
00000100
00010000
,
00001000
00000100
00000001
00002000
00000000
00003100
00010000
00010000
,
00001000
01000000
00010000
00100000
01000000
00010000
00000100
00010000
,
00001000
00100000
00010000
02000000
00000000
03100000
10000000
10000000
,
01000000
00010000
00001000
00000010
00000001
00000100
00002000
00000000
,
00013000
00001000
01000000
01020000
00000000
00130000
01000000
00100000
,
00001000
00000000
00010000
00000000
00000010
00000000
00001000
00000000
00000100
00000010
00000100
00000000
00000010
00000001
00000010
00000000
,
00000100
00010000
00001000
02001000
00000000
03100000
01000000
00010000
,
10000000
01000000
10000000
00000000
00010000
00000000
00100000
00000000
00001000
00010000
00001000
00000000
00010000
00000010
00010000
00000000
,
00000010
00001000
00000010
00000000
00010000
00000000
00001000
00000000
00001000
00000000
00100000
00000000
01000000
00000000
01000000
00000000
,
00100000
00010000
00100000
00000000
00001000
00000000
00010000
00000000
00000010
00001000
00000010
00000000
00000100
00000010
00000100
00000000
,
00000002
00000000
00000013
00002000
00000000
00013000
02000000
00000000
,
23000000
00000000
00000000
00000000
31000000
00010000
00000000
00001000
00000000
00100000
00000000
00000000
00020200
00000000
00000000
00000000
,
00030300
00000000
00000000
00000000
;

//--------------- dance-double - forcednature resurrects extraordiberry ----------------
#NOTEDATA:;
#STEPSTYPE:dance-double;
#DESCRIPTION:forcednature resurrects extraordiberry;
#CREDIT:forcednature resurrects extraordiberry;
#DIFFICULTY:Hard;
#METER:17;
#RADARVALUES:0,0,0,0,0;
#NOTES:
00000000
00000000
00000000
00000000
,
00000000
00000000
00000000
00000000
,
00000000
00000000
00000000
00000000
,
00000000
00000000
00000000
00000000
,
00000000
00000000
00000000
00000000
,
00000000
00000000
00000000
00000000
,
01002000
00103000
00020100
00030010
,
00010000
00001000
00000010
00000100
00010000
00001000
00000100
00000010
,
00001000
00000001
00000100
00000000
00000001
00001000
00000100
00000000
00010000
00001000
00100000
00000000
00010000
10000000
00100000
00000000
,
02100000
00000000
00000000
00000000
03001000
00000000
00010000
00000100
00000000
00000010
00000000
00000001
00000200
00000000
00000000
00000000
,
00001300
00010000
00100000
10000000
10200000
00000000
10300000
01000000
,
00010000
00001000
00000010
00000001
00000021
00000000
00000031
00000100
,
00001000
00010000
00100000
10000000
10200000
00000000
10300000
01000000
,
00010000
00001000
00000010
00000001
00000201
00000000
00000300
00001000
,
00010000
00000000
00100000
00000000
01000000
00000000
00100000
00000000
00010000
00001000
00100000
00000000
00010000
00000000
01000000
00000000
,
00001000
00000000
00000010
00000000
00000100
00000000
00000010
00000000
00001000
00010000
00000010
00000000
00001000
00000000
00000100
00000000
,
00010000
00000000
01000000
00000000
00010000
00000000
00001000
00000000
00100000
00010000
01000000
00000000
00100000
00000000
10000000
00000000
,
20020000
00000000
00000000
00000000
30030000
00000000
00000000
00000000
10000000
01000000
00000000
00010000
00000000
00001000
00000010
00000000
,
00000100
00000000
00000000
00000000
00110000
00000000
00000000
00000000
00001000
00010000
00000100
00000000
00001000
00000000
00000001
00000000
,
00000100
00000000
00001000
00000000
00000100
00000000
00000001
00000000
00001000
00000010
00010000
00000000
00001000
00000000
00100000
00000000
,
00010000
01000000
00010000
00000000
10000000
00000000
00100000
00000000
10000000
01000000
00100000
00000000
00001000
00000000
00010000
00000000
,
00000010
00001000
00000010
00000000
00000100
00000000
00000001
00000000
00000010
00000100
00001000
00000100
00000000
00010000
00001000
00100000
,
00001000
00000000
00010000
00000000
00100000
00000000
01000000
00000000
00010000
01000000
00001000
00010000
00000020
00000000
00000000
00000000
,
00010030
00000000
00001000
00000000
00000010
00000000
00000100
00000000
00001000
00000100
00010000
00001000
00200000
00000000
00000000
00000000
,
00310000
10000000
00100000
10000000
00010000
01000000
00100000
01000000
00010000
00000000
00000000
00110000
00000000
00000000
00100000
00001000
,
00020000
00000000
00000000
00000000
00030010
00000000
00000100
00000001
00000000
00000010
00000000
00001000
00010000
00000000
00000000
00000000
,
00002000
00000000
00000000
02000000
00000000
00000000
00000000
00000000
,
00000000
00000000
03003000
00000000
20000000
30200000
00320000
00032000
,
00203000
00000000
00000000
02000000
00000000
00000000
03300000
00000000
,
00022000
00000000
00000000
00033000
00000002
00000203
00002300
00023000
,
00030200
00000000
00000000
00000002
00000000
00000000
00000000
00000000
,
00000000
00000000
00000303
00000000
00020000
00032000
00003200
00000320
,
00020030
00000000
00000000
00200000
00000000
00000000
00000000
00000000
,
00000000
00000000
00330000
00000000
00000000
00000000
00100000
10000000
00010000
10000000
01000000
00000000
01100000
00000000
00000000
00000000
,
00100000
00000000
00010000
10000000
00100000
00000000
01000000
00001000
00000000
00010000
00001000
00000000
00100000
00000000
00000000
00000000
,
00001000
00000000
00010000
00000010
00001000
00000000
00000010
00000100
00000002
00000000
00000023
00000000
00000230
00000000
00002300
00000000
,
00003010
00000000
00010000
00001000
01000000
00000000
00010000
00100000
00000000
01000000
10000000
00000000
00100000
00000000
01000000
00001000
,
00010000
00000000
00010000
00000000
00100000
00000000
01000000
00010000
20000000
00000000
32000000
00000000
03200000
00000000
00320000
00000000
,
01030000
00000000
00001000
00010000
00000100
00000000
00001000
00000010
00000000
00000100
00000001
00000000
00000010
00000000
00000100
00001000
,
00000010
00000000
00000010
00000000
00010000
00000000
00001000
00100000
00020000
00000000
00230000
00000000
02300000
00000000
23000000
00000000
,
30100000
00000000
01000000
00010000
10000000
00000000
01000000
00100000
00000000
00001000
00010000
00000000
00000100
00000000
00000000
00000000
,
00000220
00000000
00000000
00000330
,
00021000
00000000
00000000
00000000
00000000
00000000
00230000
02300000
00000000
00000000
00000000
00000000
00000000
00000000
03020000
20030000
,
00000000
00000000
00000000
00000000
00000000
32000000
03020000
00032000
00000000
00000000
00000000
00000000
00000000
00000000
00003020
00000200
,
00000000
00000000
00000000
00000000
00000330
00000000
00020000
00002000
00000000
00000000
00000000
00000000
00033000
00000000
00200000
02000000
,
00000000
00000000
00000000
00000000
03300000
00000000
20000000
00020000
00000000
00000000
30000000
00000000
00031000
00000000
00000000
00000000
,
10020000
00000000
01000000
00000000
10000000
00000000
00130000
00010000
,
00002000
00000000
00000100
00000000
00000001
00000000
00003010
00001000
,
00020000
00000000
01000000
00000000
10000000
00000000
00130000
00010000
,
00002000
00000000
00000000
00000000
00003100
00000000
00001000
00000010
00000000
00000100
00000000
00000001
00000000
00000010
00000100
00001000
,
00000100
00000000
00010000
00001000
00000000
01000000
00010000
00000000
00100000
01000000
00100000
00000000
00010000
00000000
01000000
00001000
,
00010000
00000000
00000100
00001000
00000000
00000100
00000010
00000000
00000001
00000000
00000100
00001000
00000000
00000100
00000010
00001000
,
00000010
00000100
00000001
00000000
00001000
00000100
00010000
00000000
00001000
01000000
00010000
00000000
00100000
01000000
10000000
00000000
,
00020000
00000000
00000000
00000000
01030000
00000000
00100000
00010000
00000000
00001000
00000000
00000100
00000020
00000000
00000000
00000000
,
00001030
00000000
00000001
00000000
00000010
00000000
00000100
00010000
00000000
00001000
00000000
00100000
00000000
00001000
00010000
00000010
,
00001000
00000000
00000100
00000000
00000010
00000000
00000001
00000100
00000000
00001000
00000000
01000000
00000000
00010000
00100000
00010000
,
10000000
00000000
00010000
00000000
01000000
00000000
00100000
10000000
00000000
01000000
00000000
00100000
00000000
00001000
00010000
00000100
,
00001000
00000000
00000010
00000000
00000110
00000000
00000100
00000001
00000000
00000010
00000000
00001000
00000000
00000010
00000100
00001000
,
00000100
00000000
00010000
00001000
00000000
00010000
00100000
00000000
01000000
00000000
00010000
00000000
10000000
01000000
00100000
00010000
,
01000000
00000000
00001000
00010000
00000000
00001000
00000010
00000000
00000100
00000000
00001000
00000001
00000000
00000100
00001000
00000100
,
00000001
00000000
00000010
00000000
00000100
00000000
00001000
00000010
00000000
00010000
00000000
00001000
00000000
01000000
00010000
00100000
,
01000000
00000000
10000000
00100000
00000000
10000000
01000000
00000000
00010000
00001000
00100000
00010000
01000000
00001000
00010000
00000100
,
00001000
00000000
00000010
00000000
00000100
00000000
00001000
00010000
00000000
00100000
00000000
00010000
00000000
00001000
01000000
00010000
,
01000000
00000000
00100000
00000000
10000000
00000000
00010000
01000000
00000000
00001000
00000000
00000100
00000000
00000010
00001000
00000001
,
00000010
00000000
00001000
00000000
00010000
00000000
00000010
00001000
00000000
00010000
00000000
01000000
00000000
00001000
00010000
00001000
,
00100000
00000000
01000000
00000000
10000000
00100000
01000000
00010000
00100000
00000000
00100000
00001000
00000000
00011000
00000000
00000000
,
00000010
00000000
00000010
00000100
00001000
00000000
00010000
00001000
00100000
00000000
00100000
01000000
00010000
00001000
00010000
00001000
,
00010000
00000000
00000100
00001000
00000000
00000001
00000100
00000000
00000110
00000000
00000010
00010000
00000000
00001000
01000000
00010000
,
10000000
01000000
00100000
01000000
00010000
00001000
00100000
00001000
00010000
00000000
00000000
00000010
00000000
00000000
00000110
00000000
,
00002002
00003003
20020000
30030000
,
00010000
01000000
00001000
00000000
00010000
00000000
00000100
00001000
00000001
00000000
00000100
00000000
00000010
00000000
00010000
00000000
,
00001000
00000010
00000100
00001000
00000002
00000203
00020300
02030000
,
03100000
10000000
00010000
00000000
00100000
00000000
01000000
10000000
00010000
00000000
01000000
00000000
00001000
00000000
00100000
00000000
,
00010000
01000000
00001000
00000000
00010000
00000000
00100000
00000000
20000000
00000000
32000000
00000000
03002000
00000000
00003200
00000000
,
00000310
00000001
00001000
00000000
00000010
00000000
00010000
00001000
01000000
00000000
00010000
00000000
00210000
00000000
00000000
00000000
,
01300000
10000000
00010000
01000000
00200000
00320000
00030200
00002300
,
00003010
00000100
00000001
00000000
00001000
00000000
00000100
00010000
00001000
00000000
00000010
00000000
00000210
00000000
00000000
00000000
,
00001300
00000001
00000100
00001000
00022000
00000000
00000000
00033000
,
01000000
00010000
10000000
00010000
00100000
00000000
01000000
10000000
00010000
00000000
00010000
01000000
00001000
00000000
00001000
00010000
,
00000100
00000010
00000011
00000001
00000200
00020300
02030000
03002000
,
00013000
00001000
00100000
00010000
00100000
00000000
01000000
10000000
00010000
00000000
00010000
01000000
00001000
00000000
00010000
00000000
,
00000100
00001000
00000100
00000010
00000001
00000000
00000100
00000000
00000020
00000000
00002030
00000000
00203000
00000000
00320000
00000000
,
00031000
00000000
00001000
00010000
00000100
00001000
00000010
00000000
00001000
00000100
00010000
00001000
01000000
00000000
00100000
00000000
,
10010000
00000000
10000000
00010000
00100000
01000000
00100000
00000000
00010000
01000000
00001000
00010000
00000100
00001000
00000010
00010000
,
00002000
00000000
00003010
00000002
00000000
00000103
00002000
00000000
,
00023000
00000000
00000000
00000000
01030000
10000000
00000000
00010000
00000000
01000000
00000000
00001000
00000020
00000000
00000000
00000000
,
00000030
00000000
00000000
00000000
;
