#TITLE:LUV;
#SUBTITLE:;
#ARTIST:ND LEE;
#TITLETRANSLIT:;
#SUBTITLETRANSLIT:;
#ARTISTTRANSLIT:;
#GENRE:;
#CREDIT:;
#BANNER:LUV.png;
#BACKGROUND:LUV-bg.png;
#LYRICSPATH:LUV.lrc;
#CDTITLE:;
#MUSIC:LUV.ogg;
#OFFSET:-0.001269;
#SAMPLESTART:79.984367;
#SAMPLELENGTH:12.000000;
#SELECTABLE:YES;
#BPMS:0.000000=90.000000
,152.000000=180.000000
,224.000000=90.000000
;
#STOPS:
;
#BGCHANGES:0.000=LUV.mp4=1.000=0=0=0=StretchNoLoop====,
99999=-nosongbg-=1.000=0=0=0 // don't automatically add -songbackground-
;
#KEYSOUNDS:;
#ATTACKS:;

//---------------dance-single - ----------------
#NOTES:
     dance-single:
     :
     Hard:
     13:
     0.594679,0.686008,0.391236,0.492958,0.500782,532.000000,482.000000,50.000000,63.000000,0.000000,0.000000,0.594679,0.686008,0.391236,0.492958,0.500782,532.000000,482.000000,50.000000,63.000000,0.000000,0.000000:
0000
0000
0000
0000
,
0000
0000
0000
0000
,
2000
0100
3001
0002
0100
1003
0010
0000
,
1000
0000
0001
0010
0000
0100
1000
0000
0001
0100
0000
0000
2001
0000
0000
0000
,
3010
0010
0100
0100
,
0001
0000
0010
0000
0100
0000
1000
0000
0010
0100
0001
0202
0000
0000
3303
3003
,
1001
0000
0001
0010
0100
0000
1000
0010
0000
0010
0100
0000
0001
0001
1000
0000
,
0010
0000
1000
0100
0010
0000
0001
0100
0000
0100
0010
0000
1020
1000
0000
0000
,
0130
0000
0001
0010
0100
0000
1000
0010
0000
0100
0001
0000
0010
0010
0100
0000
,
1000
0000
0001
0100
0000
0010
1000
0000
0100
0010
0001
0000
0102
0000
0000
0000
,
2003
0000
3100
0001
0100
1000
0010
0100
0000
0010
0100
0000
0001
0001
1000
0000
,
0002
0000
0103
1000
0100
0001
0010
0100
0000
0010
0100
0000
2100
0100
0000
0000
,
3001
0000
1000
0010
0001
0010
0100
0001
0000
1000
0100
0000
1000
0001
0100
0000
,
1001
0000
0001
0001
0000
1000
1000
0000
0100
0100
0000
0000
2002
0000
3333
0000
,
0001
0100
0010
0000
2010
0000
3001
0000
1000
0100
0010
0000
0012
0000
1003
0000
,
0010
0000
0010
0000
0210
0000
0301
0000
1000
0100
0010
0000
0120
0000
0031
0000
,
1000
0000
0000
0000
0010
0000
0000
0000
1000
0000
0000
0000
0001
0000
0000
0000
1000
0000
0000
0000
0100
0000
0000
0000
0020
0000
0000
0000
0000
0000
0031
0000
0000
0100
0000
0000
0010
0000
0000
0000
0000
0000
1000
0000
0000
0000
0000
0000
,
0001
0000
0000
0000
0010
0000
0000
0000
0001
0000
0000
0000
1000
0000
0000
0000
0001
0000
0000
0000
0100
0000
0000
0000
0020
0000
0000
0000
0000
0000
1330
0000
0000
0100
0000
0000
0010
0000
0000
0001
0000
0000
1000
0000
0000
0001
0000
0000
,
0100
0000
0001
0100
1000
0000
1000
0100
0001
0000
0010
0010
0100
0000
1000
0000
,
0001
0000
1000
0010
0001
0000
0001
0010
1000
0000
0100
0100
0010
0000
0001
0000
,
1000
1000
1000
0001
0001
0001
0100
0100
0100
0100
0000
0000
,
1010
0000
0110
0000
0101
0000
0011
0000
0110
0000
1100
0000
2002
0000
0000
3003
0000
0000
3113
0000
0000
0330
0000
0000
,
0002
0000
0000
0100
0000
0000
1003
0000
0000
0000
0000
0001
0100
0000
0000
0010
0000
0000
0010
0000
0000
0000
0000
0000
,
2000
0000
0000
0100
0000
0000
3001
0000
0000
0000
0000
1000
0100
0000
0000
0010
0000
0000
0010
0000
0000
0000
0000
0000
,
0002
0000
0000
0203
0000
0000
0320
0000
0000
1030
0000
0001
2000
0000
0300
3200
3000
0000
0320
0000
0300
0030
0000
0000
,
0001
0000
0000
0000
0000
0000
1000
0000
0000
0010
0000
0000
0100
0000
0000
0000
0000
0000
0001
0000
0000
0000
1000
0000
0002
0000
0000
0000
0000
0000
0023
0000
0000
0000
0000
0000
0230
0000
0000
0000
0000
0000
0300
0000
0000
0000
0000
0000
,
2100
0000
0000
0000
3001
0000
1000
0010
0100
0000
0110
0000
0000
0000
0001
1000
,
0002
0000
0000
0000
0013
0000
0001
0100
0010
0000
1000
0001
0100
1000
0100
0001
,
2000
0000
0000
0000
3100
0000
0010
0001
1000
0000
0001
0100
0000
0100
0010
0000
,
2000
0000
3100
0310
0032
0000
0103
0010
0100
0010
0100
0010
1000
0100
0010
0001
,
1000
0000
1100
0000
1002
0000
0103
0000
0101
0000
2001
0000
3010
0100
0001
0000
,
1000
0100
0001
0100
0010
0100
0010
0100
1000
0010
0100
0001
1000
0001
0010
0000
,
0001
0000
0011
0000
2001
0000
3010
0000
1010
0000
1002
0000
0103
0010
1000
0000
,
0001
0000
1000
0100
0000
0001
0100
0000
1000
0010
0100
0000
0220
0000
0330
0000
,
0102
0000
0103
0010
1000
0000
2100
0000
3100
0010
0001
0000
1000
0001
1000
0000
,
0001
0010
1000
0010
0100
0010
0100
0010
0001
0100
0010
1000
0001
1000
0010
0000
,
2010
0000
3010
0100
0001
0000
0012
0000
0013
0100
1000
0000
0001
1000
0001
1000
,
2100
0000
3001
0102
0000
1003
2010
0000
3001
0012
0000
1003
1001
0000
1001
0000
,
0001
0100
0010
0001
0010
0001
1000
0100
,
0001
0010
0001
0010
0100
1000
0001
0000
,
1000
0100
0001
0100
0010
0100
0001
0100
,
1000
0010
0100
0001
1000
1000
0001
0000
,
1000
0010
0100
1000
0100
1000
0001
0010
,
1000
0100
1000
0100
0010
0001
1000
0000
,
0001
0100
0010
0010
1000
0100
0100
0010
,
0001
0000
0001
0000
1000
0000
0010
0100
0010
0000
1000
0000
0100
0000
0010
0000
,
0011
0000
1002
0000
1003
0020
0000
0332
,
0000
0023
0000
2330
0000
3100
0010
0000
,
0001
0010
1000
0010
0100
0010
1000
0010
,
0001
0100
0010
1000
0001
0001
1000
0000
,
2001
0000
3310
1000
0100
0001
0100
1000
,
0001
0000
1000
0000
0010
0000
0100
0010
0100
0000
0001
0000
0010
0000
0100
0000
,
2100
0000
3001
0102
0000
1003
2010
0000
,
3001
0012
0000
0313
0120
0000
0031
2001
,
0000
0010
0010
0010
,
0010
0000
0010
0000
0002
0330
3003
0003
,
0000
0000
1000
1000
0000
0001
0001
0000
0100
0100
0000
0000
0000
0000
0000
0000
;

//---------------dance-single - ----------------
#NOTES:
     dance-single:
     :
     Medium:
     9:
     0.372233,0.442586,0.281690,0.336463,0.093897,333.000000,297.000000,36.000000,43.000000,0.000000,0.000000,0.372233,0.442586,0.281690,0.336463,0.093897,333.000000,297.000000,36.000000,43.000000,0.000000,0.000000:
0000
0000
0000
0000
,
0000
0000
0000
0000
,
0001
0010
0010
0100
1000
1000
0001
0000
,
1001
0000
1000
0000
0001
0100
2001
0000
,
3010
0010
0100
0100
,
0001
0010
0100
1000
0010
0100
0001
0000
,
1001
0000
1000
0010
1000
0000
0001
0000
0010
0000
0100
0000
2000
0000
0000
0000
,
3001
0000
1000
0010
1000
0000
0010
0000
0100
0000
0001
0000
0020
0000
0000
0000
,
0130
0000
1000
0001
1000
0000
0001
0000
0010
0000
0100
0000
2000
0000
0000
0000
,
3001
0100
0010
0000
1000
0100
0010
0000
,
0001
0000
1000
0010
0100
0000
0001
0000
0010
0000
0100
0000
2100
0000
0000
0000
,
3001
0000
1000
0010
0100
0000
0001
0000
1000
0000
0100
0000
0120
0000
0000
0000
,
0031
0000
1000
0001
0100
0000
0010
0000
1000
0000
0001
0000
0021
0000
0000
0000
,
0130
0000
0000
0110
,
1000
0100
1000
0000
0100
0000
0000
0000
0010
0001
0010
0000
0001
0000
0000
0000
,
1000
0000
1000
0000
0010
0000
0000
0000
0100
0010
0100
0000
0001
0000
0000
0000
,
1000
0100
0010
0001
0200
0010
0310
0000
,
0100
0001
0010
0100
2000
0001
3001
0000
,
1000
0000
0001
0100
0001
0000
0100
0000
0010
0000
1000
0000
1000
0000
0000
0000
,
0001
0000
1000
0100
1000
0000
0100
0000
0010
0000
0001
0000
0001
0000
0000
0000
,
2002
0000
0000
3003
,
0001
0100
0001
1000
0100
1000
0001
0000
0000
1001
0000
0000
,
2000
0000
3000
0000
0100
0100
0010
0000
,
0002
0000
0003
0000
0100
0100
0010
0000
,
2000
0000
3020
0000
0130
0001
1000
0000
,
0002
0023
0200
0330
,
2002
0000
3003
0000
1000
0100
0000
0100
,
0020
0000
0000
0000
0030
0000
0000
0000
0001
0000
0000
1000
0000
0000
0001
0000
,
0200
0000
0000
0000
0310
0000
0000
0000
0100
0000
0000
0100
0000
0000
0001
0000
,
1000
0100
0010
0001
0100
0100
0100
0000
,
0101
0100
0010
1010
0010
2000
0000
3000
,
0001
1000
0100
0010
0001
1000
0001
0000
,
1010
0010
0100
0101
0100
0002
0000
0003
,
1000
0100
0001
0100
1000
0000
1002
0000
,
1003
0000
0010
0000
0110
0000
0001
0000
0010
0000
0220
0000
0000
0330
0000
0000
,
0010
0001
1000
0001
0100
0010
1000
0000
,
3001
0000
0010
0000
0110
0000
1000
0000
0010
0000
0220
0000
0000
0330
0000
0000
,
1010
0000
0000
0110
0000
0000
0101
0000
0000
0110
0000
0000
1002
0000
0000
0000
,
3013
0000
0001
1000
0001
0000
0100
0000
,
0001
1000
0001
0000
0100
0000
0010
0000
,
1000
1000
0100
0100
,
0010
0001
1000
0001
,
0101
0000
1000
0001
1000
0000
0100
0000
,
1000
0001
1000
0000
0010
0000
0100
0000
,
0001
0000
1000
0100
0000
0100
0010
0000
,
0001
0100
0000
0100
0020
0000
1030
0000
,
2002
0000
3003
0000
0001
0010
0000
0010
,
0000
0100
0000
0100
0000
1000
0001
0000
,
2000
3020
0230
0302
,
0023
0000
0230
0000
1300
0001
1000
0000
,
0001
0101
1001
1000
,
1100
2002
3003
0000
,
0101
0000
0000
1001
0000
0000
1100
0000
,
0000
1001
0000
0000
0011
0000
0000
2001
,
0000
0000
0001
0000
0001
0003
0001
0000
,
0001
0001
0302
3003
,
0000
0000
1000
0100
0000
1000
0100
0000
0010
0001
0000
0000
0000
0000
0000
0000
;

//---------------dance-single - ----------------
#NOTES:
     dance-single:
     :
     Easy:
     5:
     0.222446,0.309468,0.062598,0.156495,0.000000,199.000000,191.000000,8.000000,20.000000,0.000000,0.000000,0.222446,0.309468,0.062598,0.156495,0.000000,199.000000,191.000000,8.000000,20.000000,0.000000,0.000000:
0000
0000
0000
0000
,
0000
0000
0000
0000
,
1000
1000
1000
0000
0001
0001
0001
0000
,
0100
0100
0010
0000
,
0100
0100
0010
0010
,
1000
1000
1000
1000
0001
0001
0001
0000
,
1001
0000
1000
0000
0001
0001
0010
0000
,
0100
0000
1000
0000
0010
0010
0100
0000
,
0010
0000
1000
0000
0001
0001
0010
0000
,
0100
0100
2000
3001
,
1001
0000
1000
0000
0010
0010
0100
0000
,
0001
0000
1000
0000
0001
0001
0010
0000
,
0001
0000
1000
0000
0100
0100
0010
0000
,
0100
0000
0000
0000
,
1000
1000
0000
0000
0001
0001
0000
0000
,
0100
0100
0000
0000
0010
0010
0000
0000
,
1000
0010
0200
0301
,
0001
0010
0200
1300
,
0001
0100
0001
0000
1000
0000
0001
0000
,
1000
0100
1000
0000
0001
0000
1000
0000
,
2002
0000
0000
3003
,
1001
0110
2002
3003
,
0002
0003
0001
0010
,
0200
0300
0100
1000
,
0020
0030
0010
1000
,
2000
3000
0002
0003
,
2002
0000
3003
0000
1000
0100
0000
0000
,
2000
3000
0001
0001
,
0200
0300
0010
0010
,
1000
0100
0010
0001
,
1000
0100
1000
0100
1000
0100
0000
0000
,
0010
0010
0001
1000
,
0001
0100
0001
0100
0001
0100
0000
0000
,
0001
0100
0010
0000
,
1000
0010
1000
0010
1000
0010
0000
0000
,
1000
0010
0100
0001
,
0010
0001
0010
0001
0010
0001
0000
0000
,
2000
0000
3000
0002
0000
0003
0200
0000
,
0310
0000
0010
0000
,
1000
0000
0001
0000
,
1000
0100
0010
0000
,
0001
0100
0010
0000
,
1000
0000
0001
0000
,
0100
0000
0100
0000
,
0001
0010
0100
0000
,
1000
0010
0100
0000
,
0001
0001
0001
0100
,
0100
0100
0000
0000
,
0001
0000
0010
0000
,
0100
0000
0100
0000
,
1000
1000
1000
0010
,
0010
0010
0000
0000
,
1000
0000
0000
1000
0000
0000
0001
0000
,
0000
0001
0000
0000
0100
0000
0000
0200
,
0000
0000
0000
0000
,
0000
0000
0000
0000
,
0310
0000
0000
0030
1001
0000
0000
0000
;

//---------------dance-single - ----------------
#NOTES:
     dance-single:
     :
     Beginner:
     1:
     0.099486,0.154734,0.046948,0.000000,0.000000,89.000000,83.000000,6.000000,0.000000,0.000000,0.000000,0.099486,0.154734,0.046948,0.000000,0.000000,89.000000,83.000000,6.000000,0.000000,0.000000,0.000000:
0000
0000
0000
0000
,
0000
0000
0000
0000
,
0001
0000
0000
0000
,
1000
0000
0000
0000
,
0010
0000
0010
0000
,
0100
0100
0100
0000
,
1001
0000
0000
0001
,
0001
0000
0000
1000
,
1000
0000
0000
0010
,
0010
0000
0010
0000
,
1001
0000
0000
1000
,
1000
0000
0000
0100
,
0100
0000
0000
0010
,
0010
0000
0000
0000
,
0001
0000
0001
0000
,
1000
0000
1000
0000
,
0010
0000
0000
0000
,
0010
0000
0000
0000
,
1000
0000
1000
0000
,
0001
0000
0001
0000
,
0100
0000
0000
0000
,
0010
0010
0010
0000
,
1000
0000
0000
0000
,
0001
0000
0001
0000
,
0001
0000
0000
0000
,
0010
0000
0010
0000
,
0010
0000
0000
0000
,
0100
0000
0100
0000
,
0100
0000
0000
0000
,
1000
0000
0000
0000
,
1001
0000
1000
0000
,
0010
0010
0000
0000
,
1000
0000
0001
0000
,
0010
0010
0000
0000
,
0001
0000
1000
0000
,
0100
0100
0000
0000
,
1000
0000
0001
0000
,
0100
0000
0000
0000
,
1001
0000
0000
0000
,
0001
0000
0000
0000
,
0010
0000
0000
0000
,
0010
0000
0000
0000
,
0100
0000
0000
0000
,
0100
0000
0000
0000
,
1000
0000
0000
0000
,
1000
0000
0000
0000
,
0010
0000
0000
0000
,
0010
0000
0000
0000
,
0100
0000
0100
0000
,
0100
0000
0000
0000
,
0001
0000
0000
0000
,
0001
0000
0000
0000
,
1001
0000
0000
0000
,
0100
0000
0100
0000
,
0100
0000
0000
0000
,
0010
0000
0000
0000
,
0000
0000
1001
0000
;

//---------------dance-double - ----------------
#NOTES:
     dance-double:
     :
     Hard:
     13:
     0.587972,0.708138,0.438185,0.485133,0.477308,526.000000,470.000000,56.000000,62.000000,0.000000,0.000000,0.587972,0.708138,0.438185,0.485133,0.477308,526.000000,470.000000,56.000000,62.000000,0.000000,0.000000:
// measure 0
00000000
00000000
00000000
00000000
,  // measure 1
00000000
00000000
00000000
00000000
,  // measure 2
00020000
00001000
00000100
00032000
00010000
01000000
00013000
00000000
,  // measure 3
00001000
00000000
00100000
00001000
00000000
00010000
00001000
00000000
00010000
00000010
00000000
00000000
00000220
00000000
00000330
00000000
,  // measure 4
00000001
00001000
00010000
10000000
,  // measure 5
00010000
00000000
00100000
00000000
10000000
00000000
00100000
00000000
00001000
00010000
00001000
00022000
00000000
00000000
00033000
00000000
,  // measure 6
00010010
00000000
00000010
00000100
00000001
00000000
00001000
00000100
00000000
00010000
00000100
00000000
00010000
00010000
00001000
00000000
,  // measure 7
01001000
00000000
01000000
00100000
10000000
00000000
00010000
00100000
00000000
00001000
00100000
00000000
00021000
00001000
00000000
00000000
,  // measure 8
00030010
00000000
00001000
00000100
00000010
00000000
00000001
00000100
00000000
00001000
00010000
00000000
00000100
00000100
00010000
00000000
,  // measure 9
00001000
00000000
01000000
00100000
00000000
00100000
01000000
00000000
00001000
00001000
00100000
00000000
00011000
00000000
00000000
00000000
,  // measure 10
02001000
00000000
03100000
00010000
00100000
10000000
01000000
00100000
00000000
00001000
00100000
00000000
00001000
00001000
00010000
00000000
,  // measure 11
00010020
00000000
00000130
00001000
00000100
00000001
00000010
00000100
00000000
00010000
00001000
00000000
00012000
00010000
00000000
00000000
,  // measure 12
00103300
01000000
00100000
10000000
00100000
00000000
00010000
01000000
00010000
10000000
00010000
00000000
00100000
00100000
00001000
00000000
,  // measure 13
00011000
00000000
01000000
01000000
00000000
00000100
00000100
00000000
00010000
00001000
00000000
00000000
00011000
00000000
00000000
00000000
,  // measure 14
00010000
00000010
00000100
00000000
00000120
00000000
00010030
00000000
00001000
00100000
01000000
00000000
01200000
00000000
00301000
00000000
,  // measure 15
00012000
00000000
00003200
00000000
00000310
00010000
00001000
00000000
00010000
00001000
00200000
00000000
01300000
00000000
00010000
00000000
,  // measure 16
00001000
00000000
00000000
00000000
00000010
00000000
00000000
00000000
00000001
00000000
00000000
00000000
00000010
00000000
00000000
00000000
00000100
00000000
00000000
00000000
00001000
00000000
00000000
00000000
00000020
00000000
00000000
00000000
00000000
00000000
00000130
00000000
00000000
00001000
00000000
00000000
00010030
00000000
00000000
00000000
00000000
00000000
00001000
00000000
00000000
00000000
00000000
00000000
,  // measure 17
00010000
00000000
00000000
00000000
01000000
00000000
00000000
00000000
10000000
00000000
00000000
00000000
01000000
00000000
00000000
00000000
00100000
00000000
00000000
00000000
00010000
00000000
00000000
00000000
02000000
00000000
00000000
00000000
00000000
00000000
03100000
00000000
00000000
00010000
00000000
00000000
03001000
00000000
00000000
00000000
00000000
00000000
00010000
00000000
00000000
00000000
00000000
00000000
,  // measure 18
00001000
00000000
00100000
01000000
00200000
00000000
01300000
00010000
02000000
00000000
03010000
00001000
00200000
00000000
00301000
00000000
,  // measure 19
00010000
00000000
00000010
00000100
00000020
00000000
00000130
00001000
00000200
00000000
00001300
00010000
00000200
00000000
00010300
00000000
,  // measure 20
00001000
00000000
00001000
00000000
00001000
00000000
00010000
00000000
00010000
00000000
00010000
00000000
00000010
00000000
00100000
00000000
00000010
00000000
00020000
00000000
00000000
00030000
00000000
00000000
,  // measure 21
00011000
01001000
00011000
00010100
00011000
00101000
00011000
00000000
00000000
00001001
00000000
00000000
,  // measure 22
00000002
00000000
00000000
00000000
00000000
00000000
00000103
00000000
00000000
00000000
00000000
00000001
00001000
00000000
00000000
00000100
00000000
00000000
00020000
00000000
00000000
00000000
00000000
00000000
,  // measure 23
00032000
00000000
00000000
00000000
00000000
00000000
01003000
00000000
00000000
00000000
00000000
00001000
00100000
00000000
00000000
01000000
00000000
00000000
20000000
00000000
00000000
00000000
00000000
00000000
,  // measure 24
30200000
00000000
00000000
00000000
00000000
00000000
00310000
00000000
00000000
00000000
00000000
00100000
10000000
00000000
00000000
00010000
00000000
00000000
00230000
00000000
00000000
00000000
00000000
00000000
,  // measure 25
00302000
00000000
00000000
00000010
00003020
00000000
00000000
00000001
00000032
00000000
00000100
00000000
00001003
00000000
00000000
00000000
,  // measure 26
00002002
00000000
00000000
00000000
00003003
00000000
00001000
00000010
00010000
00000000
00011000
00000000
00000000
00000000
00001000
00100000
,  // measure 27
00002000
00000000
00000000
00000000
01003000
00000000
00010000
01000000
00010000
00000000
10000000
01000000
00000000
01000000
00100000
00000000
,  // measure 28
00020000
00000000
00000000
00000000
01030000
00000000
00001000
00010000
00001000
00000000
00010000
00000100
00000000
00000100
00000010
00000000
,  // measure 29
00000002
00000000
00000103
00000010
00002000
00000000
00003100
00000010
00000100
00000010
00000100
00000010
00001000
00010000
00001000
00100000
,  // measure 30
00101000
00000000
00011000
00000000
00010100
00000000
00010010
00000000
00011000
00000000
01001000
00000000
01000000
00100000
10000000
00000000
,  // measure 31
00010000
00100000
00010000
00100000
10000000
00100000
10000000
00100000
00010000
01000000
00100000
01000000
00001000
00010000
00001000
00000000
,  // measure 32
00010100
00000000
00011000
00000000
00101000
00000000
01001000
00000000
00011000
00000000
00010010
00000000
00000010
00000100
00000001
00000000
,  // measure 33
00001000
00000000
00000001
00000100
00000000
00000100
00000010
00000000
00001000
00000100
00000000
00000100
00020000
00000000
00031000
00000000
,  // measure 34
00101000
00000000
00100000
00001000
00010000
00000000
00010010
00000000
00000010
00010000
00000200
00000000
00003310
00000001
00000003
00000000
,  // measure 35
00001000
00000100
00001000
00000100
00000001
00000100
00000001
00000100
00001000
00000010
00000100
00000010
00010000
00001000
00010000
00000000
,  // measure 36
00010100
00000000
00000100
00010000
00001000
00000000
01001000
00000000
01000000
00001000
00020000
00000000
00331000
00100000
00001000
00000000
,  // measure 37
00012000
00000000
00013000
00020010
00000000
00031000
00102000
00000000
00013000
00020100
00000000
00031000
01001000
00000000
00011000
00000000
,  // measure 38
20010000
00000000
30100000
00010000
00100000
10000000
01000000
00100000
,  // measure 39
01000000
00100000
00010000
01000000
00100000
10000000
00010000
00000000
,  // measure 40
10000000
01000000
00100000
00010000
00001000
00000100
00000010
00000001
,  // measure 41
00000100
00000010
00000100
00001000
00000100
00000010
00000100
00000000
,  // measure 42
00001002
00000000
00000103
00001000
00000100
00000001
00000010
00000100
,  // measure 43
00000010
00000100
00001000
00000010
00000100
00000001
00001000
00000000
,  // measure 44
00000001
00000010
00000100
00000100
00010000
00001000
00001000
01000000
,  // measure 45
00100000
00000000
00100000
00000000
10000000
00000000
00010000
01000000
00010000
00000000
00100000
00000000
01300000
00000000
10000000
00000000
,  // measure 46
20010000
00000000
30200000
00000000
01300000
00002000
00000000
00023000
,  // measure 47
00000000
00030200
00000000
00000320
00000000
00000031
00001000
00000000
,  // measure 48
00000001
00000100
00000010
00001000
00010000
01000000
00100000
10000000
,  // measure 49
01000000
00100000
01000000
00010000
01000000
00100000
01000000
00000000
,  // measure 50
21000000
00000000
33100000
01000000
00010000
00100000
00001000
00010000
,  // measure 51
00000010
00000000
00000100
00000000
00001000
00000000
00000100
00000010
00000100
00000000
00000010
00000000
00010000
00000000
00001000
00000000
,  // measure 52
00021000
00000000
00031000
01002000
00000000
00013000
00020100
00000000
,  // measure 53
00031000
00102000
00000000
00313000
00010020
00000000
00010030
00012000
,  // measure 54
00000000
00100000
00100000
00100000
,  // measure 55
00100000
00100000
00020000
00033000
,  // measure 56
00000000
00000000
00000001
00000010
00000000
00001000
00010000
00000000
01000000
10000000
00000000
00000000
00000000
00000000
00000000
00000000
;

//---------------dance-double - ----------------
#NOTES:
     dance-double:
     :
     Medium:
     10:
     0.419182,0.486845,0.266041,0.344288,0.199531,375.000000,341.000000,34.000000,44.000000,0.000000,0.000000,0.419182,0.486845,0.266041,0.344288,0.199531,375.000000,341.000000,34.000000,44.000000,0.000000,0.000000:
00000000
00000000
00000000
00000000
,
00000000
00000000
00000000
00000000
,
00010000
00001000
00001000
00100000
00001000
00001000
00010000
00000000
,
00010000
00000000
00000010
00000100
00000000
00000010
00000100
00000000
00000010
00000100
00000000
00000000
00001002
00000000
00000000
00000000
,
00000103
00001000
00010000
00100000
,
10000000
00000000
01000000
00000000
00100000
00000000
00010000
00000000
01000000
00100000
01000000
00200000
00000000
00000000
00000000
00000000
,
10300000
00000000
00010000
01000000
00010000
00000000
10000000
00000000
01000000
00000000
00100000
00000000
00002000
00000000
00000000
00000000
,
00013000
00000000
00000010
00000100
00000010
00000000
00001000
00000000
00000100
00000000
00000010
00000000
00000012
00000000
00000000
00000000
,
00001003
00000000
00000010
00000100
00000010
00000000
00000100
00000000
00000001
00000000
00001000
00000000
00000200
00000000
00000000
00000000
,
00010300
00000000
00001000
00100000
00000000
00001000
00100000
00000000
00001000
00010000
00000000
00000000
00021000
00000000
00000000
00000000
,
00030010
00000000
00000100
00000001
00000100
00000000
00000001
00000010
00000000
00000010
00000100
00000000
00020000
00000000
00000000
00000000
,
00031000
00000000
00100000
00010000
00100000
00000000
00010000
01000000
00000000
01000000
00100000
00000000
20000000
00000000
00000000
00000000
,
30010000
00000000
01000000
00100000
01000000
00000000
00010000
00100000
00000000
00100000
00001000
00000000
00020000
00000000
00000000
00000000
,
00031000
00000000
00000000
00021000
,
00030100
00001000
00000100
00000000
00010000
00000000
00001000
00000000
01000000
00010000
01000000
00000000
00001000
00000000
00010000
00000000
,
00000010
00000000
00000010
00000000
00010000
00000000
00001000
00000000
00100000
00010000
00100000
00000000
00001000
00000000
00010000
00000000
,
00100000
10000000
01000000
00010000
00012000
00000000
00013000
00000000
,
00010000
00001000
00000100
00000001
00000021
00000000
00000230
00000000
,
00001300
00000000
00000001
00000100
00000001
00000000
00000100
00000010
00000100
00000000
00000010
00000000
00010000
00000000
00000000
00000000
,
00001000
00000000
00100000
00010000
00100000
00000000
01000000
00100000
01000000
00000000
10000000
00000000
00010000
00000000
00000000
00000000
,
20020000
00000000
00000000
30030000
,
10000000
00100000
00010000
00001000
00000100
00000001
00001000
00000000
00000000
00001001
00000000
00000000
,
00000002
00000000
00000010
00000000
00001003
00000100
00010000
00010000
,
00002000
00000000
00100000
00000000
01003000
00010000
10000000
10000000
,
00200000
00000000
00010000
00000000
10300000
00010000
00100000
00100000
,
00002000
00023000
00030020
00000130
,
00002002
00000000
00000000
00000000
00003003
00000000
00000000
00001000
00000100
00000000
00000100
00000000
00000000
00000000
00010000
00001000
,
00010000
00000000
00000000
00000000
00000000
00000000
00001000
00000000
01000000
00000000
00010000
10000000
00000000
00010000
10000000
00000000
,
00100000
00000000
00000000
00000000
00000000
00000000
10000000
00000000
00010000
00000000
00100000
00001000
00000000
00100000
00001000
00000000
,
00010000
00000000
00000010
00000100
00000010
00000000
00000100
00000001
00001000
00003000
00003001
00000000
00002002
00000000
00033033
00000000
,
00000101
00000100
00000010
00010010
00010000
00001000
00200000
00000000
,
00310000
10000000
00010000
00000000
10000000
00000000
00100000
00000000
01000000
00000000
00010000
00000000
10000000
00000000
00000000
00000000
,
10100000
00100000
01000000
01001000
00001000
00010000
00000200
00000000
,
00001300
00000000
00000001
00000100
00000000
00000100
00000010
00000000
00001000
00000100
00000000
00000000
00020100
00000000
00000000
00000000
,
00031000
00101000
00101000
00010000
00010010
00010010
00020000
00000000
,
00031000
01000000
00001000
00000000
01000000
00000000
00100000
00000000
10000000
00000000
00010000
00000000
00100000
00000000
00001000
00000000
,
00013000
00010100
00010100
00001000
01001000
01001000
00002000
00000000
,
00013000
00000000
00000000
00101000
00000000
00000000
00011000
00000000
00000000
00010010
00000000
00000000
00012000
00000000
00000000
00000000
,
00103000
00000000
01000000
00100000
01000000
00000000
10000000
00000000
,
00100000
01000000
00100000
00000000
01000000
00000000
00010000
00000000
,
00100000
00001000
00100000
00000000
00001000
00000000
00010000
00000000
,
00000010
00001000
00000010
00000000
00000100
00000000
00000001
00000000
,
00001000
00000000
00000001
00000010
00000001
00000000
00001000
00000000
,
00000001
00000100
00000001
00000000
00000100
00000000
00000010
00000000
,
00010000
00000000
00001000
00100000
00000000
00001000
00100000
00000000
,
00001000
00010000
00000000
00000000
00012000
00000000
00000000
00000000
,
00103000
00000000
01000000
00100000
01000000
00000000
00100000
00000000
,
00010000
10000000
00010000
00000000
10000000
00000000
00100000
00000000
,
01000000
00010000
01000000
00000000
00001000
00000000
00010000
00000000
,
00000100
00000010
00000100
00000000
00000010
00000000
00000001
00000000
,
00001000
00000000
00000001
00000100
00000001
00000000
00001000
00000000
,
00000010
00000100
00000010
00000000
00001000
00000000
00000100
00000000
,
00020200
00000000
00030300
00022000
00000000
00033000
00202000
00000000
,
00303000
00022000
00000000
00033000
00020020
00000000
00030030
00012000
,
00000000
00100000
00100000
00100000
,
00100000
00000000
00000000
00000000
00100000
00000000
00000000
00000000
00020000
00000000
00000000
00000000
00033000
00003000
00000000
00000000
,
00000000
00000000
00001000
00010000
00000000
00001000
00010000
00000000
00001000
00010000
00000000
00000000
00000000
00000000
00000000
00000000
;

//---------------dance-double - ----------------
#NOTES:
     dance-double:
     :
     Easy:
     6:
     0.285044,0.375782,0.156495,0.289515,0.003912,255.000000,235.000000,20.000000,37.000000,0.000000,0.000000,0.285044,0.375782,0.156495,0.289515,0.003912,255.000000,235.000000,20.000000,37.000000,0.000000,0.000000:
00000000
00000000
00000000
00000000
,
00000000
00000000
00000000
00000000
,
00010000
00010000
00010000
00001000
00001000
00001000
00000000
00000000
,
00100000
00100000
00001000
00020000
,
00030010
00000010
00000100
00000100
,
00000001
00001000
00000001
00001000
00000100
00010000
00002000
00000000
,
00103000
01000000
00100000
00000000
00010000
00000000
02000000
00000000
,
03001000
00010000
00001000
00000000
00010000
00000000
00001020
00000000
,
00000130
00000001
00000100
00000000
00000001
00000000
00002000
00000000
,
00003100
00000100
00000100
00000000
00010000
00010000
00010000
00000000
,
00001000
00100000
00001000
00010000
00001000
00001000
00010000
00000000
,
00010000
00001000
00010000
00000010
00010000
00010000
00012000
00000000
,
00103000
00010000
00100000
00010000
10000000
00100000
10000000
00000000
,
10010000
00000000
00000000
00000000
,
10000000
02000000
00000000
03000000
00100000
00002000
00000000
00003000
,
00010000
00000020
00000000
00000030
00000100
00000002
00000000
00000003
,
00001000
00000100
00000010
00000001
00000200
00000000
00000320
00000000
,
00000130
00000001
00000010
00000100
00002000
00000000
00003020
00000000
,
00010030
00001000
00010000
00000000
00001000
00001000
00100000
00000000
,
00001000
00010000
00001000
00000000
00010000
00010000
00000010
00000000
,
00022000
00000000
00000000
00033000
,
00101000
00010010
00022000
00033000
,
20020000
00000000
30030000
00000000
00010000
00010000
00000000
01000000
,
02000000
00000000
03000000
00000000
00001000
00001000
00000000
00010000
,
00020000
00000000
00030000
00000000
00000100
00000100
00000000
00000010
,
00000020
00000032
00002003
00003000
,
00002002
00000000
00003003
00000000
00001000
00000100
00000000
00000100
,
00020000
00000000
00030000
00001000
01000000
00001000
01000000
00000000
,
00020000
00000000
00030000
10000000
01000000
10000000
01000000
00000000
,
00200000
00302000
00023000
00031000
,
00010000
00010000
00010000
00001000
00001000
00001000
00100000
00000000
,
00001000
00100000
00010000
00000000
00100000
00001000
00010000
00000000
,
00001000
00001000
00001000
00010000
00010000
00010000
00000010
00000000
,
00010000
00000100
00000010
00001002
,
00000103
00000100
00000100
00000010
00000010
00000010
00002000
00000000
,
00003100
00010000
00000100
00000000
00010000
00001000
00010000
00000000
,
00001000
00001000
00001000
01000000
01000000
01000000
00100000
00000000
,
10100000
00000000
00000000
10010000
00000000
00000000
00120000
00000000
,
01030000
01000000
01000000
00001000
,
00001000
00001000
00010000
00000000
,
00010000
00000100
00000010
00000001
,
00000100
00000010
00010000
00000000
,
00001000
00001000
00001000
00100000
,
00100000
00100000
01000000
00000000
,
10000000
00100000
01000000
00010000
,
00100000
00001000
00010000
00000000
,
00011000
00000000
00000100
00000000
,
00010000
00000000
00001000
00000000
,
00100000
00001000
00010000
00000010
,
00000100
00000001
00001000
00000000
,
00000001
00000001
00000001
00001000
,
00001000
00001000
00000100
00000000
,
00010100
00000000
00000000
00010100
00000000
00000000
00011000
00000000
,
00000000
00011000
00000000
00000000
00101000
00000000
00000000
00202000
,
00000000
00000000
00000000
00000000
,
00000000
00000000
00303000
00000000
,
00000000
00000000
00001000
00000000
00000000
00010000
00000000
00000000
00001000
00000000
00000000
00000000
00000000
00000000
00000000
00000000
;
