#VERSION:0.83;
#TITLE:Let's Groove Rap;
#SUBTITLE:;
#ARTIST:Nineball Feat. Da Lastaman;
#TITLETRANSLIT:;
#SUBTITLETRANSLIT:;
#ARTISTTRANSLIT:;
#GENRE:BASS MUSIC;
#ORIGIN:;
#CREDIT:;
#BANNER:letsgroove-bn.png;
#BACKGROUND:letsgroove-bg.png;
#PREVIEWVID:;
#JACKET:letsgroove-jacket.png;
#CDIMAGE:;
#DISCIMAGE:;
#LYRICSPATH:;
#CDTITLE:;
#MUSIC:letsgrooverap.ogg;
#OFFSET:-0.002860;
#SAMPLESTART:36.898998;
#SAMPLELENGTH:14.758000;
#SELECTABLE:YES;
#BPMS:0.000=130.095;
#STOPS:;
#DELAYS:;
#WARPS:;
#TIMESIGNATURES:0.000=4=4;
#TICKCOUNTS:0.000=4;
#COMBOS:0.000=1;
#SPEEDS:0.000=1.000=0.000=0;
#SCROLLS:0.000=1.000;
#FAKES:;
#LABELS:0.000=Song Start;
#BGCHANGES:;
#KEYSOUNDS:;
#ATTACKS:
;

//---------------dance-single - ----------------
#NOTEDATA:;
#CHARTNAME:;
#STEPSTYPE:dance-single;
#DESCRIPTION:;
#CHARTSTYLE:;
#DIFFICULTY:Challenge;
#METER:13;
#RADARVALUES:0.493490,0.593373,0.331957,0.259341,0.363078,333.000000,301.000000,32.000000,25.000000,0.000000,0.000000,0.000000,0.000000,0.000000,0.493490,0.593373,0.331957,0.259341,0.363078,333.000000,301.000000,32.000000,25.000000,0.000000,0.000000,0.000000,0.000000,0.000000;
#CREDIT:TonyAkita;
#NOTES:
0000
0000
0000
0000
,
0000
0000
0000
0000
,
0000
0000
0000
0000
,
0000
0000
0000
0000
,
2000
0000
0000
0000
0000
0000
3100
0000
0000
0000
1000
0010
1000
0000
0001
0000
,
0020
0000
0030
1100
0000
0000
0000
0000
,
0002
0000
0000
0000
0000
0000
0103
0000
0000
0000
0001
0010
0001
0000
1000
0000
,
0010
0000
0000
0010
0000
0000
1010
0000
0000
0011
0000
0000
0000
0000
0000
0000
,
2000
0000
0000
0000
0000
0000
3100
0000
0000
0000
1000
0010
1000
0000
0001
0000
,
0010
0000
0000
0010
0000
0000
1100
0000
0010
0000
0000
0010
0000
0000
0101
0000
,
0002
0000
0000
0000
0000
0000
0013
0000
0000
0000
0001
1000
0001
0000
0100
0000
,
0220
0000
0000
0000
0330
0000
0000
0000
1000
0001
1000
0001
1000
0000
0000
0000
,
0010
0000
1000
0000
0010
0000
0100
0000
0010
1000
0000
0002
0000
0000
0003
0000
,
0010
0001
0000
0001
0000
0000
1000
0100
1000
0000
0100
0000
0001
0000
0100
0000
,
0010
0000
0100
0000
0010
0000
0001
0010
0001
0000
1000
0000
0010
0000
0001
0000
,
0010
1000
0000
1000
0000
0000
0001
0100
0001
0000
0100
0000
1000
0000
0100
0000
,
0010
0000
1000
0010
1000
0000
0010
1000
0000
0001
0000
0010
0001
0000
0010
0001
,
0000
1000
0000
0100
1000
0000
0100
0001
0100
0000
1000
0100
1000
0000
0200
0000
,
0000
0310
0001
0010
0100
0010
0001
0000
,
1000
0010
1000
0010
0000
0100
0000
0010
0000
0100
0000
0001
1000
0000
0000
0000
,
1100
0000
0010
0001
0010
0000
0000
0000
,
0100
1000
0000
1000
0000
0000
0002
0000
0000
0000
0103
0000
1000
0000
0100
0000
,
0101
1000
1100
0000
,
0001
0000
0010
0000
0100
0000
1000
0000
0000
0000
1000
0001
1000
0001
1000
0000
,
0000
0000
0010
1000
0020
0000
0030
0000
,
0100
0001
0000
0001
0000
0000
2000
0000
0000
0000
3100
0000
0001
0000
0100
0000
,
1100
0001
0101
0000
,
1000
0000
0010
0000
0100
0000
0001
0000
0000
0000
0001
1000
0001
1000
0001
0000
,
0200
0000
0300
0010
2000
0000
3100
0000
,
1010
0000
0000
0011
0000
0001
1000
0000
,
0200
0000
0300
0010
0002
0000
0103
0000
,
0011
0000
0000
0000
0000
0000
1010
0000
0000
0000
1000
0000
0001
0000
0100
0010
,
1000
0000
0010
0000
0001
0000
0010
0100
0000
0000
0001
0100
0001
0100
0001
0000
,
0020
0000
0030
1100
0000
0000
0000
0000
,
0001
0000
0010
0000
1000
0000
0010
0100
0000
0000
1000
0100
1000
0100
1000
0000
,
0010
0000
0000
0010
0000
0000
1010
0000
0000
0011
0000
0000
0000
0000
0000
0000
,
1000
0000
0100
0000
0001
0000
0100
0010
0000
0000
0001
0010
0001
0010
0001
0000
,
0010
0000
0000
0010
0000
0000
1100
0000
0010
0000
0000
0010
0000
0000
0101
0000
,
0001
0000
0100
0000
1000
0000
0100
0001
0000
0000
0100
0010
0100
0010
0100
0000
,
0220
0000
0000
0000
0330
0000
0000
0000
1000
0001
1000
0001
1000
0000
0000
0000
,
1001
0000
0010
1000
0001
0100
0010
1000
,
0001
0010
0000
0010
0000
0000
0200
0000
0000
0000
0000
0000
0301
0000
0100
0000
,
1100
0001
0101
0000
,
1000
0000
0010
0000
0100
0000
0001
0000
0000
0000
0010
0100
0010
0100
0010
0000
,
0000
1001
1001
0000
1000
0100
0010
0001
,
1000
0010
0000
0010
0000
0000
0200
0000
0000
0000
0000
0000
1300
0000
0100
0000
,
0101
1000
1100
0000
,
0001
0000
0010
0000
0100
0000
1000
0000
0000
0000
0010
1000
0010
1000
0010
0000
,
0200
0000
0300
0001
2000
0000
3100
0000
,
1010
0000
0000
0011
0000
0001
1000
0000
,
0200
0000
0300
1000
0002
0000
0103
0000
,
0011
0000
0000
0000
0000
0000
1010
0000
0000
0000
1000
0000
0001
0000
0100
0010
,
0100
0000
0000
0000
;

//---------------dance-single - ----------------
#NOTEDATA:;
#CHARTNAME:;
#STEPSTYPE:dance-single;
#DESCRIPTION:;
#CHARTSTYLE:;
#DIFFICULTY:Hard;
#METER:9;
#RADARVALUES:0.369006,0.431544,0.207473,0.197100,0.051868,249.000000,229.000000,20.000000,19.000000,0.000000,0.000000,0.000000,0.000000,0.000000,0.369006,0.431544,0.207473,0.197100,0.051868,249.000000,229.000000,20.000000,19.000000,0.000000,0.000000,0.000000,0.000000,0.000000;
#CREDIT:TonyAkita;
#NOTES:
// measure 0
0000
0000
0000
0000
,  // measure 1
0000
0000
0000
0000
,  // measure 2
0000
0000
0000
0000
,  // measure 3
0000
0000
0000
0000
,  // measure 4
2000
0000
0000
3010
0000
0000
0100
0001
,  // measure 5
0020
0000
0030
0110
0000
0000
0000
0000
,  // measure 6
0002
0000
0000
0013
0000
0000
0100
1000
,  // measure 7
0010
0000
0000
0010
0000
0000
0100
0000
0000
0100
0000
0000
0000
0000
0000
0000
,  // measure 8
0002
0000
0000
0103
0000
0000
0001
0010
,  // measure 9
0100
0000
0000
0100
0000
0000
0100
0000
0010
0000
0000
0010
0000
0000
0010
0000
,  // measure 10
0200
0000
0000
1300
0000
0000
0001
1000
,  // measure 11
0220
0000
0330
0000
,  // measure 12
1010
0000
0100
0001
0000
0001
0100
0000
,  // measure 13
0010
0100
0010
0000
1000
0100
0001
0100
,  // measure 14
1000
0000
0100
1000
0000
1000
0100
0000
,  // measure 15
0010
0100
0010
0000
0001
0100
1000
0100
,  // measure 16
0001
0000
0100
0010
0000
0010
0100
0000
,  // measure 17
0001
0010
1000
0010
0001
0010
0100
1000
,  // measure 18
0000
0000
0100
0010
0000
0010
0100
0000
,  // measure 19
1000
0010
0001
0010
1000
0010
0100
0000
,  // measure 20
0101
0000
0001
0010
0002
0000
0003
0000
,  // measure 21
1000
0000
0000
1000
0000
0000
1000
0000
0000
0000
0100
0000
0010
0000
0000
0000
,  // measure 22
0011
1000
1010
0000
,  // measure 23
0001
0100
0010
1000
0000
0001
1000
0001
,  // measure 24
0000
0000
1000
0010
1000
0000
0000
0000
,  // measure 25
0001
0000
0000
0001
0000
0000
0001
0000
0000
0000
0100
0000
0010
0000
0000
0000
,  // measure 26
1010
0001
0011
0000
,  // measure 27
1000
0100
0010
0001
0000
1000
0001
1000
,  // measure 28
0020
0000
0130
0001
,  // measure 29
0101
0000
0000
1100
0000
1000
0001
0000
,  // measure 30
0020
0000
0130
1000
,  // measure 31
1100
0000
0000
0101
0000
1000
0001
0000
,  // measure 32
0100
0001
0100
0010
0100
0001
1000
0001
,  // measure 33
0020
0000
0030
0110
0000
0000
0000
0000
,  // measure 34
0100
1000
0100
0010
0100
1000
0001
1000
,  // measure 35
0010
0000
0000
0010
0000
0000
0100
0000
0000
0100
0000
0000
0000
0000
0000
0000
,  // measure 36
0010
1000
0010
0100
0010
1000
0001
1000
,  // measure 37
0100
0000
0000
0100
0000
0000
0100
0000
0010
0000
0000
0010
0000
0000
0010
0000
,  // measure 38
0001
0010
0100
0010
0001
1000
0001
1000
,  // measure 39
0220
0000
0330
0000
,  // measure 40
1010
0000
0001
0100
0001
0010
0100
2000
,  // measure 41
0000
0010
0000
0001
0000
3010
0100
0001
,  // measure 42
0000
0000
1000
0002
0000
0010
0000
1000
,  // measure 43
0000
0100
0000
1003
0000
0001
0100
0001
,  // measure 44
0000
1000
0001
0000
1000
0100
0010
0002
,  // measure 45
0000
0010
0000
1000
0000
0013
0100
1000
,  // measure 46
0000
0000
0001
2000
0000
0010
0000
0001
,  // measure 47
0000
0100
0000
3001
0000
1000
0100
1000
,  // measure 48
0200
0000
0310
0001
,  // measure 49
0011
0000
0000
1010
0000
1000
0001
0000
,  // measure 50
0200
0000
0310
1000
,  // measure 51
1010
0000
0000
0011
0000
0001
1000
0000
,  // measure 52
0110
0000
0000
0000
;
