#TITLE:コケシネコ・メドレー;
#SUBTITLE:;
#ARTIST:Ino;
#TITLETRANSLIT:Kokeshineko Medley;
#SUBTITLETRANSLIT:;
#ARTISTTRANSLIT:;
#GENRE:;
#CREDIT:;
#MUSIC:Kokeshineko Medley.ogg;
#BANNER:Kokeshineko Medley.png;
#BACKGROUND:Kokeshineko Medley-bg.png;
#CDTITLE:;
#SAMPLESTART:16.777;
#SAMPLELENGTH:10.323;
#SELECTABLE:YES;
#OFFSET:-1.434;
#BPMS:0.000=108.000
,8.250=102.800
,9.000=186.000
,40.000=372.000
,41.000=186.000
,102.000=372.000
,105.000=186.000
,144.000=372.000
,145.000=186.000
,160.000=372.000
,161.000=186.000
,197.000=93.000
,219.000=186.000
,251.000=152.500
,252.000=211.000
,284.000=422.000
,285.000=211.000
,349.000=93.638
,349.250=46.819
,349.500=23.410
,350.000=46.819
,350.250=93.638
,351.000=188.400
,363.000=753.600
,364.000=188.400
;
#STOPS:40.000=0.161
,102.000=0.081
,102.500=0.108
,103.167=0.108
,103.833=0.188
,144.000=0.161
,160.000=0.161
,251.000=3.153
,284.000=0.142
,363.000=0.240
;
#DISPLAYBPM:93.000:211.000;
#BGCHANGES:;
#FGCHANGES:;

//--------------- dance-single - ----------------
#NOTES:
     dance-single:
     :
     Beginner:
     5:
     0.203886,0.286208,0.053712,0.053712,0,186,179,7,7,0,0,0.203886,0.286208,0.053712,0.053712,0,186,179,7,7,0,0:
0000
0000
0000
0000
,
0000
0000
0000
0000
,
0000
1000
0000
0100
,
0000
0010
0000
0010
,
0000
0001
0000
0100
,
0000
0001
0001
0001
,
0000
1000
0000
0010
,
0000
0100
0000
0100
,
0000
0001
0000
0010
,
0000
0100
1000
1000
,
0000
1000
0000
0010
,
0000
0100
0000
0010
,
0000
1000
0000
0001
,
0000
1000
0000
1000
,
0000
0001
0000
0010
,
0000
0100
0000
0010
,
0000
0001
0000
1000
,
0000
0001
0000
0001
,
0000
1000
0000
0010
,
0000
0100
0000
0001
,
0000
0010
0000
1000
,
0000
0010
0000
0001
,
0000
1000
0000
0010
,
0000
0001
0000
0010
,
0000
1000
0000
0001
,
0000
1000
0000
0000
,
0000
1000
0000
0100
,
0000
1000
0000
0000
,
0000
0001
0000
0100
,
0000
0001
0000
0000
,
0000
1000
0000
0001
,
0000
1000
0000
0000
,
0000
0001
0000
1000
,
0000
0001
0000
0000
,
0000
1000
0000
0010
,
0000
1000
0000
0001
,
0000
0001
0000
0010
,
0000
0001
0000
1000
,
0000
1000
0000
0010
,
0000
0100
0000
0001
,
0000
0001
0000
0010
,
0000
0100
0000
1000
,
0000
1000
0000
0010
,
0000
1000
0000
0010
,
1000
0001
0000
0010
,
0000
0001
0000
0010
,
0001
1000
0000
0100
,
0000
1000
0000
0100
,
1000
0001
0000
1000
,
0000
2002
3003
1000
,
0000
0001
0000
0100
,
0001
0100
0000
0001
,
0000
1000
0000
0001
,
1000
0100
0010
0001
,
0000
1000
0000
2002
,
3003
0000
0000
1000
,
0000
0010
0000
1000
,
0000
0100
0000
0010
,
0000
0001
0000
1000
,
0000
1000
0000
0001
,
0000
0001
0000
0100
,
0000
0010
0000
1000
,
0001
0000
0001
2000
,
3000
1001
0000
0000
,
0000
1000
0000
0100
,
0000
0010
0000
0100
,
0000
1000
0000
0001
,
0000
1001
0000
0000
,
0000
0001
0000
0010
,
0000
0100
0000
1000
,
0000
0001
0000
1000
,
0000
1000
0000
0100
,
0000
1000
0000
1000
,
0000
0001
0000
0100
,
0000
0001
0000
0001
,
0000
1000
0000
0100
,
0000
0010
0000
0010
,
0000
0001
0000
0100
,
0000
0010
0000
0100
,
0000
0001
0000
1000
,
0000
0010
0000
0010
,
0000
1000
0000
0001
,
0000
0010
0000
0010
,
0000
0001
0000
0100
,
0000
0010
0000
0010
,
0000
1000
0000
0001
,
0000
1000
0001
1000
,
0000
2002
3003
1000
,
0000
0100
0000
0010
,
0000
0001
0000
1001
,
0000
0000
0000
0000
,
0110
0000
0000
0000
;

//--------------- dance-single - OrangeRight ----------------
#NOTES:
     dance-single:
     OrangeRight:
     Easy:
     8:
     0.413253,0.500863,0.107424,0.352964,0.007673,377,363,14,46,0,0,0.413253,0.500863,0.107424,0.352964,0.007673,377,363,14,46,0,0:
0000
0000
0000
0000
,
0000
0000
0000
0000
,
0000
1000
0001
0100
,
0010
0000
1000
0000
0100
0000
1000
0010
,
1000
0001
0010
0100
,
1000
0000
0010
0100
0010
0000
1000
0001
,
1000
0001
1000
0010
,
0100
0001
0010
0100
,
1000
0010
0001
0010
,
1000
0100
0010
0001
,
2002
3003
1000
0010
1000
0000
0010
0000
,
0100
0000
0001
0100
0001
0000
1000
0000
,
0001
1000
0100
0001
,
0100
1000
0001
0001
,
1000
0000
0001
0100
0001
0000
1000
0000
,
0001
0000
1000
0010
1000
0000
0100
0000
,
0010
0001
0100
1000
,
0100
0000
0002
0000
0000
2003
0000
0000
,
3001
2000
3010
0020
,
0130
0000
0200
0000
0301
0000
0100
0001
,
0100
0002
0013
0020
,
0130
0000
0200
0000
1300
0000
1000
0001
,
1000
0002
0100
2003
,
0100
0000
3002
0000
0010
0000
1003
0001
,
1000
0000
0001
0100
0001
0000
1000
0100
,
1000
0000
0000
0000
0000
0000
0001
0000
0000
0000
0000
0000
1000
0000
0000
0001
0000
0000
0000
0001
0000
0000
0000
0001
,
0000
1000
0100
0010
,
0100
1000
0010
0100
,
0000
0001
0100
0010
,
0100
0000
0001
1000
0001
0000
1000
0000
,
0000
0001
0010
0100
,
0010
0001
1000
0010
,
0000
1000
0100
0010
,
0001
0000
1000
0001
1000
0000
0001
0100
,
0001
2000
3200
2300
,
3200
0320
0032
1003
,
1001
0001
0100
1000
,
0100
0001
0010
0100
,
1000
0002
0203
0302
,
0203
0320
2030
3001
,
1001
1000
0010
0001
,
0010
0000
1000
0000
0001
0000
1000
0001
,
1000
0002
0000
0103
,
0001
2000
0000
3100
,
1000
0020
0000
0130
,
0001
0020
0000
0130
,
1000
0002
0000
0103
,
0010
2000
0000
3001
,
1000
2002
3003
0220
,
0330
2002
3003
1000
,
0100
0000
1000
0001
1000
0000
0001
0000
,
0100
0000
0001
1000
0001
0000
1000
0000
,
0010
0000
0100
0010
0100
0000
0001
0000
,
0010
0000
0100
1000
0010
0100
0001
0000
,
1000
1000
0001
2000
,
0000
3100
1000
0010
,
0100
0001
0010
0001
,
0100
0010
0100
0001
,
0010
0100
1000
0010
,
0001
0010
1000
0100
,
0001
0100
1000
0010
,
0100
0001
1000
0100
,
1000
0001
0000
0001
1000
0000
2002
0000
,
3003
0000
1001
0000
0000
1100
0000
0000
,
0000
1000
0010
1000
,
0010
0100
0001
0100
,
0001
0010
0100
1000
,
0001
0000
1001
0000
0000
0011
0000
0000
,
0000
0001
0100
0001
,
0100
0010
1000
0010
,
1000
0100
0010
0001
,
2002
3003
1000
0000
0010
0000
0100
0000
,
0010
1000
0100
0010
,
0100
1000
0001
0100
,
0010
1000
0100
0010
,
0010
0001
0100
0010
,
0100
0001
0010
0100
,
0010
0001
1000
0010
,
0100
0000
0002
0000
0000
2003
0000
0000
,
3001
1000
0100
0010
,
0001
0100
1000
0100
,
0010
0100
0001
0010
,
0100
1000
0001
1000
,
0001
0000
1000
0001
0000
1000
0000
0000
,
0010
0000
0100
0010
0000
0100
0000
0000
,
0010
1000
0100
0001
,
0100
1000
0010
0100
,
0001
0000
2002
0000
0000
3003
1000
0000
,
1000
0001
0001
0100
,
0100
0000
0010
0000
0010
1000
0000
0000
,
1000
0001
1000
0001
,
1001
0000
0000
0000
;

//--------------- dance-single - OrangeRight ----------------
#NOTES:
     dance-single:
     OrangeRight:
     Medium:
     14:
     0.6851,0.822847,0.283906,0.629196,0.080568,625,588,37,82,4,0,0.6851,0.822847,0.283906,0.629196,0.080568,625,588,37,82,4,0:
0000
0000
0000
0000
,
0000
0000
0000
0000
,
0000
0000
1000
0000
0010
0200
0300
0100
,
0001
0010
0100
1000
0001
0100
0000
0100
,
0100
0001
1000
0010
1000
0001
1000
0100
,
0010
0001
0100
0100
0010
1000
0100
0010
,
0001
1000
0001
0100
0010
2000
3000
1000
,
0010
0100
0001
0010
0100
0010
0001
0100
,
0010
1000
0100
0010
0100
0001
0100
0010
,
0100
1000
0010
0001
0010
1000
0100
0010
,
0011
0000
0001
0100
0010
1000
0001
0010
,
0100
1000
0010
0100
0001
1000
0100
0010
,
0001
1000
0001
0100
0001
1000
0001
0010
,
0001
1000
0010
0100
0101
0000
1001
0000
,
1100
0000
1000
0010
0100
0001
1000
0100
,
0010
0001
0100
0010
1000
0001
0010
0100
,
1000
0010
1000
0001
1000
0100
0010
0001
,
0100
0010
2020
0000
3030
0220
0000
0330
,
0101
0000
1002
0000
0103
0001
2000
0000
,
3100
1000
0020
0000
0130
0001
0010
0100
,
1000
0000
2001
0000
3010
1000
0002
0000
,
0013
0001
0200
0000
0310
1000
0100
0010
,
0001
0100
0020
0000
1030
0100
0020
0000
,
0031
0100
0020
0000
1030
0001
0010
0100
,
1000
0010
1000
0100
0010
0001
1000
0010
,
0100
0000
0000
0001
0000
0000
1000
0000
0000
0001
0000
0000
1000
0000
0000
1001
0000
0000
0000
0110
0000
0000
0000
1001
,
0000
0000
0001
0000
0001
0100
00M0
0100
,
1000
0010
0100
0001
1000
0100
00M0
0100
,
0001
0010
0100
1000
0001
1000
0010
0100
,
0001
0000
1000
0000
0100
1000
0100
0000
0010
0000
0001
0000
0100
0000
0010
0000
,
1000
0001
1000
0000
1000
0010
0M00
0010
,
0001
0100
0010
0100
0001
0010
0M00
0010
,
1000
0100
0010
0100
1000
0010
0100
0001
,
0010
0000
0100
0000
1000
0001
1000
0000
0010
0000
0110
0000
0000
0000
0100
0000
,
0001
1000
0200
0000
2300
0000
3020
0000
,
0032
0000
0023
0000
2030
0000
3001
1000
,
2002
3003
1000
0010
1000
0100
0010
0001
,
0100
0001
0010
0100
1000
0001
0100
0010
,
0100
0001
0020
0000
0032
0000
0203
0000
,
2300
0000
3200
0000
0320
0000
1030
0001
,
2002
3003
1000
0100
0010
0001
1000
0010
,
0100
0001
1000
1000
0001
0001
1000
0001
,
1001
0000
2000
0000
3010
0100
0001
1000
,
0100
1000
2000
0000
3100
0010
0001
1000
,
0001
0100
0002
0000
0013
0100
1000
0010
,
0100
0001
0002
0000
0013
0001
0100
0010
,
1000
0100
0020
0000
0031
0100
0010
1000
,
0100
0010
0020
0000
0031
0010
0100
1000
,
0001
1000
0020
0000
1030
0001
0200
0000
,
0301
0000
2002
0000
3003
0000
0001
1000
,
0100
0000
0010
0000
0001
0000
0100
0010
0000
0010
1000
0000
0100
0000
0010
0001
,
0000
0001
1000
0000
0100
0000
1000
0001
0000
1000
0001
0000
0100
0000
0001
0000
,
0010
0000
0100
0000
1000
0000
0010
0100
0000
0100
0001
0000
0010
0000
0100
0000
,
1000
0001
0000
1000
0001
0000
0010
0000
1000
0000
0010
0000
0001
0000
0100
0000
,
0010
1000
0100
0010
0000
0001
1000
0001
0000
1000
0100
0010
0210
0000
0000
0000
,
1300
0000
0100
1000
0010
0000
0210
0000
,
0301
0010
0001
0100
0010
2000
0000
3001
,
0010
1000
0010
0001
0100
0020
0000
1030
,
0001
0020
0000
0031
1000
0001
0100
0010
,
1000
0100
1000
0010
0000
0110
0000
0100
,
0100
0001
0010
0100
1000
0002
0000
1003
,
0010
0100
0001
1000
0001
0010
0100
1000
,
0001
1000
0000
0001
1000
0001
2002
0000
,
3003
0000
1001
0000
0000
1100
0000
0100
,
0010
0100
2000
0000
3200
0000
0320
0000
,
0032
0203
2300
3200
,
0302
0000
0023
0000
0230
0000
1300
0001
,
1000
0000
1001
0000
0000
0101
0000
0100
,
0010
0100
0002
0000
0023
0000
2030
0000
,
3020
0032
0203
0320
,
2030
3200
0320
0031
,
1001
0000
0001
0100
0010
0200
0000
0302
,
0000
2003
0000
3100
1000
0002
0000
0103
,
0001
2000
0000
3010
1000
0001
0010
0001
,
1000
0010
0100
0001
1000
0100
0000
1100
,
0000
1000
0001
1000
0010
1000
0001
0100
,
0010
0000
1000
0001
0010
0001
1000
0010
,
0100
0000
0001
0010
0100
1000
0000
1000
,
0010
0100
0001
0010
0000
0110
0000
0100
,
1000
0000
1000
0010
0100
0020
0000
2030
,
0000
3200
0000
0310
0001
2000
0000
3010
,
1000
0002
0000
0103
0001
0020
0000
0130
,
1000
0010
0100
0001
0010
0001
0000
0001
,
1000
0001
1000
0100
0000
1100
0000
1000
,
0001
0100
0001
0100
0000
0101
0000
0001
,
0100
0010
1000
0001
1000
0002
0000
0013
,
0001
0020
0000
0130
1000
0010
0100
0001
,
1000
0000
2002
0000
0000
3003
1000
0000
,
1100
0100
0110
0010
,
0011
0000
0001
0000
1000
0001
0000
1000
,
0010
0001
0010
1000
0100
0001
0100
0000
,
1001
0000
0000
0000
;

//--------------- dance-single - OrangeRight ----------------
#NOTES:
     dance-single:
     OrangeRight:
     Hard:
     16:
     0.893371,1.180606,0.322271,0.268559,0.540955,815,773,42,35,7,0,0.893371,1.180606,0.322271,0.268559,0.540955,815,773,42,35,7,0:
0000
0000
0000
0000
,
0000
0000
0000
0000
,
0000
0000
0000
0000
1000
0000
0100
0000
0010
0000
0001
0100
0001
0000
1000
0000
,
0010
0000
0100
0000
0001
0000
1000
0000
0001
0000
0010
0000
0000
0000
0001
1000
,
0001
0000
0100
0000
0001
0000
0010
0100
0000
0100
1000
0000
0010
0000
0100
0000
,
0001
0000
0000
0000
1000
0001
1000
0000
0001
0000
0100
0000
0010
0000
0100
0000
,
0001
0000
0010
0000
0001
0000
0100
0000
0010
0000
1000
0010
1000
0000
0100
0000
,
0010
0001
0100
0001
1000
0001
0010
0100
,
1000
0010
1000
0100
0001
0100
0010
0100
,
1000
0001
0100
1000
0100
0001
1000
0001
,
2002
0000
3003
0000
1000
0100
1000
0000
0001
0000
0010
0000
0100
0000
0010
0000
,
0001
0000
1000
0000
0001
0100
0001
0000
1000
0000
0010
0000
0100
0000
0010
0000
,
1000
0000
0001
0000
1000
0010
1000
0000
0001
0000
1000
0000
0001
0100
0001
0000
,
1000
0001
0010
0100
1000
0010
0001
0010
,
1000
0000
0001
0000
1000
0010
0100
0000
0001
0000
0010
0000
0100
0000
0010
0000
,
0001
0000
0100
0000
0001
0010
0100
0000
1000
0000
0010
0000
0100
0000
0001
0000
,
0010
0000
0001
0000
1000
0001
1000
0000
0010
0000
0100
0000
0001
1000
0001
0000
,
0010
0100
2200
0000
3300
2002
0000
3003
,
0101
0000
0000
0000
0001
0100
0001
0000
1000
0000
0100
0000
1000
0100
1000
0000
,
0001
0000
0010
0000
0001
0010
0001
0000
1000
0000
0010
0000
0001
0000
0010
0000
,
1000
0000
0100
0000
1000
0010
1000
0000
0010
0000
0100
0000
0001
0010
0001
0000
,
0100
0000
0010
0000
1000
0100
1000
0000
0001
0000
0100
0000
0010
0000
0100
0000
,
1000
0000
0100
0000
0001
0010
0100
0000
1000
0000
0010
0000
1000
0100
0010
0000
,
0001
0000
1000
0000
0010
0100
0001
0000
1000
0000
0001
0000
0010
0100
1000
0000
,
0001
0000
1000
0000
0001
0100
0001
0000
0100
0010
0100
0000
0010
1000
0010
0000
,
1000
0000
0000
0100
0000
0000
1000
0000
0000
0000
0000
0000
0001
0000
0000
1000
0000
0000
0001
0000
0000
1000
0000
0000
0001
0000
0000
0000
0000
0000
0101
0000
0000
0000
0000
0000
0000
0000
1001
0000
0000
0000
0000
0000
0000
0000
1010
0000
,
0000
0000
1000
0000
0001
0010
0M00
0010
,
1000
0100
0010
0001
0100
0010
0000
1000
,
0010
0001
0010
1000
0100
0010
0001
0100
,
1000
0000
0100
0000
0001
1000
0001
1000
0001
0000
1000
0000
0000
0000
1000
0000
,
0010
0100
0001
0000
1000
0100
00M0
0100
,
0001
0010
0100
1000
0010
0100
0000
0001
,
0100
1000
0100
0001
0010
0100
1000
0010
,
0100
0000
0001
0000
1000
0001
1000
0001
1000
0000
0100
0000
0001
0000
0100
0000
,
1000
0001
1000
0010
0100
0010
0001
0010
,
0100
0010
1000
0100
0010
0001
1000
0001
,
2002
0000
3003
0000
1000
0100
0010
0000
0100
0000
1000
0000
0010
0100
0001
0000
,
0010
0000
0100
0000
1000
0010
0100
0000
0001
0000
1000
0000
0001
0010
0001
0000
,
1000
0010
1000
0000
0001
0000
0100
0000
0010
0000
0100
0000
1000
0000
0100
0000
,
0010
0100
0001
0010
0100
1000
0001
1000
,
2002
0000
3003
0000
0001
0010
0100
0000
1000
0000
0001
0000
1000
0010
0100
0000
,
0001
0000
1000
0000
0001
0010
0001
0010
0100
1000
0100
1000
0001
0000
1000
0000
,
1001
0000
1000
0100
0010
0100
1000
0001
,
1000
0000
0010
1000
0010
0000
0100
0000
0010
0000
1000
0000
0001
0000
0100
0000
,
0001
1000
0001
1000
0001
0000
0010
0000
0100
0000
0010
0000
0001
0000
1000
0000
,
0001
0000
0100
0001
0100
0000
0010
0000
1000
0000
0100
0000
1000
0000
0001
0010
,
0001
1000
0001
0100
0010
1000
0100
1000
,
0010
0000
0100
0001
1000
0000
0100
0000
0010
0000
0001
0000
1000
0000
0010
0100
,
0001
0000
0010
0000
0001
0000
0100
0000
0010
0000
1000
0100
0010
0000
0001
0000
,
1000
0001
2002
0000
3003
0000
1000
0100
,
0010
0100
1000
0000
0001
0000
1000
0010
0M00
0010
0001
1000
0001
0000
1000
0100
,
00M0
0100
0001
0010
0100
1000
0001
0100
0000
0100
0001
1000
0001
0000
0010
0000
,
0100
0010
0001
0000
0100
0010
1000
0100
00M0
0100
0001
0010
0100
0010
0001
0100
,
0010
0000
0000
1000
0000
0000
0000
0000
0000
0010
0000
0000
1000
0000
0100
0000
1000
0000
0001
0000
0100
0000
0001
0000
1000
0000
0010
0000
1000
0000
0001
0000
0010
0000
0100
0000
1000
0000
0000
0000
0000
0000
0010
0000
0000
0000
0000
0000
,
0100
0000
0001
0000
0010
0000
0100
0000
0000
0000
0100
0000
1000
0000
0001
0000
0000
0000
1000
0001
1000
0000
0001
0000
2000
0000
0000
0000
0000
0000
0000
0000
,
0010
0000
3001
1000
0001
0100
0002
0000
,
0013
0001
0000
0101
0000
0110
0000
0010
,
1000
0100
0010
0001
0100
0102
0000
1003
,
0100
2100
0000
3001
1000
0001
1000
1000
,
0010
0000
0010
0000
0100
0000
0001
0000
0010
0000
0100
0000
0010
0000
0001
0100
,
0001
0000
1000
0000
0010
0000
0100
0000
0001
0000
1000
0000
0001
0010
0001
0010
,
0100
1000
0100
1000
0010
0100
0010
0100
0001
1000
0001
1000
0010
0100
0001
1000
,
0100
0010
0000
0001
1000
0001
2002
0000
,
3003
0000
1001
0000
1000
1100
0000
0100
,
0110
0000
0010
0001
1000
0001
0100
0001
,
0010
0001
1000
0010
1000
0001
1000
0100
,
1000
0010
0100
0001
1000
0100
0001
0100
,
1000
0001
1001
0000
0001
0101
0000
0100
,
0110
0000
0010
1000
0001
1000
0100
1000
,
0010
0100
0001
0010
0100
1000
0001
0100
,
0010
1000
0100
0001
0001
0100
1000
1000
,
2002
3003
1000
0010
1000
0200
0000
0320
,
0000
0032
0000
0103
0001
2000
0000
3100
,
1000
0002
0000
0103
0001
0010
0100
1000
,
0010
1000
0001
0010
0100
1000
0001
0100
,
00M0
0100
1000
0001
0010
0001
1000
0100
,
1000
0001
0100
0010
0100
0001
0010
0100
,
1000
0001
1000
0010
0100
0001
0000
0001
,
0010
0000
0100
0000
1000
0000
0001
0000
0000
0000
1001
0000
0000
0000
1000
0010
,
1000
0010
1000
0000
0001
0000
0010
0000
0001
0000
0200
0000
0000
0000
0320
0000
,
0000
2030
0000
3001
0100
2000
0000
3100
,
0001
0020
0000
0130
1000
0020
0000
1030
,
0010
0100
0001
1000
0001
0010
0M00
0010
,
1000
0100
0010
0001
0000
0011
0000
0010
,
0001
0100
0010
1000
0100
0010
0000
0001
,
1000
0001
1000
0001
1000
0000
0001
0000
0100
0000
1000
0000
0000
0000
1000
0000
,
0100
0001
0000
0001
0010
0001
1000
0001
,
0100
0010
0220
0000
0000
0330
1010
0000
,
1001
0011
1001
1100
,
1001
0000
0000
0000
0101
0000
0000
0000
1001
0000
1001
0000
0000
0000
1000
0100
,
1000
0100
0010
0001
0010
0001
0100
0010
0100
0010
1000
0001
1000
0000
0000
0000
,
1001
0000
0000
0000
;

//--------------- dance-single - OrangeRight ----------------
#NOTES:
     dance-single:
     OrangeRight:
     Challenge:
     18:
     1.045737,1.216382,0.391329,0.191828,0.936121,954,903,51,25,8,0,1.045737,1.216382,0.391329,0.191828,0.936121,954,903,51,25,8,0:
0000
0000
0000
0000
,
0000
0000
0000
0000
,
0000
0000
0000
0000
1000
0000
0100
0000
0010
0000
0001
0100
0001
0000
1000
0000
,
0001
0000
0100
0000
1000
0000
0100
0000
0001
0000
1000
0000
0100
0000
0010
0001
,
0010
0001
0100
0000
0001
0100
0001
0100
0000
0001
1000
0100
1000
0000
0001
0000
,
0010
0000
0001
0000
0100
0010
0100
0000
0001
0010
0100
1000
0001
1000
0100
0010
,
0001
1000
0001
0000
1000
0010
0100
0001
1000
0000
0100
1000
0100
0000
1000
0010
,
1000
0010
0100
0000
0001
0010
0001
0000
1000
0010
1000
0000
0001
0100
0001
0000
,
1000
0010
0100
0000
0001
0010
0100
1000
0001
0100
0001
1000
0100
0010
0001
1000
,
0100
1000
0010
0100
0001
0010
0100
1000
0001
0100
0010
1000
0001
1000
0001
0000
,
2002
0000
3003
0000
1000
0100
1000
0100
0010
0001
0010
0001
1000
0000
0010
0000
,
0100
0000
0010
0000
1000
0010
1000
0010
0100
0001
0100
0001
1000
0000
0100
0000
,
0010
0000
0100
0000
1000
0001
1000
0000
0001
0100
0001
0000
0100
0010
0100
0000
,
0010
1000
0010
0000
1000
0000
0010
0000
0110
0000
0100
0000
0101
0000
0001
0000
,
1001
0000
1000
0000
0001
0010
0001
0010
0100
1000
0100
1000
0001
0000
0100
0000
,
0010
0000
1000
0000
0001
0100
0001
0100
0010
1000
0010
1000
0001
0000
0010
0000
,
0100
0000
1000
0000
0001
0010
0001
0000
1000
0010
1000
0000
0001
0100
0001
0000
,
1000
0100
1000
0000
1100
0000
0000
1000
0010
0000
0110
0000
0000
0100
0001
0000
,
0011
0000
0001
0000
1000
0001
1000
0001
1000
0000
0001
0000
1000
0010
1000
0010
,
1000
0000
0001
0000
0100
0001
0100
0001
1000
0000
0001
0000
1000
0001
0100
0001
,
1000
0001
0010
0000
0001
1000
0001
1000
0001
0000
1000
0000
0001
0100
0001
0100
,
0001
0000
1000
0000
0010
0100
0010
0100
0001
0000
1000
0000
0001
1000
0001
0100
,
0010
1000
0100
0000
1000
0010
0100
0010
1000
0000
0001
0000
1000
0100
0010
0100
,
1000
0000
0001
0000
0100
0010
0100
0001
0010
0000
0100
0000
1000
0010
1000
0001
,
1000
0100
0010
0000
0001
0100
0010
1000
0001
0010
0100
1000
0010
0100
0001
1000
,
0100
0000
0000
0010
0000
0000
0001
0000
0000
1000
0000
0000
0001
0000
0000
0100
0000
0000
0010
0000
0000
1000
0000
0000
0100
0000
0000
0000
0000
0000
1100
0000
0000
0000
0000
0000
0000
0000
0011
0000
0000
0000
0000
0000
0000
0000
1001
0000
,
0000
0000
1000
0000
0001
0100
00M0
0100
,
1000
0010
0100
0001
1000
0100
00M0
0100
,
0001
0010
1000
0010
0001
1000
0100
0001
,
0100
0000
1000
0000
0010
1000
0010
1000
0010
0000
0110
0000
0000
0000
0100
0000
,
0001
1000
0001
0000
1000
0010
0M00
0010
,
0001
0100
0010
1000
0001
0010
0M00
0010
,
1000
0100
0001
0100
1000
0001
0010
1000
,
0010
0000
0001
0000
1000
0001
1000
0001
1000
0000
0010
0000
0001
0000
0010
0000
,
1000
0001
1000
0100
0001
0100
0010
0100
,
1000
0000
0001
0000
1000
0010
1000
0000
0010
0100
0010
0000
0100
0001
0100
0001
,
2000
0000
3000
0000
1000
0010
0100
0001
1000
0000
1000
0000
0001
0010
0100
1000
,
0010
0000
0010
0000
0100
0001
0010
0100
1000
0000
1000
0000
0010
0100
0001
1000
,
0100
0010
0001
0000
1000
0000
0010
0000
0001
0000
0010
0000
0100
0000
0010
0000
,
1000
0000
0001
0000
0010
0001
0010
0000
0100
0010
0100
0000
1000
0001
1000
0001
,
0200
0000
0300
0000
0001
0010
0100
1000
0001
0000
0100
0000
0010
0100
0001
1000
,
0100
0000
0010
0000
0001
0100
0010
0100
0001
0010
0100
1000
0010
0100
0010
0000
,
1000
0010
0100
0001
1000
0000
0100
0000
0001
0000
0100
0000
0010
0000
0100
0000
,
1000
0000
0010
1000
0010
0000
0100
0000
0010
0000
0001
0000
0010
0000
0100
0000
,
0010
1000
0100
0010
0001
0000
0100
0000
1000
0000
0100
0000
0010
0000
0100
0000
,
0001
0000
0010
0001
0010
0000
0100
0000
1000
0000
0010
0000
0001
0000
0010
1000
,
0100
0010
0001
0100
0010
0000
0001
0000
0010
0000
0100
0000
0010
0000
1000
0000
,
0100
0000
0010
0001
1000
0000
0010
0000
1000
0000
0100
0000
0001
0000
0100
1000
,
0010
0100
0001
1000
0001
0000
0010
0000
0100
0000
1000
0001
1000
0000
0010
0000
,
0100
0001
2002
0000
3003
0000
1000
0100
,
0001
0100
1000
0000
0001
0000
1000
0010
0M00
0010
0001
0100
0010
0000
1000
0100
,
00M0
0100
0001
0010
1000
0010
0001
0100
0000
1000
0100
0001
0010
0000
0100
0000
,
1000
0010
0001
0000
0010
1000
0001
0010
0M00
0010
1000
0100
0010
0001
1000
0001
,
0100
0000
0000
0010
0000
0000
0000
0000
0000
1000
0000
0000
0001
0000
0010
0000
0100
0000
1000
0000
0010
0000
0100
0000
0001
0000
0100
0000
0010
0000
1000
0000
0100
0000
0010
0000
0001
0000
0000
0000
0000
0000
1000
0000
0000
0000
0000
0000
,
0010
0000
0100
0000
0001
0000
1000
0000
0000
0000
0100
0000
0010
0000
0001
0000
0000
0000
1000
0010
0100
0000
0001
0000
1002
0000
0000
0000
0000
0000
0000
0000
,
0103
0001
0010
0001
1000
0010
2010
0000
,
3001
1000
0100
0001
0100
0010
0100
1000
,
0010
0100
0001
0010
0100
2100
0000
3001
,
0100
0102
0000
0013
0100
1000
0001
0001
,
1000
0000
1000
0000
0010
0000
0110
0000
0100
0000
0101
0000
0001
0000
1000
0001
,
1000
0000
0100
0000
0010
0000
0001
0000
0100
0000
0010
0000
1000
0010
0100
0001
,
0010
0100
0010
0001
0100
0010
1000
0100
0010
0001
1000
0001
0100
0010
1000
0100
,
0010
0100
1000
0000
0000
0000
0010
0000
0100
0000
0010
0000
2002
0000
3003
0000
,
0110
0000
1001
0000
1000
1100
0000
1000
,
1010
0000
0000
0000
1000
0010
1000
0000
0001
0000
1000
0000
0100
1000
0100
0000
,
1000
0000
0001
0000
1000
0010
0100
0000
0001
0000
0010
0000
0001
0100
0010
0000
,
1000
0000
0100
0000
1000
0010
0100
0001
1000
0000
1000
0000
0001
0100
0010
1000
,
0001
1000
1001
0000
0001
0101
0000
0001
,
0011
0000
0000
0000
0001
0010
0001
0000
1000
0000
0001
0000
0100
0001
0100
0000
,
0001
0000
1000
0000
0001
0100
0010
1000
0001
0000
0001
0000
1000
0100
0010
0001
,
1000
0000
0001
0000
1000
0010
0100
0001
0010
0000
0001
0100
0010
1000
0001
0000
,
1001
0000
1000
0100
1000
2010
0000
3002
,
0000
0103
0001
0010
0001
0201
0000
0310
,
1000
1200
0000
0310
0001
0100
1000
0100
,
0001
0010
0100
1000
0001
0100
0000
0101
,
0000
0011
0001
0100
0010
0001
0010
1000
,
0100
0010
0001
0010
1000
0010
0100
1000
,
0010
0100
0001
0010
0100
2100
0000
3010
,
1000
0000
0100
0000
1000
0000
1010
0000
0000
0000
0101
0000
0000
0000
0001
0100
,
0001
0100
0010
1000
0100
0000
0010
0000
0100
0000
1000
0100
1000
0000
0100
0000
,
1000
0010
1000
0000
0100
0000
0010
0000
0001
0000
1000
0001
1000
0000
0001
0000
,
0100
0001
0100
0000
0001
0000
0010
0000
0100
0000
1000
0010
1000
0000
0100
0000
,
0001
0000
0100
0000
1000
0000
0010
0000
0100
0000
0001
0100
0001
0000
1000
0000
,
0010
1000
0010
0000
1000
0100
1000
0000
0001
0000
1000
0010
1000
0000
0001
0000
,
0010
0001
0010
0000
0001
0100
0001
0000
1000
0000
0001
0010
0001
0000
1000
0000
,
0001
0100
0010
1000
0001
0000
0010
0001
0100
0000
0010
1000
0100
0000
0010
0000
,
0001
0100
0010
1000
0100
0001
0100
1000
,
0001
1000
2002
0000
0000
3003
1100
0000
,
0011
1010
0101
0011
,
1010
0000
0000
0000
1100
0000
0000
0000
0110
0000
1001
0000
0000
0000
0001
0100
,
0001
1000
0001
0010
0100
1000
0001
1000
0010
1000
0100
0010
0001
0000
0000
0000
,
0110
0000
0000
0000
;
