#VERSION:0.83;
#TITLE:君じゃなきゃダメみたい;
#SUBTITLE:;
#ARTIST:大石 昌良;
#TITLETRANSLIT:;
#SUBTITLETRANSLIT:;
#ARTISTTRANSLIT:;
#GENRE:;
#ORIGIN:;
#CREDIT:;
#BANNER:;
#BACKGROUND:;
#PREVIEWVID:;
#JACKET:;
#CDIMAGE:;
#DISCIMAGE:;
#LYRICSPATH:;
#CDTITLE:;
#MUSIC:Kimi Janakya Dame Mitai.mp3;
#OFFSET:-0.367000;
#SAMPLESTART:44.320000;
#SAMPLELENGTH:20.000000;
#SELECTABLE:YES;
#BPMS:0.000=131.000;
#STOPS:;
#DELAYS:;
#WARPS:;
#TIMESIGNATURES:0.000=4=4;
#TICKCOUNTS:0.000=4;
#COMBOS:0.000=1;
#SPEEDS:0.000=1.000=0.000=0;
#SCROLLS:0.000=1.000;
#FAKES:;
#LABELS:0.000=Song Start;
#BGCHANGES:;
#KEYSOUNDS:;
#ATTACKS:
;

//---------------dance-single - ----------------
#NOTEDATA:;
#CHARTNAME:;
#STEPSTYPE:dance-single;
#DESCRIPTION:;
#CHARTSTYLE:;
#DIFFICULTY:Hard;
#METER:14;
#RADARVALUES:0.643572,0.676030,0.356832,0.267624,0.490644,404.000000,372.000000,32.000000,24.000000,0.000000,0.000000,0.000000,0.000000,0.000000,0.643572,0.676030,0.356832,0.267624,0.490644,404.000000,372.000000,32.000000,24.000000,0.000000,0.000000,0.000000,0.000000,0.000000;
#CREDIT:ZSL;
#NOTES:
// measure 0
0000
0000
0000
0000
,  // measure 1
0000
0000
0000
0000
,  // measure 2
0000
0000
0000
0000
,  // measure 3
0000
0000
0000
0000
,  // measure 4
0001
0000
0100
0010
1000
0001
0000
0000
0010
0100
1000
0001
0000
0000
0000
0000
,  // measure 5
0100
0000
0000
0000
0000
0000
0010
0000
0000
1000
0000
0000
0100
0000
0000
0010
0000
0000
0000
0000
0000
0000
0000
0000
0001
0000
0100
0000
0001
0000
0100
0000
0000
0000
0000
0000
0010
0000
1000
0000
0010
0000
1000
0000
0000
0000
0000
0000
,  // measure 6
0100
0000
1000
0001
0100
0010
0000
0000
0100
0001
0010
0100
0000
0000
1000
0000
,  // measure 7
0001
0100
1000
0001
0010
1000
0000
0000
0000
0200
0000
0000
,  // measure 8
1300
0000
0001
0000
0100
0000
0010
1000
0002
0000
0000
0000
0013
0000
0100
0000
,  // measure 9
1000
0000
0010
0000
0100
0000
0001
1000
0100
0000
0010
0000
0001
0000
1000
0000
,  // measure 10
2100
3001
0100
0010
2010
3001
0010
0100
,  // measure 11
1200
0310
0001
0100
0120
1030
0001
0000
,  // measure 12
1000
0000
0100
0000
0010
0000
0100
1000
0002
0000
0000
0000
1003
0000
0010
0000
,  // measure 13
0100
0000
0001
0000
0010
0000
0100
0010
0001
0000
1000
0000
0010
0000
1000
0000
,  // measure 14
0210
0301
0010
0100
2100
3001
0100
0010
,  // measure 15
0120
1030
0001
0010
1200
0310
0001
0000
,  // measure 16
0100
0000
0010
0000
1000
0000
0100
1000
0020
0000
0000
0000
0130
0000
0001
0000
,  // measure 17
0010
0000
0100
0000
1000
0000
0010
1000
0100
0000
0010
0000
0001
0000
1000
0000
,  // measure 18
2010
3100
0010
0100
2100
3010
0100
0001
,  // measure 19
0102
0013
0100
1000
0210
1300
0001
0000
,  // measure 20
1001
0000
0000
0000
,  // measure 21
1000
0100
1000
0100
0010
0100
0010
0100
1000
0010
0100
0001
0010
0100
1000
0001
,  // measure 22
0100
0000
0000
0010
0000
0000
1000
0000
1100
0000
0000
0001
0000
0000
0100
0000
,  // measure 23
2020
0000
0000
0000
0000
0000
0000
3030
0000
0000
0000
0000
0100
0000
0000
0000
,  // measure 24
0001
0000
1000
0010
0100
0000
0001
0010
0100
0000
1000
0001
0100
0000
0101
0000
,  // measure 25
0001
0010
0100
1000
1100
0010
0001
1001
,  // measure 26
0000
0000
1000
0100
0010
0000
0001
0100
0010
0000
1000
0000
0001
0000
0110
0000
,  // measure 27
0000
0000
1000
0000
0100
0000
0010
0000
0001
0000
1000
0000
1010
0000
0100
0001
,  // measure 28
1000
0000
0100
0000
0001
0000
0100
0010
0001
0000
1000
0000
0010
0000
0101
0000
,  // measure 29
0000
0000
0001
0000
0100
0000
1000
0100
0010
0000
1000
0000
0100
0000
0120
0000
,  // measure 30
0000
0031
0010
1000
0010
0100
1000
1020
,  // measure 31
0000
0000
0000
0000
0000
0000
0130
0001
0020
0000
0000
0000
0030
0000
0000
0000
,  // measure 32
0100
0000
0010
0001
1000
0000
0010
0100
1000
0000
0100
0001
0010
0000
0110
0000
,  // measure 33
0100
1000
0010
0100
0101
1000
0100
0011
,  // measure 34
0000
0000
0010
0001
1000
0000
0001
0100
1000
0000
0100
0000
0001
0000
0011
0000
,  // measure 35
0000
0000
0010
0000
0100
0000
1000
0000
0001
0000
0100
0000
0110
0000
1000
0100
,  // measure 36
0010
0000
0100
0000
1000
0000
0001
0010
1000
0000
0010
0000
0001
0000
0101
0000
,  // measure 37
0000
0000
0010
0000
1000
0000
0010
0001
1000
0000
0100
0000
0001
0000
2001
0000
,  // measure 38
0000
0000
0000
0000
0000
0000
3100
0010
0001
0000
0000
0000
0000
0000
1000
0000
,  // measure 39
1010
0010
0100
0001
0010
0100
1000
0000
,  // measure 40
0100
0000
0010
0001
0100
0001
0000
0000
1000
0010
1000
0100
0000
0000
0000
0000
,  // measure 41
0010
0000
0000
0000
0000
0000
0001
0000
0000
1000
0000
0000
0010
0000
0000
0100
0000
0000
0000
0000
0000
0000
0000
0000
0001
0000
0010
0000
0001
0000
1000
0000
0000
0000
0000
0000
0100
0000
0010
0000
0100
0000
1000
0000
0000
0000
0000
0000
,  // measure 42
0001
0000
0010
0100
1000
0010
0000
0000
0100
0001
0010
0100
0000
0000
1000
0000
,  // measure 43
0001
0100
0010
1000
0100
0010
0100
1000
,  // measure 44
0010
0000
0001
0010
0100
0001
0000
0000
1000
0100
0001
0100
0000
0000
0000
0000
,  // measure 45
1000
0000
0000
0000
0000
0000
0010
0000
0000
0100
0000
0000
0001
0000
0000
0010
0000
0000
0000
0000
0000
0000
0000
0000
0100
0000
1000
0000
0001
0000
0100
0000
0000
0000
0000
0000
0010
0000
1000
0000
0001
0000
0010
0000
0000
0000
0000
0000
,  // measure 46
0100
0000
0001
0100
0010
0001
0000
0000
1000
0010
0001
0010
0000
0000
1000
0000
,  // measure 47
0100
1000
0001
0010
1000
0001
0100
1000
0010
0001
1000
0100
,  // measure 48
0000
0202
0303
0000
;
