#TITLE:Kimchi Fingers;
#SUBTITLE:;
#ARTIST:;
#TITLETRANSLIT:;
#SUBTITLETRANSLIT:;
#ARTISTTRANSLIT:;
#GENRE:;
#CREDIT:;
#MUSIC:Kimchi Fingers.ogg;
#BANNER:;
#BACKGROUND:;
#CDTITLE:;
#SAMPLESTART:0.000;
#SAMPLELENGTH:0.000;
#SELECTABLE:YES;
#OFFSET:-0.600;
#BPMS:0.000=190.000;
#STOPS:;
#BGCHANGES:;
#FGCHANGES:;

//--------------- dance-single - D0omsday 4 SPEEN 6 DS (YES REALLY) ----------------
#NOTES:
     dance-single:
     D0omsday 4 SPEEN 6 DS (YES REALLY):
     Beginner:
     6:
     0,0,0,0,0:
0000
0000
0000
0000
,
0000
0000
0000
0000
,
0000
0000
0000
0000
,
0000
0000
0000
0000
,
0000
0000
0000
0000
,
0000
0000
0000
0000
,
0002
0000
0000
2000
0000
3003
0000
0000
,
0001
0000
0100
0000
,
0001
1000
0100
0010
,
0100
0000
0100
1000
,
0000
1001
0000
1001
,
0001
0000
0001
0010
,
0000
0110
0000
0110
,
0100
0000
0100
1000
,
0000
1001
0000
1001
,
0001
0000
0001
0100
,
0010
0010
1000
1000
,
1001
0000
0000
0000
,
0000
0000
0000
0000
,
0110
0000
0000
0000
,
0000
0000
0000
0000
,
1000
0000
0000
0001
0000
0000
0000
0000
,
0010
0000
0000
0100
0000
0000
0100
0000
,
1000
0000
0000
0010
0000
0000
0000
0000
,
0100
0000
0000
0001
0000
0000
0001
0000
,
2002
0000
3003
2002
0000
3003
0000
0000
,
1000
0000
0100
0000
,
0220
0000
0330
0220
0000
0330
0000
0000
,
0010
0000
0001
0000
,
1000
1000
0001
0001
,
1000
0001
1000
1001
,
0100
0100
0010
0010
,
0100
0010
0100
0110
,
0001
0001
1000
1000
,
0001
1000
0001
1001
,
0010
0010
0100
0100
,
0010
0100
0010
0110
,
0010
0000
1000
0001
,
0010
0000
0220
0000
,
0330
1000
0000
0010
,
0000
0100
0200
0000
,
0301
0001
0010
0000
,
0100
0000
0110
0000
,
1001
0000
1001
0000
,
1001
1001
1001
0000
,
1000
0000
0000
0001
0000
0000
1000
0000
,
0010
0000
0100
0000
,
0001
0000
0000
0010
0000
0000
0001
0000
,
1000
0000
0100
0000
,
0010
0000
0000
0100
0000
0000
0010
0000
,
0001
1000
0010
0000
,
0100
0000
0000
0001
0000
0000
0100
0000
,
0020
0000
0030
1001
,
1000
0000
0100
0000
,
0001
0000
0010
0000
,
1000
0000
0100
0000
,
0001
0000
0010
0000
,
1000
0000
0010
0000
,
0001
0000
0100
0000
,
1000
0000
0010
0000
,
0001
0000
0100
0000
,
2000
0000
0000
0000
,
3001
0001
1000
1000
,
0001
1000
1000
1001
,
0010
0010
0100
0100
,
0010
0100
0100
0110
,
1000
1000
0001
0001
,
1000
0001
0001
1001
,
0100
0100
0010
0010
,
0100
0010
0010
0110
,
0001
0001
0100
0100
,
0002
0100
1003
1001
,
1000
1000
0100
0100
,
2000
0100
3001
1001
,
0001
0001
0010
0010
,
0002
0010
1003
1001
,
1000
1000
0010
0010
,
2000
0010
3001
1001
,
1000
0000
0010
0000
,
0100
0000
0001
1000
,
0001
0000
0010
0000
,
0100
0000
1000
1000
,
0010
0000
0100
0000
,
0001
0000
1000
0000
,
0002
0000
0000
0000
,
1000
0000
0100
0000
2000
0000
0000
3003
;

//--------------- dance-single - D0omsday 5 SPEEN 4 DS ----------------
#NOTES:
     dance-single:
     D0omsday 5 SPEEN 4 DS:
     Easy:
     10:
     0,0,0,0,0:
0000
0000
0000
0000
,
0000
0000
0000
0000
,
0000
0000
0000
0000
,
0000
0000
0000
0000
,
0000
0000
0000
0000
,
0000
0000
0000
0000
,
2002
0000
3003
2002
0000
3003
0000
0000
,
1000
0100
0010
0001
,
1000
0000
0010
0100
0010
0000
0110
0000
,
0100
0001
0020
0100
,
0031
0101
1000
1100
,
0100
0010
0002
0100
,
1003
1100
0001
0101
,
0100
0010
2000
0100
,
3001
0011
1000
1010
,
0010
0100
0002
0010
,
1003
0000
0010
0000
0100
0001
0100
0000
,
0002
0000
0000
0000
,
0000
0000
0000
0000
0000
0000
0000
0013
,
0200
0000
0000
0000
,
0000
0000
0000
0000
0000
0000
0000
1300
,
0001
0000
0000
1001
0000
1000
0010
0000
,
0100
0000
0000
0110
0000
0010
1000
0000
,
0001
0000
0000
0011
0000
0010
0100
0000
,
1000
0000
0000
1010
0000
0010
0100
0000
,
0002
0000
0003
0002
0000
0003
1001
0000
,
1000
0100
0010
0001
0100
0000
0010
0000
,
2000
0000
3000
2000
0000
3000
1001
0000
,
0001
0100
0010
1000
0100
0000
0010
0000
,
0001
0100
1000
0100
,
0001
0000
1000
0100
0010
0000
0011
0000
,
1000
0100
0001
0100
,
1000
0000
0001
0100
0010
0000
1010
0000
,
1000
0010
0001
0010
,
1000
0000
0001
0010
0100
0000
1100
0000
,
0001
0010
1000
0010
,
0001
0000
1000
0010
0100
0000
0101
0000
,
0001
0010
0100
1000
,
0001
1000
0001
1000
0002
0000
0000
0000
,
0103
0100
0010
0010
,
1000
0100
0120
0000
,
0031
1000
0010
0100
,
0001
1000
0001
1000
0002
0000
0000
0000
,
0103
0100
0010
1000
,
0001
0010
0210
0000
,
1300
1000
0000
0001
0001
0000
0100
0100
,
0010
1000
0001
0010
,
0100
0100
0000
1000
1000
0000
0001
0001
,
0100
0010
1000
0001
,
0010
0010
0000
0100
0100
0000
1000
1000
,
0001
0100
0010
1000
,
0001
0001
0000
0100
0100
0000
0001
0001
,
0010
0100
1000
0020
,
0130
0001
0010
1000
,
0010
0100
1000
0001
,
0100
1000
0100
0010
,
1000
0001
0010
0100
,
0001
0100
0010
0001
,
1000
0010
0001
0010
,
1000
0100
0001
0100
,
1000
0001
0100
0010
,
0220
0000
0000
0330
,
1000
0100
0001
0100
,
1000
0000
0001
0100
0010
0000
1010
0000
,
0001
0100
1000
0100
,
0001
0000
1000
0100
0010
0000
0011
0000
,
0001
0010
1000
0010
,
0001
0000
1000
0010
0100
0000
0101
0000
,
1000
0010
0001
0010
,
1000
0000
0001
0010
0100
0000
1100
0000
,
1000
0010
0001
0100
,
1000
0000
0001
1000
0001
0000
1001
0000
,
0001
0010
1000
0100
,
0001
0000
1000
0001
1000
0000
1001
0000
,
0001
0100
1000
0010
,
0001
0000
1000
0001
1000
0000
1001
0000
,
1000
0100
0001
0010
,
1000
0000
0001
1000
0001
0000
1001
0000
,
1000
1000
0000
0100
0100
0000
0010
0010
,
0000
0001
0001
0000
1000
0000
0010
0000
,
0100
0100
0000
0001
0001
0000
0010
0100
,
0010
0100
0010
0000
0001
0000
1001
0000
,
1000
0010
0001
0010
,
1000
0100
0001
0100
,
1000
0010
0001
0100
,
1000
0001
1000
0000
2002
0000
0000
3003
;

//--------------- dance-single - D0omsday 21 SPEEN 20 DS ----------------
#NOTES:
     dance-single:
     D0omsday 21 SPEEN 20 DS:
     Medium:
     12:
     0,0,0,0,0:
0000
0000
0000
0000
,
0000
0000
0000
0000
,
0000
0000
0000
0000
,
0000
0000
0000
0000
,
0000
0000
0000
0000
,
0000
0000
0000
0000
,
2002
0000
3003
2002
0000
3003
0000
0000
,
1000
0001
0100
0010
,
1000
0100
0010
0100
2000
0000
3010
0000
,
0100
0000
0010
1000
0002
0000
0010
0000
,
1003
1010
0001
0011
,
0001
0000
0100
0010
2000
0000
0100
0000
,
3001
0011
1000
1010
,
1000
0000
0100
1000
0002
0000
0010
0000
,
1003
1100
0001
0101
,
0001
0000
0010
0100
0020
0000
0100
0000
,
0031
0000
1000
0010
0100
0000
0110
0000
,
0002
0000
0000
0000
,
0000
0000
0000
0000
0000
0000
0000
0010
,
2003
0000
0000
0000
,
0000
0000
0000
0000
0000
0000
0000
0010
,
3001
0000
0000
0011
0000
0010
0100
0000
,
1000
0000
0000
1010
0000
0010
1000
0001
,
0010
0000
0000
0110
0000
0100
1000
0000
,
0001
0000
0000
0101
0000
0100
0010
1000
,
0002
0000
0003
0002
0010
0003
0011
0000
,
0001
0100
0010
1000
0200
0000
0010
0000
,
2300
0000
3000
2000
0010
3000
1010
0000
,
1000
0010
0100
0001
0010
0000
0100
0000
,
1000
0010
0001
0100
,
1000
0001
1000
0001
0100
0000
0110
0000
,
0001
0010
1000
0100
,
0001
1000
0001
1000
0100
0000
0110
0000
,
0001
0100
1000
0010
,
0001
1000
0001
1000
0010
0000
0110
0000
,
1000
0100
0001
0010
,
1000
0001
1000
0001
0010
0000
0110
0000
,
0100
0000
1000
0001
1000
0000
1001
0000
,
0001
0100
1000
0100
0002
0000
0000
0000
,
0013
0100
1000
0000
0001
0100
0010
0000
,
1000
0100
0010
0000
0210
0000
0000
0000
,
1300
0010
0100
0000
0001
0000
1001
0000
,
1000
0100
0001
0100
2000
0000
0000
0000
,
3001
0000
0100
0010
0001
0010
0100
0000
,
0101
1001
2100
0000
,
3002
0100
0000
2003
0100
0000
3001
0100
,
0010
0000
1000
0100
0010
0000
0001
0000
,
2000
0100
0000
3002
0100
0000
1003
0100
,
0010
0000
0100
0000
1000
0001
0100
0000
,
0002
0010
0000
2003
0010
0000
3001
0010
,
0100
0000
1000
0000
0010
0100
0010
0100
,
0002
0010
0000
2003
0100
0000
3001
0100
,
0010
1000
0010
1000
0001
1000
0001
0010
0001
0020
0000
0000
,
0031
1000
0010
0100
,
1000
0001
0100
0010
,
0001
1000
0100
0010
,
1000
0001
0010
0100
,
0001
0100
1000
0010
,
0001
0100
1000
0010
,
0001
0010
1000
0100
,
0001
0010
1000
0100
,
0002
0000
0000
0000
,
1003
0010
0001
0100
,
1000
0001
1000
0001
0100
0000
0110
0000
,
0001
0010
1000
0100
,
0001
1000
0001
1000
0010
0000
0110
0000
,
0001
0100
1000
0010
,
0001
1000
0001
1000
0100
0000
0110
0000
,
1000
0100
0001
0010
,
1000
0001
1000
0001
0010
0000
0110
0000
,
0001
0100
0010
1000
,
0001
0100
1000
0010
0001
0000
1001
0000
,
1000
0100
0010
0001
,
1000
0100
0001
0010
1000
0000
1001
0000
,
1000
0010
0100
0001
,
1000
0010
0001
0100
1000
0000
1001
0000
,
0001
0010
0100
1000
,
0001
0010
1000
0100
0001
0000
1001
0000
,
2000
0010
0000
3002
0010
0000
0203
0010
,
0000
0301
0010
0100
2000
0000
0001
0000
,
3020
0100
0000
2030
0100
0000
3001
0010
,
1000
0010
0001
0000
0100
0000
0110
0000
,
1000
0100
0001
0010
,
1000
0100
0001
0010
,
1000
0100
0001
1000
,
0100
0001
1000
0000
2002
0000
0000
3003
;

//--------------- dance-single - D0omsday 28 SPEEN 22 DS ----------------
#NOTES:
     dance-single:
     D0omsday 28 SPEEN 22 DS:
     Hard:
     16:
     0,0,0,0,0:
0000
0000
0000
0000
,
0000
0000
0000
0000
,
0000
0000
0000
0000
,
0000
0000
0000
0000
,
0000
0000
0000
0000
,
0000
0000
0000
0000
,
2200
0000
3300
0202
0000
0303
0000
0000
,
0001
0010
0100
1000
,
0001
0000
0100
0010
0001
0000
0010
0000
2000
0000
0000
0000
3001
0000
0000
0000
,
0010
0100
0010
0001
2000
0000
0100
0000
,
3001
0101
1000
1100
,
0001
0010
0001
0100
0020
0000
0100
0000
,
1030
0000
0000
0000
1100
0000
0000
0000
0001
0000
0000
0000
0101
0000
0100
0001
,
1000
0100
0010
0100
2000
0000
0010
0000
,
3001
0011
1000
1010
,
0010
0100
0001
1000
0200
0000
0010
0000
,
1300
0000
0010
1000
0010
0000
0100
0010
0100
0010
0100
0000
0001
1000
0001
1000
,
0002
0000
0000
0000
,
0000
0000
0000
0000
0000
0000
0000
0100
,
2003
0000
0000
0000
,
0000
0000
0000
0000
0000
0000
0000
0000
0000
0000
0000
0000
0000
0000
3100
1000
,
0001
0000
0000
0101
0000
0100
0010
0000
,
1000
0000
0000
1100
0000
0100
0010
0001
,
1000
0000
0000
1010
0000
0010
0100
0000
,
0001
0000
0000
0000
0000
0000
0011
0000
0000
0000
0010
0000
0100
0000
1000
0001
,
2000
0000
3000
2000
0010
3000
1001
0000
,
1000
0010
0001
0010
2000
0000
0100
0000
,
3002
0000
0003
0002
0010
0003
1001
1000
,
0010
0000
0100
0001
0100
0000
0010
0000
1000
0000
0100
0000
0001
0000
0100
0000
,
1000
0001
0100
0010
0001
1000
0010
0100
,
1000
0001
1000
0001
0100
0000
0110
0000
,
0001
1000
0100
0010
1000
0001
0010
0100
,
0001
0000
1000
0000
0001
0000
1000
0000
0100
0000
0000
0000
0110
0000
0100
0010
,
0001
1000
0010
0100
1000
0001
0100
0010
,
0001
1000
0001
1000
0010
0000
0110
0000
,
1000
0001
0010
0100
0001
1000
0100
0010
,
1000
0001
1000
0001
0010
0000
0110
0000
,
0100
0000
1000
0001
1000
0000
0010
0000
0100
0000
0000
0000
0110
0000
0000
0000
,
0010
1000
0100
0001
0020
0000
0000
0000
,
1030
0000
0001
0010
0001
0000
1000
0000
0001
0100
0001
0100
0001
0000
0010
0000
,
0100
0001
0100
1000
0002
0000
0000
0000
,
0013
0100
0010
0100
0010
0000
0001
0000
1000
0000
0000
0000
1010
0000
0000
0000
,
0010
0001
0100
1000
0020
0000
0000
0000
,
0130
0000
0001
0010
0001
0000
0010
0000
1000
0000
0010
0000
0001
0000
1000
0000
,
0100
0000
0010
0001
0010
0000
0001
0000
1000
0010
1000
0000
0010
0100
0010
0000
,
2000
0100
0000
3002
0100
0000
0013
0100
,
1000
0010
0100
0010
1000
0000
0100
0000
0010
0001
0010
0100
0010
0000
0001
0000
,
2000
0010
0000
3200
0001
0000
0310
0001
,
1000
0010
0100
0000
1000
0000
0100
0010
1000
0001
0010
0000
0100
0000
0010
0000
,
0002
1000
0000
0023
0100
0000
0031
0100
,
0010
1000
0100
1000
0010
0000
0100
0001
0010
0100
1000
0100
0010
0001
0100
0010
,
2000
0001
0000
3200
0001
0000
1300
0001
,
0100
0010
0001
1000
0100
0010
1000
0100
0010
0002
0000
0000
,
1003
0001
1000
0001
0100
0010
0100
0010
,
0001
1000
0001
1000
0010
0100
0010
0100
,
1000
0001
1000
0001
0010
0100
0010
0100
,
0001
1000
0001
1000
0100
0010
0100
0010
,
1000
0001
0100
0010
0001
1000
0010
0100
,
1000
0001
0100
0010
0001
1000
0010
0100
,
1000
0001
0010
0100
0001
1000
0100
0010
,
1000
0001
0010
0100
0001
1000
0100
0010
,
2000
0000
0000
0000
,
3001
0010
0100
0001
1000
0100
0010
1000
,
0001
0010
0100
1000
0010
0000
1001
0000
,
1000
0010
0100
1000
0001
0100
0010
0001
,
1000
0010
0100
0001
0010
0000
1001
0000
,
1000
0100
0010
1000
0001
0010
0100
0001
,
1000
0100
0010
0001
0100
0000
1001
0000
,
0001
0100
0010
0001
1000
0010
0100
1000
,
0001
0100
0010
1000
0100
0000
1001
0000
,
0001
0010
0100
0001
0010
0100
0001
0010
,
0100
0001
0010
0100
0001
0010
0200
0000
,
1300
0010
0100
1000
0010
0100
1000
0010
,
0100
1000
0010
0100
1000
0010
0200
0000
,
0301
1000
0100
0001
1000
0100
0001
1000
,
0100
0001
1000
0100
0001
1000
0200
0000
,
1300
0010
0001
1000
0010
0001
1000
0010
,
0001
1000
0010
0001
1000
0010
0002
0000
,
0013
0200
0000
0010
0302
0000
0100
2003
,
0000
0100
3002
0010
0203
0000
1000
0000
,
0010
0302
0000
0100
0023
0000
0100
1030
,
0010
0002
0100
1003
0010
0000
0100
0001
,
1000
0001
0010
0100
0001
1000
0100
0010
,
1000
0100
0010
1000
0001
0010
0100
0001
,
1000
0100
0001
1000
0100
0001
1000
0100
,
0001
0000
0000
0000
0000
0000
0000
0000
0000
0000
0000
0000
0000
0000
0000
0000
0000
0000
0000
0000
0000
0000
0000
0000
1000
0000
0000
0000
0000
0000
0000
0000
0000
0000
0000
0000
0000
0000
0000
0000
0000
0000
0000
0000
0000
0000
0000
0000
0100
0000
0000
0000
0000
0000
0000
0000
0000
0000
0000
0000
0000
0000
0000
0000
0000
0000
0000
0000
0000
0000
0000
0000
0000
0000
0000
0000
0000
0000
0000
0000
0000
0000
0000
0000
0000
0000
0000
0000
0000
0000
0000
0000
0000
0000
0000
0000
0002
0000
0000
0000
0000
0000
0000
0000
0000
0000
0000
0000
0000
0000
0000
0000
0000
0000
0000
0000
0000
0000
0000
0000
0000
0000
0000
0000
0000
0000
0000
0000
0000
0000
0000
0000
0000
0000
0000
0000
0000
0000
0000
0000
0000
0000
0000
0000
0000
0000
0000
0000
0000
0000
0000
0000
0000
0000
0000
0000
0000
0000
0000
0000
0000
0000
0000
0000
0000
0000
0000
0000
0000
0003
0000
0000
0000
0000
0000
0000
0000
0000
0000
0000
0000
0000
0000
0000
0000
0000
0000
0000
0000
0000
0000
0000
;

//--------------- dance-double - D0omsday NO SPEEN 6 DS ----------------
#NOTES:
     dance-double:
     D0omsday NO SPEEN 6 DS:
     Easy:
     10:
     0,0,0,0,0:
00000000
00000000
00000000
00000000
,
00000000
00000000
00000000
00000000
,
00000000
00000000
00000000
00000000
,
00000000
00000000
00000000
00000000
,
00000000
00000000
00000000
00000000
,
00000000
00000000
00000000
00000000
,
00022000
00000000
00033000
00022000
00000000
00033000
00000000
00000000
,
00010000
00000100
00001000
00000001
,
00000100
00000000
00000010
00001000
00000010
00000000
00001010
00000000
,
00001000
00000100
00020000
00001000
,
00030010
00001010
00100000
00110000
,
00010000
01000000
00200000
10000000
,
01300000
01010000
00000100
00001100
,
00001000
00000010
00020000
00001000
,
00030100
00001100
01000000
01010000
,
00010000
00100000
02000000
00100000
,
13000000
00000000
00010000
00000000
00100000
00001000
00100000
00000000
,
00002000
00000000
00000000
00000000
,
00000000
00000000
00000000
00000000
00000000
00000000
00000000
00013000
,
00000020
00000000
00000000
00000000
,
00000000
00000000
00000000
00000000
00000000
00000000
00000000
00000130
,
00000001
00000000
00000000
00001000
00000000
00000100
00010000
00000000
,
00001000
00000000
00000000
00100000
00000000
00010000
01000000
00000000
,
00100000
00000000
00000000
10000000
00000000
00010000
00100000
00000000
,
00001000
00000000
00000000
00010000
00000000
00000100
00000010
00000000
,
00000002
00000000
00000003
00000002
00000000
00000003
00001010
00000000
,
00010000
00001000
00010000
00001000
00010000
00000000
01000000
00000000
,
20000000
00000000
30000000
20000000
00000000
30000000
00110000
00000000
,
00001000
00010000
00001000
00010000
00001000
00000000
00000100
00000000
,
00000001
00000010
00001000
00010000
,
01000000
10000000
00100000
10100000
,
10000000
00100000
00010000
00001000
,
00000100
00000001
00000010
00000011
,
00000001
00000100
00001000
00010000
,
00100000
10000000
01000000
11000000
,
10000000
01000000
00010000
00001000
,
00000010
00000001
00000100
00000101
,
00000001
00001000
00000100
00010100
,
00010000
00001000
00010000
00001000
00020000
00000000
00000000
00000000
,
00130000
00100000
01000000
01000000
,
00010000
10000000
02000000
00000000
,
03100000
00001000
00010000
00000100
,
00001000
00000010
00001000
00000010
00002000
00000000
00000000
00000000
,
00003100
00000100
00000010
00000001
,
00000100
00000010
00001020
00000000
,
00010030
00001000
00000000
00100000
00010000
00000000
10000000
01000000
,
00100000
00001000
01000000
00100000
,
10000000
00010000
00000000
01000000
00001000
00000000
00010000
00000010
,
00000100
00000001
00000010
00000100
,
00001000
00000100
00000000
00010000
00001000
00000000
00100000
00010000
,
01000000
00100000
00010000
00001000
,
01000000
00001000
00000000
00010000
00000010
00000000
00000100
00000001
,
00000010
00000100
00010000
00002000
,
01003000
00100000
00010000
00001000
,
00000100
00000010
00001000
00000100
,
00000010
00000001
00000100
00001000
,
00010000
00100000
01000000
00010000
,
10000000
01000000
00010000
01000000
,
00100000
00010000
00001000
00000100
,
00010000
00001000
00000100
00000010
,
00001000
00000100
00000010
00000001
,
00002002
00000000
00000000
00003003
,
00000001
00000100
00001000
00010000
,
00100000
10000000
01000000
11000000
,
10000000
01000000
00010000
00001000
,
00000010
00000001
00000100
00000101
,
00000001
00000010
00001000
00010000
,
01000000
10000000
00100000
10100000
,
10000000
00100000
00010000
00001000
,
00000100
00000001
00000010
00000011
,
00000001
00000010
00001000
00010000
,
00100000
10000000
00010000
10010000
,
10000000
01000000
00010000
00001000
,
00000100
00000001
00001000
00001001
,
00000001
00000100
00001000
00010000
,
01000000
10000000
00010000
10010000
,
10000000
00100000
00010000
00001000
,
00000010
00000001
00001000
00001001
,
00000001
00000100
00000000
00000010
00001000
00000000
00000100
00010000
,
00000000
00001000
01000000
00000000
00200000
00000000
10000000
00000000
,
01300000
00010000
00000000
00100000
00001000
00000000
00010000
00000100
,
00010000
00000100
00010000
00000000
00000010
00000000
00001010
00000000
,
00001000
00000100
00000001
00000100
,
00001000
00010000
00100000
10000000
,
00100000
00010000
01000000
00100000
,
00010000
00000000
00001000
00000000
00022000
00000000
00000000
00033000
;

//--------------- dance-double - D0omsday 15 SPEEN 20 DS ----------------
#NOTES:
     dance-double:
     D0omsday 15 SPEEN 20 DS:
     Medium:
     13:
     0,0,0,0,0:
00000000
00000000
00000000
00000000
,
00000000
00000000
00000000
00000000
,
00000000
00000000
00000000
00000000
,
00000000
00000000
00000000
00000000
,
00000000
00000000
00000000
00000000
,
00000000
00000000
00000000
00000000
,
00022000
00000000
00033000
00022000
00000000
00033000
00000000
00000000
,
00001000
00010000
00100000
01000000
,
00010000
10000000
01000000
00100000
00002000
00000000
00013000
00000000
,
00000010
00000000
00001000
00000001
00000020
00000000
00000130
00000000
,
00010000
00010100
00001000
00101000
,
00100000
00000000
00010000
10000000
00200000
00000000
01300000
00000000
,
00001000
01001000
00010000
00010010
,
00000010
00000000
00001000
00000100
00020000
00000000
00031000
00000000
,
00100000
00101000
00000010
00010010
,
00010000
00000000
00001000
00100000
02000000
00000000
13000000
00000000
,
00100000
00000000
01000000
00001000
00010000
00000000
00011000
00000000
,
00002000
00000000
00000000
00000000
,
00000000
00000000
00000000
00000000
00000000
00000000
00000000
00010000
,
00203000
00000000
00000000
00000000
,
00000000
00000000
00000000
00000000
00000000
00000000
00000000
01000000
,
00310000
00000000
00000000
00110000
00000000
00100000
00001000
00000000
,
00010000
00000000
00000000
00001010
00000000
00000010
00000100
00000001
,
00000010
00000000
00000000
00001100
00000000
00000100
00010000
00000000
,
00001000
00000000
00000000
01010000
00000000
01000000
00100000
10000000
,
00020000
00000000
00030000
00020000
00100000
00000000
01030000
00000000
,
00001000
00010000
00000010
00001000
00000002
00000000
00000100
00000000
,
00002003
00000000
00003000
00002000
00000010
00000000
00003100
00000000
,
00010000
00001000
00100000
00010000
10000000
00000000
01000000
00000000
,
00100000
00010000
01000000
10000000
,
00100000
00000000
00001000
00010000
00000010
00000000
00001010
00000000
,
00001000
00000100
00000001
00000010
,
00001000
00000000
00000100
00010000
00001000
00000000
00101000
00000000
,
00100000
00010000
01000000
10000000
,
00100000
00000000
00001000
00010000
00000100
00000000
00001100
00000000
,
00001000
00000100
00000001
00000010
,
00001000
00000000
00000100
00010000
00001000
00000000
00011000
00000000
,
00010000
00000000
00100000
01000000
00010000
00000000
00110000
00000000
,
00100000
01000000
00010000
00001000
00000200
00000000
00000000
00000000
,
00000310
00001000
00000001
00000000
00000010
00000100
00001000
00000000
,
00010000
00100000
00001000
00000000
00012000
00000000
00000000
00000000
,
01003000
00100000
10000000
00000000
00010000
00000000
10010000
00000000
,
10000000
01000000
00010000
00001000
00000020
00000000
00000000
00000000
,
00000001
00000030
00000000
00000000
00000000
00000000
00000000
00000000
00000000
00000000
00000000
00000000
00000000
00000000
00000000
00000000
00000000
00000000
00000000
00000000
00000000
00000000
00000000
00000000
00000000
00000000
00000000
00000000
00000000
00000000
00000000
00000000
00000000
00000000
00000000
00000000
00000000
00000000
00000000
00000000
00000000
00000000
00000000
00000000
00000000
00000000
00000000
00000000
00000100
00000000
00000000
00000000
00000000
00000000
00000000
00000000
00000000
00000000
00000000
00000000
00000000
00000000
00000000
00000000
00000000
00000000
00000000
00000000
00000000
00000000
00000000
00000000
00001000
00000000
00000000
00000000
00000000
00000000
00000000
00000000
00000000
00000000
00000000
00000000
00000000
00000000
00000000
00000000
00000000
00000000
00000000
00000000
00000000
00000000
00000000
00000000
00010000
00000000
00000000
00000000
00000000
00000000
00000000
00000000
00000000
00000000
00000000
00000000
00000000
00000000
00000000
00000000
00000000
00000000
00000000
00000000
00000000
00000000
00000000
00000000
00000100
00000000
00000000
00000000
00000000
00000000
00000000
00000000
00000000
00000000
00000000
00000000
00000000
00000000
00000000
00000000
00000000
00000000
00000000
00000000
00000000
00000000
00000000
00000000
00000010
00000000
00000000
00000000
00000000
00000000
00000000
00000000
00000000
00000000
00000000
00000000
00000000
00000000
00000000
00000000
00000000
00000000
00000000
00000000
00000000
00000000
00000000
00000000
00000000
00000000
00000000
00000000
00000000
00000000
00000000
00000000
00000000
00000000
00000000
00000000
00000000
00000000
00000000
00000000
00000000
00000000
00000000
00000000
00000000
00000000
00000000
00000000
,
00000110
00010100
02001000
00000000
,
03200000
10000000
00000000
02300000
00001000
00000000
03010000
00100000
,
01000000
00000000
00100000
00001000
00010000
00000000
00000010
00000000
,
00002000
00000100
00000000
00003002
00000100
00000000
00010003
00000010
,
00001000
00000000
00000100
00000000
00010000
00001000
01000000
00000000
,
00020000
00100000
00000000
02030000
00001000
00000000
03100000
10000000
,
01000000
00000000
00100000
00000000
00001000
00010000
00001000
00010000
,
00002000
00010000
00000000
00003200
00000010
00000000
00000301
00001000
,
00000100
00010000
00000100
00010000
00001000
00010000
00001000
01000000
00001000
02000000
00000000
00000000
,
03100000
10000000
01000000
00010000
,
00100000
10000000
01000000
00010000
,
00001000
00000010
00000001
00000100
,
00001000
00000010
00000001
00000100
,
00001000
00010000
00001000
00100000
00010000
01000000
00001000
00010000
,
00000100
00001000
00000010
00010000
00001000
01000000
00010000
00100000
,
01000000
10000000
01000000
00100000
00010000
00001000
00000100
00000010
,
00000001
00000010
00000100
00001000
00010000
00100000
01000000
10000000
,
00020000
00000000
00000000
00000000
,
01030000
10000000
00100000
00010000
,
01000000
00000000
00001000
00010000
00000010
00000000
00010010
00000000
,
00001000
00000100
00000001
00000010
,
00001000
00000000
00000100
00010000
00001000
00000000
01001000
00000000
,
01000000
10000000
00100000
00010000
,
01000000
00000000
00001000
00010000
00000100
00000000
00010100
00000000
,
00001000
00000010
00000001
00000100
,
00001000
00000000
00000100
00010000
00001000
00000000
01000000
00000000
,
00010000
00100000
01000000
00001000
,
00010000
00000100
00000010
00000120
,
00001030
00000010
00000100
00010000
,
00001000
01000000
00100000
01200000
,
00310000
01000000
00100000
00001000
,
00010000
00000010
00000100
00000210
,
00001300
00000010
00000100
00010000
,
00001000
01000000
00100000
02100000
,
23000000
00010000
00000000
30200000
01000000
00000000
20300000
01000000
,
00000000
30010000
00100000
00001000
00020000
00000000
00000100
00000000
,
00030020
00000100
00000000
00002030
00000100
00000000
00013000
00100000
,
01000000
00010000
00001000
00000000
01000000
00000000
01010000
00000000
,
00010000
00100000
01000000
00001000
,
00010000
00000100
00000010
00001000
,
00000001
00000010
00000100
00001000
00010000
00100000
01000000
10000000
,
00100000
00010000
00001000
00000000
00022000
00000000
00000000
00033000
;

//--------------- dance-double - D0omsday 16.5 SPEEN 25 DS ----------------
#NOTES:
     dance-double:
     D0omsday 16.5 SPEEN 25 DS:
     Hard:
     17:
     0,0,0,0,0:
00000000
00000000
00000000
00000000
,
00000000
00000000
00000000
00000000
,
00000000
00000000
00000000
00000000
,
00000000
00000000
00000000
00000000
,
00000000
00000000
00000000
00000000
,
00000000
00000000
00000000
00000000
,
00202000
00000000
00303000
00020020
00000000
00030030
00000000
00000000
,
00010000
00001000
00000010
00000001
,
00000100
00000000
00000010
00001000
00000100
00000000
00010000
00000000
00002000
00000000
00000000
00000000
00103000
00000000
00000000
00000000
,
00000010
00000100
00001000
00010000
00000200
00000000
00000010
00000000
,
00010300
00010100
00001000
01001000
,
01000000
00100000
10000000
00010000
00200000
00000000
01000000
00000000
,
00301000
00000000
00000000
00000000
00101000
00000000
00000000
00000000
00010000
00000000
00000000
00000000
00010010
00000000
00000010
00001000
,
00000001
00000010
00000100
00010000
00002000
00000000
00100000
00000000
,
01003000
01001000
00000100
00010100
,
00010000
01000000
00100000
00001000
00020000
00000000
00000010
00000000
,
00030100
00000000
00010000
00000100
00001000
00000000
00000010
00000100
00000001
00000100
00000010
00000000
00001000
00000100
00010000
00000000
,
00002000
00000000
00000000
00000000
,
00000000
00000000
00000000
00000000
00000000
00000000
00000000
00010000
,
02003000
00000000
00000000
00000000
,
00000000
00000000
00000000
00000000
00000000
00000000
00000000
00000000
00000000
00000000
00000000
00000000
00000000
00000000
03100000
10000000
,
00010000
00000000
00000000
00011000
00000000
00000100
00000010
00000000
,
00001001
00000000
00000000
00011000
00000000
00001000
00100000
01000000
,
10000000
00000000
00000000
00011000
00000000
00000010
00000100
00000000
,
00001001
00000000
00000000
00000000
00000000
00000000
00011000
00000000
00000000
00000000
00001000
00000000
00100000
00000000
00010000
01000000
,
00020000
00000000
00030000
00020000
00100000
00000000
00031000
00000000
,
00000100
00000001
00000100
00001000
00000020
00000000
00000130
00000010
,
00002000
00000000
00003000
00002000
00000100
00000000
00013000
00000000
,
00100000
10000000
00100000
00010000
02000000
00000000
03100000
00000000
,
10000000
00010000
00100000
01000000
00001000
00010000
00000100
00000010
,
00001000
00000001
00000010
00000100
00001000
00000000
00001001
00000000
,
00000001
00001000
00000010
00000100
00010000
00001000
01000000
00100000
,
00010000
10000000
00100000
01000000
00010000
00000000
10010000
00000000
,
10000000
00010000
01000000
00100000
00001000
00010000
00000010
00000100
,
00001000
00000001
00000100
00000010
00001000
00000000
00001001
00000000
,
00000001
00001000
00000100
00000010
00010000
00001000
00100000
01000000
,
00010000
10000000
01000000
00100000
00010000
00000000
10010000
00000000
,
10000000
00000000
00100000
01000000
00100000
00000000
00010000
00000000
00001000
00000000
00000000
00000000
00011000
00000000
00000000
00000000
,
00001000
00000010
00000001
00000100
00002000
00000000
00000000
00000000
,
00013000
00000000
00001000
00100000
00001000
00000000
00010000
00000000
00100000
01000000
00100000
01000000
00100000
00000000
00010000
00000000
,
00001000
00000010
00000100
00001000
00000002
00000000
00000000
00000000
,
00001003
00000010
00001000
00000010
00001000
00000000
00000100
00000000
00010000
00000000
00000000
00000000
00011000
00000000
00000000
00000000
,
00010000
00100000
10000000
01000000
00020000
00000000
00000000
00000000
,
00031000
00000000
01000000
00010000
01000000
00000000
00001000
00000000
00000100
00000000
00000010
00000000
00001000
00000000
00000100
00000000
,
00000010
00000000
00001000
00000000
00010000
00000000
00100000
00000000
01000000
00001000
01000000
00000000
00000100
00010000
00000100
00000000
,
00002000
00000010
00000000
00003200
00010000
00000000
01000300
00001000
,
00100000
01000000
00010000
01000000
00100000
00000000
00001000
00000000
00010000
00000000
00100000
00000000
01000000
00000000
10000000
00000000
,
02000000
00010000
00000000
03002000
00100000
00000000
00013000
00000010
,
00001000
00000001
00000010
00000000
00001000
00000000
00010000
00000000
01000000
00100000
00001000
00000000
00010000
00000000
00000010
00000000
,
00000200
00001000
00000000
00000320
00010000
00000000
00100030
00001000
,
00000010
00000000
00000001
00000000
00000100
00000000
00001000
00000000
00100000
00001000
00010000
00000010
00010000
00001000
01000000
00001000
,
00020000
00001000
00000000
02030000
00100000
00000000
13000000
00010000
,
01000000
00100000
00010000
00001000
00000100
00000001
00000010
00000100
00001000
00020000
00000000
00000000
,
00130000
01000000
00010000
00001000
00000010
00000100
00010000
00000010
,
00000100
00001000
00010000
00100000
10000000
00010000
00100000
01000000
,
00001000
00000100
00010000
00000010
00000001
00000010
00001000
00000100
,
00010000
00100000
00001000
00100000
01000000
10000000
00010000
00100000
,
01000000
00010000
00100000
01000000
00001000
00010000
00100000
00000010
,
00001000
00010000
00000100
00000001
00000010
00001000
00010000
00100000
,
10000000
01000000
00001000
01000000
00100000
00001000
00000100
00000010
,
00010000
00000100
00000001
00000100
00010000
00000010
00000100
00010000
,
00002000
00000000
00000000
00000000
,
00003001
00001000
00000010
00001000
00010000
00001000
00000100
00001000
,
00000001
00000100
00000010
00001000
00000100
00000000
01001000
00000000
,
10000000
00010000
00100000
00010000
00001000
00010000
01000000
00010000
,
10000000
01000000
00100000
00010000
01000000
00000000
00010010
00000000
,
00000001
00001000
00000100
00001000
00010000
00001000
00000010
00001000
,
00000001
00000010
00000100
00001000
00000010
00000000
00101000
00000000
,
10000000
00010000
01000000
00010000
00001000
00010000
00100000
00010000
,
10000000
00100000
01000000
00010000
00100000
00000000
00010100
00000000
,
00000010
00001000
00100000
00010000
01000000
00010000
00000100
00001000
,
00000010
00010000
00001000
00100000
01000000
00000000
01100000
00000000
,
00100000
00010000
00000010
00001000
00000100
00001000
01000000
00010000
,
00100000
00000000
00001000
00000000
00010000
00000000
00000010
00000000
00001000
00000000
00000001
00000000
00000010
00000000
00000001
00001000
,
00000100
00001000
01000000
00010000
00100000
00010000
00000010
00001000
,
00000100
00010000
00001000
01000000
00100000
00000000
01100000
00000000
,
01000000
00010000
00000100
00001000
00000010
00001000
00100000
00010000
,
01000000
00001000
00010000
00000100
00000010
00000000
00000002
00000000
,
00000010
00002003
00000000
00000010
00003200
00000000
00010000
00200300
,
00000000
00001000
00320000
10000000
02030000
00000000
10000000
00000000
,
00100000
03020000
00000000
00001000
02030000
00000000
00001000
03000100
,
00010000
00002000
00000010
00013000
00000100
00000000
00000110
00000000
,
00000001
00001000
00000010
00000100
00010000
00001000
01000000
00100000
,
00010000
10000000
00010000
01000000
00010000
00001000
00010000
00100000
,
00000010
00000100
01000000
00100000
00000010
00000100
01000000
00100000
,
00000010
00000100
01000000
00000000
00100010
00000000
00000000
00000000
;
