#TITLE:キルミーのベイベー!;
#SUBTITLE:;
#ARTIST:Yasuna and Sonya;
#TITLETRANSLIT:;
#SUBTITLETRANSLIT:;
#ARTISTTRANSLIT:;
#GENRE:;
#CREDIT:;
#MUSIC:Kill Me no Baby!.ogg;
#BANNER:;
#BACKGROUND:;
#CDTITLE:;
#SAMPLESTART:13.952;
#SAMPLELENGTH:14.998;
#SELECTABLE:YES;
#OFFSET:-0.754;
#BPMS:0.000=200.028;
#STOPS:;
#BGCHANGES:-1.500=Kill Me no Baby!.mp4=1.000=0=0=0=StretchNoLoop====,
99999.000=-nosongbg-=1.000=0=0=0=StretchNoLoop====
;
#FGCHANGES:;

//--------------- dance-single - eataninja ----------------
#NOTES:
     dance-single:
     eataninja:
     Beginner:
     3:
     0,0,0,0,0:
0000
0000
0000
0000
,
0000
0000
0000
0000
,
0000
0000
0000
0000
,
0001
0000
0100
0000
,
0010
0000
0000
0000
,
1000
0000
0001
0000
,
0010
0000
0000
0000
,
0100
0000
0010
0000
,
0001
0000
0000
0000
,
1000
0000
0010
0000
,
0100
0000
0000
0000
,
0001
0001
0001
0000
,
0001
0000
0000
0000
,
0010
0010
0010
0000
,
0010
0000
0000
0000
,
1000
1000
1000
0000
,
1000
0000
0000
0000
,
0100
0100
0100
0000
,
0100
0000
0000
0000
,
0001
0000
1000
0000
,
0000
0010
0010
0000
,
1000
0000
0001
0000
,
0000
0010
0010
0000
,
0100
0000
0010
0000
,
0001
0000
0000
0000
,
1000
0000
0010
0000
,
0200
0000
0300
0000
,
0001
0000
0000
0010
,
0000
0000
0001
0000
,
0000
1000
0000
0000
,
0010
0000
0000
0100
,
0000
0000
0001
0000
,
0000
1000
0000
0100
,
0000
0010
0000
0001
,
0000
0100
0000
0010
,
0000
1000
0000
0001
,
0000
1000
1000
1000
,
0000
1000
0000
0000
,
0000
0100
0100
0100
,
0000
0100
0000
0000
,
0000
0001
0001
0001
,
0000
0001
0000
0000
,
0000
0010
0010
0010
,
0000
0010
0000
0000
,
0000
0001
0000
1000
,
0000
0000
0100
0100
,
0000
1000
0000
0001
,
0000
0000
0100
0100
,
0000
0010
0000
1000
,
0000
0100
0000
0000
,
0000
0010
0000
0001
,
0000
0200
0000
0300
,
0000
0010
0000
1000
,
0000
0001
0000
0010
,
0000
0100
0000
0010
,
0000
0001
0000
1000
,
0000
0000
0000
0010
,
0000
0100
0000
0001
,
0000
1000
0000
0100
,
0000
0010
0000
0100
,
0000
1000
1000
1000
,
0000
0010
0000
0000
,
0000
0001
0001
0001
,
0000
0100
0000
0000
,
0000
0001
0001
0001
,
0000
0010
0000
0000
,
0000
1000
1000
1000
,
0000
0001
0001
0001
,
0000
0100
0100
0100
,
0000
0010
0010
0010
,
0000
2002
0000
0000
,
0000
0000
0000
0000
,
0000
0000
3003
0000
;

//--------------- dance-single - eataninja ----------------
#NOTES:
     dance-single:
     eataninja:
     Easy:
     7:
     0,0,0,0,0:
0000
0000
0000
0000
,
0000
0000
0000
0000
,
0000
0000
0000
0000
,
1000
0100
0001
0000
,
0100
0010
0001
0000
,
1000
0010
1000
0010
,
0100
0001
1000
0000
,
0100
0010
0001
0000
,
1000
0010
0100
0000
,
1000
0100
0010
0010
,
1000
0001
0010
0000
,
0100
0010
0220
0330
,
0001
0000
1000
0000
,
0010
0100
0220
0330
,
0100
0001
1000
0000
,
0100
0010
0220
0330
,
1000
0000
0001
0001
,
0010
0100
0220
0330
,
0010
0001
0200
0000
,
0310
0010
0100
0100
,
0000
0001
1001
1000
,
0100
0100
0010
0010
,
0000
0001
1000
1001
,
0000
0010
0100
0001
,
0010
0100
1000
0000
,
0001
0001
0100
0100
,
2000
0000
3200
0000
,
0310
1000
0001
0010
,
0100
1000
0001
0001
,
0100
0010
1000
0100
,
0001
0100
0100
0010
,
0001
1000
0010
0100
,
0000
0001
0100
0010
,
0100
1000
0100
0010
,
0100
0001
0010
1000
,
0010
0100
0010
0001
,
1000
0010
0100
0220
,
0330
1000
1000
0001
,
0001
0010
0100
0220
,
0330
0010
0001
1000
,
0000
0100
0010
0220
,
0330
1000
1000
0001
,
0001
0100
0010
0220
,
0330
0100
0001
0020
,
0000
0130
0100
0010
,
0010
0000
0001
1001
,
1000
0010
0010
0100
,
0100
0000
0001
1000
,
1001
0000
0100
0010
,
0001
0100
0010
1000
,
0000
0001
0001
0010
,
0010
2000
0000
3020
,
0000
0130
0010
0001
,
0000
1000
0010
0001
,
0000
0010
0100
0001
,
1000
0100
0010
0001
,
0001
0000
1000
0010
,
0100
0001
0010
0001
,
1000
0100
0010
0001
,
0001
1000
0010
0001
,
0000
0010
0100
0220
,
0330
0100
0001
1000
,
1000
0100
0010
0220
,
0330
0010
0001
1000
,
0000
0010
0100
0220
,
0330
0010
1000
0001
,
0001
0010
0001
0022
,
0033
0001
0100
0202
,
0303
1000
0100
2200
,
3300
1000
0010
2020
,
3030
2002
0000
0000
,
0000
0000
0000
0000
,
0000
0000
3003
0000
;

//--------------- dance-single - eataninja ----------------
#NOTES:
     dance-single:
     eataninja:
     Medium:
     11:
     0,0,0,0,0:
0000
0000
0000
0000
,
0000
0000
0000
0000
,
0000
0000
0000
0000
,
1000
0000
0100
0010
0002
0000
0003
0000
,
0100
0000
0100
0001
0010
0000
0000
0000
,
1000
0000
0010
0001
1000
0000
0010
0000
,
0100
0010
0100
0000
0001
0000
0000
0000
,
1000
0000
0100
0000
0010
0001
1000
0000
,
0010
0000
0100
0000
0001
1000
0010
0000
,
0100
0000
1000
0000
0100
0010
0100
0000
,
0001
0010
0100
0000
1001
0000
0000
0000
,
1010
0110
1001
1001
,
0001
0000
0010
0000
0100
0010
0100
0000
,
0110
0011
1001
1001
,
0001
0000
1000
0010
1000
0000
0000
0000
,
1100
0110
1001
1001
,
0001
0100
1000
0000
0100
0010
0100
0000
,
0110
0101
1001
1001
,
0001
0000
0010
0100
2000
0000
3000
0000
,
0010
0010
0100
0100
,
0000
0001
1000
0001
0010
0000
0100
0000
,
0010
0010
0100
0100
,
0000
0010
0001
1000
0010
0000
0100
0000
,
0001
0110
0010
1000
,
0001
0000
0010
1000
0000
0010
0100
0000
,
1000
1000
1000
0000
0001
0100
0000
2000
,
0000
0100
0100
3100
,
0010
0100
0001
0000
0010
0100
0010
0100
,
0010
0001
0000
1000
0010
0100
0001
0000
,
1000
0100
1000
0000
0001
0010
0100
1000
,
0000
0010
0001
0000
0010
0100
0001
0000
,
1000
0100
1000
0100
0001
0000
0100
0010
,
0010
0002
2003
3020
,
0230
0302
0023
0230
,
2300
3002
2003
3020
,
0230
0302
0023
0230
,
1300
1100
0110
0011
,
1001
0000
1000
0010
1000
0000
0001
0100
,
0001
0101
0110
1010
,
1001
0000
1000
0100
0000
0001
0100
0000
,
0000
0110
1001
1010
,
0101
0000
0001
1000
0010
0000
0100
0010
,
0100
0110
1001
0011
,
1100
0000
0100
0000
0010
0001
0200
0000
,
0300
0010
0010
0100
,
0100
0000
0000
0010
1000
1000
0001
0000
,
0010
0100
0100
0010
,
0010
0000
0000
0010
0001
1000
0010
0000
,
0100
0001
1001
1000
,
0100
0000
0001
0000
0100
0010
0000
0001
,
1000
0000
0010
0010
0010
0000
1000
0010
,
0000
0002
0000
0000
0010
0000
0010
0000
,
0013
0000
0100
0000
0001
1000
0100
0000
,
0000
0000
0010
0000
0001
0010
0001
0000
,
1000
0000
0010
0000
0001
0010
1000
0000
,
0010
0100
0001
0000
1000
0000
0100
0010
,
0001
0000
1000
0000
0000
0000
0010
0100
,
0010
0000
1000
0001
0010
0000
0100
0010
,
0001
0000
1000
0010
0100
0000
1000
0100
,
0001
0000
0010
0001
0010
0001
1000
0000
,
0000
1100
0011
0101
,
1010
0000
0010
0100
0001
0000
1000
0000
,
1000
1010
0101
0011
,
1100
0000
0100
0000
0001
0100
1000
0000
,
0001
0011
1100
1010
,
0101
0000
0100
0010
0100
0000
0001
1000
,
0001
0011
1100
1010
,
0101
0011
1100
1010
,
0101
0011
1100
1010
,
0101
0011
1100
1010
,
0101
2002
0000
0000
,
0000
0000
0000
0000
,
0000
0000
3003
0000
;

//--------------- dance-single - eataninja ----------------
#NOTES:
     dance-single:
     eataninja:
     Hard:
     13:
     0,0,0,0,0:
0000
0000
0000
0000
,
0000
0000
0000
0000
,
0000
0000
0000
0000
,
1000
0000
0100
0001
0200
0000
0310
0000
,
0001
1000
0010
0100
0001
0000
1000
0000
,
0100
0000
0001
0100
1000
0010
0100
0001
,
1000
0001
0010
0100
2000
0000
3020
0000
,
0130
0000
1000
0100
0001
1000
0100
0000
,
0010
0001
0010
0001
1000
0010
0001
0010
,
0200
0000
0301
1000
0100
0001
0100
1000
,
0010
0100
0010
1000
0001
0000
1100
0000
,
2000
0010
0001
3100
,
1000
0100
1000
0000
0010
0001
0010
1000
,
0002
0010
1000
0103
,
0001
0000
0010
0100
1000
0000
0010
0000
,
2000
0100
0001
3010
,
1000
0000
0100
0010
0001
0100
1000
0100
,
0002
0100
1000
0013
,
0001
0000
0010
1000
0001
0000
0100
0000
,
1000
0010
1000
0000
0001
0001
0100
0100
,
0000
0001
0010
0100
1000
0000
1001
0000
,
0001
0100
0001
0000
1000
1000
0010
0010
,
0000
1000
0001
0010
0100
0000
1001
0000
,
1000
0010
0001
0000
0010
0100
0001
0000
,
1000
0000
0100
0010
0000
0001
0001
1000
,
0010
0010
0100
0001
1000
0100
0000
0002
,
0000
0203
2300
3002
,
1003
0010
1000
0001
0010
0100
1000
0001
,
0100
1000
0100
0001
1000
0010
1000
0001
,
0010
0100
1000
0001
0010
1000
0010
0100
,
1000
0010
0100
0001
0010
0100
0001
0100
,
1000
0001
0100
0010
1000
0000
0100
0010
,
0001
0001
1000
0010
1000
0010
0100
0001
,
1000
0000
0001
0010
0001
0010
0100
1000
,
0001
0000
1000
0010
0100
0010
0001
0010
,
0100
0000
0001
0010
1000
0010
0100
1000
,
0001
0200
1000
0010
,
0301
0000
0100
0010
1000
0000
0001
0010
,
1000
0010
0200
0000
0001
0000
0010
0000
,
1300
0000
0001
0100
0000
0010
1000
0000
,
0100
0020
1000
0100
,
0031
0000
0010
0000
0001
1000
0100
0001
,
0100
1000
0020
0000
0001
0000
0100
0000
,
1030
0000
0010
0100
0001
0000
2200
0000
,
3300
0000
1000
0100
0001
0000
0100
0100
,
0010
0010
0000
0001
1000
0010
1000
0000
,
1001
0000
0001
0010
1000
0000
0010
0010
,
0100
0100
0000
1000
0001
0100
0010
0000
,
1001
0000
1000
0100
0001
0000
0100
0010
,
0001
0000
1000
0000
0010
0100
0000
0010
,
0010
1000
0001
0010
0100
1000
0001
0100
,
0000
2000
0000
0000
3200
0000
0302
0000
,
2003
0000
3100
0000
0010
0001
0100
0000
,
0110
0000
0010
1000
0001
1000
0100
0010
,
0001
1000
0010
0000
0001
0010
1000
0000
,
0010
0100
0001
1000
0100
0010
0001
0100
,
1000
0100
0010
0000
1000
1000
0001
0010
,
0100
0000
1000
0001
0100
0010
1000
0100
,
0010
0001
0100
1000
0100
0010
1000
0001
,
0010
0100
0001
0100
1000
0010
0100
0000
,
0110
0020
0001
0100
,
1030
0000
0010
0000
1000
0001
0100
1000
,
0100
0001
2000
0000
0100
0000
0001
0000
,
3010
0000
1000
0100
0001
0000
1000
0000
,
0010
0200
0001
0010
,
1300
0000
0100
1000
0001
0100
0001
0010
,
1000
0010
0002
0000
0010
0000
1000
0000
,
0100
2003
0010
0001
,
0100
3002
0010
1000
,
0100
2003
0010
0001
,
3100
2002
0000
0000
,
0000
0000
0000
0000
,
0000
0000
3003
0000
;
