#TITLE:Keepsake ~ties that bind~;
#SUBTITLE:;
#ARTIST:dj VERTICAI;
#TITLETRANSLIT:;
#SUBTITLETRANSLIT:;
#ARTISTTRANSLIT:;
#GENRE:;
#CREDIT:;
#BANNER:Keepsake ties that bind.png;
#BACKGROUND:Keepsake ties that bind-bg.png;
#LYRICSPATH:;
#CDTITLE:;
#MUSIC:Keepsake ties that bind.ogg;
#OFFSET:1.490000;
#SAMPLESTART:72.010002;
#SAMPLELENGTH:12.000000;
#LASTBEATHINT:1.218590;
#SELECTABLE:YES;
#BPMS:0.000000=160.000000
;
#STOPS:
;
#BGCHANGES:308.000=Thanks_for_playing.png=1.000=0=0=1===CrossFade_Faster==,
99999=-nosongbg-=1.000=0=0=0 // don't automatically add -songbackground-
;
#KEYSOUNDS:;
#ATTACKS:;

//---------------dance-single - ----------------
#NOTES:
     dance-single:
     :
     Challenge:
     17:
     0.846887,1.005220,0.294308,0.748383,1.152006,705.000000,670.000000,35.000000,89.000000,0.000000,0.000000,0.846887,1.005220,0.294308,0.748383,1.152006,705.000000,670.000000,35.000000,89.000000,0.000000,0.000000:
0000
0000
0000
0000
,
0000
0000
0000
0000
,
0000
0000
0000
0000
,
0000
0000
0000
0000
,
0000
0000
0000
0000
,
0000
0000
0000
0000
,
0002
0000
0000
0103
0000
0000
0010
0000
2000
0000
0000
3100
0000
0010
0100
0010
,
0002
0000
0000
0013
0000
0000
0100
0000
2000
0000
0000
3010
0000
0100
0010
0100
,
0001
0000
0000
0101
0000
0000
0110
0000
0000
1010
0000
0000
2002
0000
0000
0000
,
0000
0000
0000
0000
,
0000
0000
0000
3003
,
0001
0000
0100
0000
0010
1000
0001
0010
0100
1000
0001
0000
0100
0010
0100
0001
,
1000
0000
1000
0000
1000
0000
0100
0010
0000
0000
0001
1000
0010
0000
0100
0000
,
2002
0000
3003
0000
0001
0100
0000
0010
0000
0100
0000
0001
1000
0100
0010
0100
,
0020
0000
0030
0000
0001
1000
0010
0100
0001
0000
0000
0110
0000
0000
0001
1000
,
0100
0010
0000
0000
0001
1000
0001
1000
0010
0100
0001
0100
0020
0030
2000
3000
,
0002
0000
0000
0000
1000
0000
0013
0000
0100
0010
0001
0010
0000
0001
1000
0010
,
0100
0001
0000
0100
0000
0000
0010
1000
0001
0010
0100
1000
0001
0100
0001
0100
,
0010
0001
0010
1000
0010
0000
0000
0100
0020
0000
0031
0000
0020
0000
1030
0000
,
0001
1000
0100
0000
1000
0000
0001
0000
0100
0001
1000
0100
0010
0001
0010
0000
,
0100
0000
0100
1000
0000
0010
1000
0000
0001
0100
0000
0001
0010
0100
0010
0100
,
0002
0000
0003
0000
0100
0000
1000
0000
0001
0100
0000
0010
0002
0000
0023
0000
,
0130
0001
1000
0100
0010
0001
1000
0010
0100
0000
0000
1001
0000
0000
0001
0100
,
0020
0000
0000
0000
2030
0000
3001
0000
0010
0100
1000
0100
0010
0001
0010
0001
,
1000
0020
0000
0100
0000
0000
1030
0001
1000
0100
0010
0001
0100
0010
1000
0001
,
0020
0000
0000
0000
0130
0000
1000
0000
0001
0000
0001
0100
0000
0010
1000
0001
,
2000
0000
0000
0000
3200
0000
0310
0000
0001
1000
0010
0100
1000
0000
0100
0000
,
0020
0000
1000
0000
0130
0000
0020
0000
0031
0000
0010
0100
0001
1000
0100
0010
,
0001
0000
0000
0000
0100
0000
0000
0000
0100
0000
0000
0000
0010
0000
0000
0000
1000
0000
0000
0000
1000
0000
0000
0000
0001
0000
0000
0000
0000
0000
0000
0000
0000
1001
0000
0000
0000
0000
0000
1000
0000
0000
0010
0000
0000
0100
0000
0000
,
2000
0000
0000
3100
0000
0000
0010
0000
2000
0000
0000
3100
0000
0010
0100
0010
,
2000
0000
0000
3010
0000
0000
0100
0000
2000
0000
0000
3010
0100
0001
1000
0100
,
0020
0000
0000
0032
0000
0000
0203
0000
0010
0000
0000
0310
0000
0000
0100
0001
,
1000
0100
0010
0001
0100
0010
1000
0010
0100
0001
0000
1001
0000
0001
0010
0100
,
0002
0000
0000
0103
0000
0000
0010
0000
0002
0000
0000
0103
0000
0010
0100
0010
,
0002
0000
0000
0013
0000
0000
0100
0000
2000
0000
0000
3100
0010
1000
0001
0010
,
0200
0000
0000
0000
0301
0000
0200
0000
0000
0000
0000
0000
1300
0001
0100
0010
,
0200
0000
0302
0000
0023
0000
0230
0000
1300
0001
0100
0010
1000
0000
0001
1000
,
0100
0000
0000
1200
0000
0000
0000
0000
0310
0001
0000
0100
0001
0000
0010
0100
,
0000
1000
0100
0010
0100
0000
0001
0000
0100
0010
0001
1000
0010
0000
0100
0001
,
1000
0000
0000
1020
0000
0000
0000
0000
0130
0000
0100
1000
0000
0200
0000
0302
,
0000
0000
1003
0100
0000
0001
0000
0100
0020
0000
0031
0100
0010
1000
0010
0100
,
1000
0100
0001
2000
0000
0000
3001
0010
0100
1000
0010
1000
0100
1000
0001
0010
,
0000
0100
0010
0001
1000
0010
0100
0001
0010
0001
0100
0010
1000
0001
0010
0100
,
0001
0000
0000
0101
0000
0000
2100
0000
0000
3001
0100
0010
0100
0000
0000
1100
,
0000
0000
0102
0000
0000
1003
0100
0010
0100
0000
0010
0001
1000
0010
0001
0020
,
0000
0000
0000
0000
,
0000
0000
0000
0000
,
0130
0001
0100
0010
1000
0001
1000
0100
0010
0001
0010
0100
1000
0001
0100
0010
,
1000
0000
0010
0000
0002
0000
0013
0000
0200
0000
0310
0000
1000
0001
0010
0100
,
0002
0000
0000
0103
0000
0000
2000
0000
0010
0000
0000
3001
0000
0100
0010
0100
,
2000
0000
0000
3100
0000
0010
1000
0002
0010
0000
0000
1003
0000
0100
0010
0100
,
0002
0000
0000
0000
0103
0000
0001
0100
1000
0000
0001
0000
1000
0010
0001
0000
,
0010
0000
0100
0000
0200
0000
0000
0000
0310
0000
1000
0000
0001
1000
0100
0010
,
2000
0000
0000
3010
0000
0000
0002
0000
0100
0000
0000
1003
0000
0010
0100
0010
,
0002
0000
0000
0013
0000
0100
0001
2000
0100
0000
0000
3001
0000
0010
0100
0010
,
2000
0000
0000
0000
3010
0000
1000
0010
0002
0000
0000
0000
1003
0000
0010
0100
,
1000
0100
0001
1000
0100
0010
0001
0100
0010
1000
0000
1001
0000
1000
0010
0100
,
0020
0000
0031
0000
0020
0000
1030
0000
1001
0000
0000
0001
0000
0010
0100
0000
,
0110
0000
0000
0000
0011
0000
0001
0000
1001
0000
0000
1000
0000
0001
0100
0010
,
0200
0000
1300
0000
0200
0000
0301
0000
1001
0000
0000
1000
0000
0100
0010
0000
,
0110
0000
0000
0000
1100
0000
1000
0000
1001
0000
0000
0001
0000
1000
0010
0100
,
0020
0031
0020
1030
0200
0301
0200
1300
,
0020
0000
0130
0000
0200
0000
0310
0000
0010
1000
0001
1000
0100
0000
1000
0001
,
0100
0010
1000
0100
0000
0000
0011
0000
0010
0001
0100
0010
0000
0000
1010
0000
,
0010
0100
0001
0010
0000
0000
1100
0000
0100
1000
0010
0100
0000
0000
0101
0000
,
0001
1000
0100
0010
0100
1000
0001
0100
0010
1000
0001
0010
0100
0010
0001
1000
,
0010
0000
0010
0000
1001
0000
1000
0100
0000
0010
1000
0010
0001
1000
0010
0001
,
0020
0000
1000
0000
0100
0100
0000
1000
,
0000
0000
0100
0000
1000
0000
0000
0000
0130
0000
1001
0000
0000
0110
0000
0000
,
2002
0000
3003
0000
1000
0100
0000
0010
0200
0000
0320
0000
0032
0000
0000
0000
,
1003
0000
0010
0100
1000
0000
0100
0000
0120
0000
0000
2030
0000
0000
3001
0000
,
0021
0000
0000
0000
0130
0000
1000
0000
1000
0010
0000
0100
0001
0000
0010
0100
,
1000
0000
0001
0000
0200
0000
0000
0000
0310
1000
0001
0010
0100
0010
0001
1000
,
0020
0230
0302
0000
1003
0100
0001
0100
,
0010
0000
0000
0001
0000
0000
1000
0000
0010
0000
0000
0000
1000
0000
0100
0000
0010
0000
0000
0000
0001
0000
0100
0000
0010
0000
1000
0000
0001
0000
0010
0000
,
0100
0010
0001
1000
0010
0100
0001
1000
0100
0010
1000
0001
0100
1000
0001
0100
,
0010
0000
0010
0000
1001
0000
1000
0100
0010
0001
1000
0010
0001
0010
0100
0001
,
2000
3000
0000
0000
0000
0000
0000
0000
;

//---------------dance-double - ----------------
#NOTES:
     dance-double:
     :
     Challenge:
     17:
     0.840880,0.972793,0.319535,0.739975,1.130984,700.000000,662.000000,38.000000,88.000000,0.000000,0.000000,0.840880,0.972793,0.319535,0.739975,1.130984,700.000000,662.000000,38.000000,88.000000,0.000000,0.000000:
00000000
00000000
00000000
00000000
,
00000000
00000000
00000000
00000000
,
00000000
00000000
00000000
00000000
,
00000000
00000000
00000000
00000000
,
00000000
00000000
00000000
00000000
,
00000000
00000000
00000000
00000000
,
20000000
00000000
00000000
31000000
00000000
00000000
00010000
00000000
00002000
00000000
00000000
00003010
00000000
00000001
00001000
00000001
,
00000200
00000000
00000000
00001300
00000000
00000000
00010000
00000000
00200000
00000000
00000000
10300000
00000000
00010000
10000000
00010000
,
00100000
00000000
00000000
00101000
00000000
00000000
00011000
00000000
00000000
00010010
00000000
00000000
00022000
00000000
00000000
00000000
,
00000000
00000000
00000000
00000000
,
00000000
00000000
00000000
00033000
,
00001000
00000000
01000000
00000000
00100000
10000000
00010000
00100000
01000000
00000000
00100000
00001000
00010000
00001000
00100000
00001000
,
00010000
00000000
00010000
00000000
00010000
00000000
00000100
00001000
00000000
00000000
00000100
00000010
00000001
00000000
00001000
00000000
,
00002002
00000000
00003003
00000000
00000001
00000100
00000000
00000010
00000000
00001000
00000000
00000010
00010000
00001000
00010000
00001000
,
00200000
00000000
00300000
00000000
00001000
00100000
00010000
10000000
00100000
00000000
00000000
01100000
00000000
00000000
10000000
00010000
,
00100000
01000000
00000000
00000000
00100000
00001000
00000000
00010000
00000010
00000100
00000010
00001000
00000002
00000003
00000020
00000030
,
00000200
00000000
00000000
00000000
00001000
00000000
00000310
00000000
00000001
00001000
00000001
00000100
00000010
00010000
00001000
00100000
,
00001000
00010000
00000000
00001000
00100000
00000000
01000000
00100000
00010000
10000000
00100000
00000000
01000000
00001000
00010000
00000100
,
00000010
00000001
00000100
00000010
00001000
00000000
00000000
00000001
00000200
00000000
00001300
00000000
00000200
00000000
00000310
00000000
,
00010000
00001000
00100000
00000000
00001000
00000000
00010000
00001000
00100000
00010000
00100000
01000000
10000000
00100000
01000000
00000000
,
00010000
00000000
10000000
00100000
00000000
01000000
00001000
00000000
00010000
00000100
00000000
00000010
00000001
00001000
00000010
00000100
,
00002000
00003000
00000000
00000000
00011000
00000000
00010000
00000000
00000100
00000010
00000000
00000100
00000002
00000000
00000203
00000000
,
00001300
00000001
00000100
00000010
00001000
00000010
00010000
00000000
00010010
00000000
00000000
00011000
00000000
00000000
00001000
00100000
,
00020000
00000000
00000000
00000000
00230000
00000000
01300000
00000000
10000000
00010000
01000000
00100000
01000000
00001000
00010000
00000100
,
00001000
00000000
00000000
00001000
00000000
00000000
00000001
00000100
00000010
00001000
00000010
00000100
00001000
00010000
00000010
00010000
,
00002000
00000000
00000000
00000000
01003000
00010000
10000000
00000000
02000000
00000000
00000000
03020000
00000000
00031000
00100000
00001000
,
00020000
00000000
00000000
00000000
00030200
00000000
00000310
00000000
00000001
00001000
00000010
00000100
00001000
00000000
00010000
00000000
,
00000020
00000000
00000000
00000000
00020030
00000000
00031000
00000000
00010000
00001000
01000000
00010000
10000000
01000000
00010000
00000000
,
00001000
00000000
00000000
00000000
00000100
00000000
00000000
00000000
00001000
00000000
00000000
00000000
00010000
00000000
00000000
00000000
01000000
00000000
00000000
00000000
00010000
00000000
00000000
00000000
00001000
00000000
00000000
00000000
00000000
00000000
00000000
00000000
00000000
00011000
00000000
00000000
00000000
00000000
00000000
00001000
00000000
00000000
01000000
00000000
00000000
00010000
00000000
00000000
,
20000000
00000000
00000000
31000000
00000000
00000000
00010000
00000000
00002000
00000000
00000000
00003100
00000000
00000001
00001000
00000001
,
00000020
00000000
00000000
00001030
00000000
00000000
00010000
00000000
00200000
00000000
00000000
10300000
00010000
00100000
01000000
10000000
,
00200000
00000000
00000000
00320000
00000000
00000000
00032000
00000000
00010000
00000000
00000000
00013000
00000000
00000000
00001000
00010000
,
00000100
00000010
00000001
00001000
00000010
00000100
00000010
00010000
00001000
00010000
00000000
00011000
00000000
00010000
00000100
00000010
,
00000002
00000000
00000000
00000103
00000000
00000000
00001000
00000000
00020000
00000000
00000000
01030000
00000000
10000000
00010000
10000000
,
00200000
00000000
00000000
00310000
00000000
00000000
00001000
00000000
00000020
00000000
00000000
00000031
00001000
00000010
00000100
00000001
,
00000020
00000000
00000000
00000000
00001030
00000000
00020000
00000000
00000000
00000000
00030010
00000000
00001000
00000010
00000100
00001000
,
00020000
00000000
00230000
00000000
20300000
00000000
32000000
00000000
03020000
00000000
00000000
00000000
00031000
00100000
00001000
00010000
,
00000100
00000000
00000000
00002100
00000000
00000000
00000000
00000000
00003001
00000100
00000000
00000010
00010000
00000000
00000100
00001000
,
00000000
00000100
00010000
00001000
00010000
00000000
00001000
00000000
01000000
00010000
10000000
01000000
00100000
00000000
00010000
10000000
,
00100000
00000000
00000000
10200000
00000000
00000000
00000000
00000000
01300000
00000000
01000000
10000000
00000000
02000000
00000000
03020000
,
00000000
00000000
10030000
01000000
00000000
00010000
00000000
00001000
00200000
00000000
00000000
00301000
00010000
00000010
00000100
00000010
,
00000001
00000010
00001000
00000002
00000000
00000000
00000013
00000100
00001000
00000001
00000100
00000010
00001000
00000100
00010000
00001000
,
00000000
01000000
00010000
10000000
00100000
10000000
01000000
00100000
00010000
01000000
00001000
00010000
00000100
00001000
00000001
00000100
,
00001000
00000000
00000000
00011000
00000000
00000000
02001000
00000000
00000000
03010000
10000000
01000000
00010000
00000000
00000000
00011000
,
00000000
00000000
00010200
00000000
00000000
00001300
00000001
00000100
00001000
00000000
00010000
00001000
00010000
01000000
10000000
00020000
,
00000000
00000000
00000000
00000000
,
00000000
00000000
00000000
00000000
,
10030000
00000000
00100000
00000000
01000000
00100000
00010000
00000000
00002000
00000000
00000000
00000000
00103000
00001000
00010000
00000100
,
00001000
00000000
00001000
00000000
00000002
00000000
00000103
00000000
00000020
00000000
00000130
00000000
00001000
00010000
00000010
00010000
,
00002000
00000000
00000000
00013000
00000000
00000000
02000000
00000000
00010000
00000000
00000000
13000000
00000000
00010000
01000000
00100000
,
00020000
00000000
00000000
00031000
00000000
00010000
00001000
00000200
00001000
00000000
00000000
00000301
00000000
00001000
00000100
00000010
,
00002000
00000000
00000000
00000000
00013000
00000000
00001000
00010000
01000000
00000000
00100000
00000000
00010000
10000000
00100000
00000000
,
01000000
00000000
00010000
00000000
00020000
00000000
00000000
00000000
00130000
00000000
01000000
00000000
10000000
00010000
01000000
00100000
,
00020000
00000000
00000000
00031000
00000000
00000000
00000200
00000000
00001000
00000000
00000000
00000301
00000000
00001000
00000100
00000010
,
00002000
00000000
00000000
00013000
00000000
00001000
00010000
02000000
00010000
00000000
00000000
13000000
00000000
00010000
01000000
00100000
,
00020000
00000000
00000000
00000000
00031000
00000000
00010000
00001000
00000200
00000000
00000000
00000000
00000301
00000000
00001000
00000100
,
00000010
00000001
00001000
00000010
00000100
00000010
00010000
00001000
00100000
00010000
00000000
10010000
00000000
00010000
01000000
00100000
,
20000000
00000000
31000000
00000000
00020000
00000000
00031000
00000000
00011000
00000000
00000000
00010000
00000000
01000000
00010000
00000000
,
00011000
00000000
00000000
00000000
00010100
00000000
00000100
00000000
00000110
00000000
00000000
00000001
00000000
00001000
00000100
00000010
,
00000002
00000000
00000103
00000000
00002000
00000000
00013000
00000000
00011000
00000000
00000000
00001000
00000000
00000100
00001000
00000000
,
00011000
00000000
00000000
00000000
01001000
00000000
01000000
00000000
01100000
00000000
00000000
10000000
00000000
00010000
00100000
01000000
,
20000000
30100000
00020000
00031000
00000020
00000031
00000200
00001300
,
00020000
00000000
00031000
00000000
00002000
00000000
00013000
00000000
00010000
00001000
00100000
00010000
10000000
00000000
00100000
01000000
,
00001000
01000000
00010000
00100000
00000000
00000000
00011000
00000000
00010000
00000100
00001000
00000010
00000000
00000000
00011000
00000000
,
00001000
00100000
00010000
01000000
00000000
00000000
00011000
00000000
00010000
00000010
00001000
00000100
00000000
00000000
00011000
00000000
,
00010000
00000100
00001000
00000100
00000010
00000001
00001000
00000010
00000100
00000001
00001000
00000100
00010000
00001000
01000000
00010000
,
10000000
00000000
10000000
00000000
10010000
00000000
00010000
00100000
00000000
01000000
00010000
00001000
00000100
00000001
00001000
00000100
,
00000020
00000000
00000001
00000000
00000100
00000100
00000000
00000001
,
00000000
00000000
00000100
00000000
00000001
00000000
00000000
00000000
00000130
00000000
00001001
00000000
00000000
00010100
00000000
00000000
,
00022000
00000000
00033000
00000000
00001000
01000000
00000000
00010000
02000000
00000000
03200000
00000000
20300000
00000000
00000000
00000000
,
30010000
00000000
00100000
00000000
01000000
00010000
00001000
00000000
00011000
00000000
00000000
00010100
00000000
00000000
00000110
00000000
,
00000002
00000000
00000000
00000000
00001003
00000000
00000001
00000000
00000001
00000100
00000000
00001000
00010000
00000000
00001000
00100000
,
00010000
00000000
10000000
00000000
00200000
00000000
01300000
00010000
10000000
01000000
00010000
00001000
00100000
00001000
00010000
00000010
,
00000100
00000000
00000001
00000000
00002000
00000000
00000000
00000000
00003100
00000000
00000010
00000001
00001000
00000000
00000001
00000100
,
00000010
00000000
00000000
00010000
00000000
00000000
00001000
00000000
00010000
00000000
00000000
00000000
00100000
00000000
10000000
00000000
00010000
00000000
00000000
00000000
00100000
00000000
01000000
00000000
10000000
00000000
00000000
00000000
00010000
00000000
01000000
00000000
,
00100000
01000000
00001000
00010000
00000010
00001000
00000100
00000010
00000001
00001000
00000010
00000100
00001000
00010000
01000000
10000000
,
00010000
00000000
00010000
00000000
10010000
00000000
10000000
00100000
00000000
00010000
00001000
00000100
00000001
00000010
00001000
00010000
,
00002000
00003000
00000000
00000000
00000000
00000000
00000000
00000000
;

//---------------dance-single - Special----------------
#NOTES:
     dance-single:
     :
     Edit:
     16:
     0.770006,0.906469,0.210220,0.395214,0.702135,641.000000,616.000000,25.000000,47.000000,0.000000,0.000000,0.770006,0.906469,0.210220,0.395214,0.702135,641.000000,616.000000,25.000000,47.000000,0.000000,0.000000:
0000
0000
0000
0000
,
0000
0000
0000
0000
,
0000
0000
0000
0000
,
0000
0000
0000
0000
,
0000
0000
0000
0000
,
0000
0000
0000
0000
,
0001
0100
0010
1000
0001
0010
0001
1000
,
0010
0100
0001
1000
0100
0010
0100
1000
,
0001
0000
1000
0010
1000
0000
0001
0010
0001
0000
1000
0100
2000
0000
0000
0000
,
0000
0000
0000
0000
,
0000
0000
0000
3000
,
1010
1000
0001
0000
0011
0010
0100
0000
,
1100
0100
0001
0100
1000
0100
0001
0100
,
0110
0000
0001
1000
0100
0000
0010
0001
1000
0000
0010
0000
0100
0001
1000
0000
,
0001
0000
0010
0100
1000
0000
0001
0000
0200
0000
0001
0000
0320
0000
1000
0000
,
0130
0000
0010
1000
0001
0000
0010
0100
1000
0000
0001
0000
0100
0010
1000
0000
,
0100
0000
0010
0001
1000
0000
0010
0000
0100
0001
1000
0001
0100
0000
0100
0000
,
0010
0000
1000
0001
0010
0000
0100
0010
0001
0000
0100
0000
0010
0100
0001
0000
,
1000
0000
0100
0010
0001
0000
1000
0000
0200
0000
0010
0000
2300
0000
0001
0000
,
3010
0000
1000
0001
0100
0000
0010
1000
0001
0000
0010
0000
0100
1000
0010
0000
,
0100
0000
0001
1000
0100
0000
0010
0000
0001
1000
0010
0100
0002
0000
0000
0000
,
0013
0000
0000
0000
0100
1000
0100
0000
1000
0000
0001
0100
0001
0100
0010
1000
,
0001
0010
0001
0000
1000
0010
0000
0100
0001
0000
1000
0100
1000
0000
0001
0000
,
0100
0010
0100
0000
0010
1000
0000
0001
0010
0001
0010
0100
1000
0000
0001
0000
,
1000
0010
1000
0000
0010
0100
0000
0001
1000
0100
1000
0000
0001
0100
0001
0000
,
1000
0100
1000
0000
0100
0010
0000
0001
1000
0000
0010
1000
0010
1000
0001
0000
,
0010
0001
0010
0000
0001
1000
0001
0000
1000
0010
1000
0000
0010
0100
0010
0000
,
1000
0001
1000
0000
0001
0010
0000
0001
1000
0000
0010
0100
0000
0100
0001
0000
,
1000
0000
0001
0010
1000
0010
0002
0000
0000
0003
0000
0000
,
2000
0000
0000
0000
3001
0000
0010
0000
0100
0000
0000
0001
0100
0000
0010
0000
,
0002
0000
0000
0000
1003
0000
0010
0000
0100
0000
0000
1000
0100
0000
0010
0000
,
2000
0000
0000
0000
3001
0000
0010
0000
0100
0000
0000
0001
0100
0000
0010
0000
,
0001
0000
1000
0000
0020
0000
0000
0000
0130
0001
1000
0100
1000
0000
0000
0000
,
0002
0000
1003
0010
0001
0010
0110
0000
,
2000
0000
3001
0010
1000
0010
0110
0000
,
0002
0000
1003
0010
0001
0010
0110
0000
,
1000
0010
0100
0101
0000
1100
0000
1001
,
0002
0000
0000
2003
0000
0000
0000
0000
3100
0010
0000
0001
0010
0000
0100
0000
,
1000
0001
0000
1000
0010
0000
0100
0000
0001
0100
0000
0010
0100
0000
0001
0000
,
0002
0000
0000
0023
0000
0000
0000
0000
0130
1000
0000
0001
0100
0000
0001
0000
,
1000
0100
0000
0010
0001
0000
1000
0000
0010
1000
0000
0001
0010
0000
0100
0000
,
0200
0000
0000
0320
0000
0000
0000
0000
0031
1000
0000
0100
1000
0000
0100
0010
,
0001
0010
0000
0001
1000
0000
0001
0010
0100
0010
0000
0100
1000
0000
0001
0000
,
0021
0000
0000
0100
0000
0000
1000
0000
0000
0100
0000
0000
0031
0000
0000
0021
,
0000
0000
1030
0000
0000
0110
0000
0000
1001
0000
1000
0100
0010
0001
1000
0020
,
0000
0000
0000
0000
,
0000
0000
0000
0000
,
1030
0100
0010
0100
1000
0100
0010
0100
2000
0000
0000
0000
3001
0100
0010
0100
,
0001
0100
0010
0100
0002
0000
0000
0000
1003
0010
0100
0001
1000
0100
0010
0001
,
0100
0000
0001
0000
1000
0000
0100
0000
0010
0000
0100
0000
1000
0001
1000
0000
,
0010
0000
0100
0000
0001
0000
1000
0000
0100
0000
0010
0000
0100
1000
0100
0000
,
0010
0000
0001
0000
0100
0000
1000
0000
0100
0000
0001
0000
1000
0100
1000
0000
,
0001
0000
1000
0000
0100
0000
0001
0000
0100
0000
1000
0000
0010
0100
0010
0000
,
1000
0000
0001
0000
0010
0000
0001
0000
1000
0000
0010
0000
0100
0001
1000
0000
,
0010
0000
0100
0000
0001
0000
1000
0000
0100
0000
1000
0000
0001
0100
0010
0000
,
1000
0100
0001
1000
0010
0001
0100
0010
,
2000
0001
3001
1001
,
1002
0000
0100
0000
1003
0000
0001
0000
0010
0000
0100
1000
0002
0000
0000
0000
,
1003
0000
0001
0100
1000
0000
0100
0000
0001
0000
1000
0100
0001
0000
0100
0000
,
2000
0000
0010
0000
3001
0000
0100
0000
0010
0000
1000
0001
0010
0000
0100
0000
,
2100
0000
3001
0000
0102
0000
1003
0000
2010
0000
3001
0000
1000
0100
0010
0000
,
1002
0000
0010
0000
1003
0000
0010
0000
0100
0000
0001
1000
0020
0000
0000
0000
,
1030
0000
0001
0010
1000
0000
0010
0000
0001
0000
1000
0010
0001
0000
0010
0000
,
1000
0100
0020
0001
0000
0130
1000
0000
0001
0100
0020
1000
0000
0130
0001
0000
,
1000
0010
0200
0001
0000
0310
1000
0000
0001
0010
0200
1000
0000
0310
0001
1000
,
0010
0100
0001
0010
0100
0000
1000
0001
0100
0010
1000
0100
0010
0000
0001
1000
,
0010
0000
0100
0000
0100
0000
0100
0000
0010
1000
0001
0010
0100
0010
1000
0000
,
0010
0000
0001
0010
1000
0000
0010
0000
,
0110
0000
1000
0010
0001
0000
0010
0000
,
0110
0000
0000
0000
0100
0000
0001
1000
0000
0100
0010
0100
0010
0000
0001
0000
,
1000
0010
0200
0000
0310
0000
1000
0000
1001
0000
0001
0000
0110
0000
1000
0000
,
1001
0000
0001
0000
0010
0002
0100
0000
0000
0000
1003
0000
0010
2000
0100
0000
,
0000
0000
3001
0000
1000
0010
0100
2000
0000
0000
3100
0000
0002
0000
0000
1003
,
0001
1000
0100
0010
0002
0000
0000
0103
0010
1000
0001
0000
1000
0000
0001
0000
,
0100
0001
1000
0010
0200
0000
0000
0301
1000
0000
0001
0000
0010
0000
0100
0000
,
0010
0001
1000
0001
0200
0000
0000
0310
1000
0000
0000
1000
0000
0000
1000
0000
,
0100
0010
0001
1000
0001
0100
1000
0100
0001
1000
0001
0010
2000
0000
0000
0000
,
3010
0000
0000
0000
;

//---------------dance-single - ----------------
#NOTES:
     dance-single:
     :
     Hard:
     15:
     0.766402,0.938843,0.369987,0.420440,0.937581,638.000000,594.000000,44.000000,50.000000,0.000000,0.000000,0.766402,0.938843,0.369987,0.420440,0.937581,638.000000,594.000000,44.000000,50.000000,0.000000,0.000000:
0000
0000
0000
0000
,
0000
0000
0000
0000
,
0000
0000
0000
0000
,
0000
0000
0000
0000
,
0000
0000
0000
0000
,
0000
0000
0000
0000
,
1000
0000
0000
1000
0000
0000
0010
0000
0100
0000
0000
0100
0000
0001
1000
0001
,
0010
0000
0000
0010
0000
0000
0100
0000
1000
0000
0000
1000
0000
0001
1000
0001
,
0100
0000
0000
0100
0000
0000
0010
0000
0000
0010
0000
0000
2002
0000
0000
0000
,
0000
0000
0000
0000
,
0000
0000
0000
3003
,
0001
0000
0100
0000
0010
0000
1000
0000
0001
0010
0001
0010
0100
1000
0100
1000
,
0001
0000
0001
0000
0001
0000
0100
0010
0000
0000
1000
0001
1000
0000
0001
0000
,
2002
0000
3003
0000
1000
0010
0000
0100
0000
0010
0000
1000
0001
1000
0100
0000
,
0020
0000
0000
0000
0031
1000
0001
0100
0010
0000
0000
0010
0000
0000
0100
0000
,
1001
0000
0000
0000
1000
0100
0000
0010
0001
0010
0001
1000
0010
0000
0010
0000
,
0200
0000
0000
0000
0001
0000
0310
0000
1000
0001
0000
0010
0100
0000
1000
0100
,
0010
0000
0000
0010
0000
0000
0001
1000
0001
0100
0001
0000
1000
0100
1000
0000
,
0001
0100
0010
0100
0001
0000
0000
1000
0001
0000
0010
0000
1000
0000
0010
0000
,
0001
1000
0010
0000
1000
0000
0010
0000
0100
0001
1000
0100
0010
0100
0010
0000
,
0001
0000
1000
0010
0000
0100
0010
0000
0100
0001
0000
1000
0001
0000
0010
0000
,
0110
0000
0000
0000
1000
0000
0100
0000
0010
0001
0000
1000
0001
0000
0100
0000
,
0010
1000
0001
1000
0100
1000
0100
0000
0010
0000
0000
0010
0000
0000
0001
1000
,
0002
0000
0000
0000
0103
0000
0010
0000
1000
0010
1000
0010
0100
0001
0000
1000
,
0001
0000
0000
0001
0000
0000
0010
0100
1000
0100
1000
0000
0001
0100
0010
0100
,
0020
0000
0000
0000
1030
0000
0001
0000
0010
0000
0000
0010
0000
0100
0010
0100
,
0020
0000
0000
0000
0031
0000
1000
0000
0010
0100
0001
0100
0010
0000
0100
0000
,
2000
0000
0000
0000
3100
0000
0010
0000
1000
0000
0001
1000
0100
0010
0001
0000
,
1000
0000
0000
0000
0010
0000
0000
0000
0100
0000
0000
0000
0001
0000
0000
0000
0010
0000
0000
0000
0100
0000
0000
0000
1000
0000
0000
0000
0000
0000
0000
0000
0000
1000
0000
0000
0000
0000
0000
0001
0000
0000
1000
0000
0000
0001
0000
0000
,
0100
0000
0000
0110
0000
0000
0010
0000
1000
0000
0000
1010
0000
1000
0001
0010
,
0001
0000
0000
0011
0000
0000
0010
0000
0100
0000
0000
0110
0000
0010
0001
1000
,
0001
0000
0000
0002
0000
0000
0103
0000
0010
0000
0000
0020
0000
0000
1030
0000
,
0001
0010
0001
0010
0001
1000
0001
1000
0010
0100
0000
0010
0000
0100
0010
1000
,
0010
0000
0000
0110
0000
0000
0100
0000
0001
0000
0000
1001
0000
0001
1000
0001
,
0010
0000
0000
0110
0000
0000
0100
0000
1000
0000
0000
1001
0000
0001
1000
0001
,
0200
0000
0000
0000
0310
0000
2000
0000
0000
0000
3001
0000
0010
0100
0010
0000
,
1000
0000
0010
0000
0001
0000
1000
0000
0020
0000
0000
0000
0130
0001
1000
0001
,
0010
0000
0000
0220
0000
0000
0330
0000
0100
1000
0000
0100
0010
0000
0001
0010
,
0000
0001
1000
0001
1000
0000
0010
0000
0100
0001
1000
0000
0001
0000
0010
0000
,
0100
0000
0000
0220
0000
0000
0330
0000
0010
0000
0001
1000
0000
0010
0000
0010
,
0000
0000
0100
0001
0000
0100
0000
0010
2000
0000
0000
0000
3001
0010
0001
0000
,
1000
0010
0100
0020
0000
0000
1030
0001
0010
0001
0000
0010
0100
1000
0100
0010
,
0000
0001
1000
0010
1000
0010
0000
0100
0001
1000
0001
0010
0100
0010
0001
0000
,
1001
0000
0000
1010
0000
0000
0220
0000
0000
0330
0000
0000
1001
0000
0000
0011
,
0000
0000
0220
0000
0000
0330
0000
0000
1001
0000
1000
0100
0010
0001
1000
0020
,
0000
0000
0000
0000
,
0000
0000
0000
0000
,
0130
0000
0001
0000
1000
0001
1000
0000
0200
0000
0000
0000
0310
0000
0001
0000
,
1000
0000
1000
0000
1001
0000
0000
0000
0110
0000
0000
0000
1001
0000
0001
1000
,
0200
0000
0000
0301
0000
0000
0100
0000
1100
0000
0000
1001
0000
0001
1000
0001
,
0200
0000
0000
1300
0000
0100
0001
0100
0001
0000
0000
1001
0000
1000
0100
0010
,
0200
0000
0000
0000
1300
0000
0001
0100
0020
0000
0000
0000
1030
0001
0020
0000
,
0000
0000
0130
0000
0200
0000
0000
0000
0000
0000
1300
0000
0001
1000
0001
0100
,
0020
0000
0000
0031
0000
0000
0010
0000
1010
0000
0000
1001
0000
0001
1000
0001
,
0020
0000
0000
1030
0000
0010
0001
0010
0001
0000
0000
1001
0000
1000
0010
0100
,
0020
0000
0000
0000
1030
0000
0001
1000
0200
0000
0000
0000
0310
0000
0001
0000
,
1000
0010
1000
0010
0100
0001
0100
0001
1000
0100
0000
0010
0000
0001
1000
0001
,
1000
0000
0010
0000
0001
0000
0010
0000
0110
0000
0000
1000
0000
0001
1000
0000
,
1001
0000
0000
0000
0010
0000
0100
0000
2002
0000
3003
0000
0000
0000
0001
1000
,
0001
0000
0100
0000
1000
0000
0100
0000
0110
0000
0000
0001
0000
1000
0001
0000
,
1001
0000
0000
0000
0100
0000
0010
0000
2002
0000
3003
0000
0000
0000
1000
0001
,
1000
0100
0001
0100
1000
0010
0001
0010
,
1000
0000
1000
0000
0001
0000
0001
0000
0010
0100
0010
0100
0010
0000
0001
1000
,
0001
0100
0000
0010
0100
0000
0001
0000
1000
0100
0000
0010
0100
0000
1000
0000
,
0001
0100
0000
0010
1000
0000
0001
0000
1000
0100
0000
0010
0001
0000
1000
0000
,
0001
0100
0001
0100
0001
0100
0010
0000
1000
0100
1000
0100
1000
0100
0010
0000
,
0001
0000
0001
0000
1001
0000
1000
0000
0001
0100
0010
1000
0100
0010
0001
0100
,
0020
0000
0000
0000
,
0000
0000
0000
0000
0000
0000
0000
0000
0000
0000
0130
0000
0000
0100
0000
0000
,
2002
0000
3003
0000
0001
0100
0000
0010
1000
0000
0001
0000
0020
0000
0000
0000
,
0130
0000
0010
0000
1000
0000
0010
0000
0011
0000
0000
1001
0000
0000
1010
0000
,
0020
0000
0000
0000
0130
0000
0001
0000
1000
0100
0000
0010
0100
0000
1000
0001
,
1000
0000
0010
0000
0200
0000
0000
0000
0301
1000
0001
0010
0100
1000
0010
0000
,
0110
0001
2000
0000
3001
0010
0100
1000
,
0001
0000
0000
1000
0000
0000
0001
0000
1000
0000
0000
0000
0010
0000
0000
0000
0200
0000
0000
0000
0000
0000
0000
0000
0302
0000
0000
0000
0000
0000
0000
0000
,
1003
0100
0010
0000
0100
0010
0001
0000
1000
0010
0100
0010
1000
0001
1000
0100
,
0010
0000
0010
0000
1001
0000
0001
0100
0010
1000
0100
0010
0001
0100
0010
0000
,
1001
0000
0000
0000
;

//---------------dance-double - ----------------
#NOTES:
     dance-double:
     :
     Hard:
     15:
     0.739975,0.809347,0.294308,0.437258,0.899742,616.000000,581.000000,35.000000,52.000000,0.000000,0.000000,0.739975,0.809347,0.294308,0.437258,0.899742,616.000000,581.000000,35.000000,52.000000,0.000000,0.000000:
00000000
00000000
00000000
00000000
,
00000000
00000000
00000000
00000000
,
00000000
00000000
00000000
00000000
,
00000000
00000000
00000000
00000000
,
00000000
00000000
00000000
00000000
,
00000000
00000000
00000000
00000000
,
10000000
00000000
00000000
10000000
00000000
00000000
01000000
00000000
00100000
00000000
00000000
00100000
00000000
00001000
00010000
00001000
,
00010000
00000000
00000000
00010000
00000000
00000000
00000100
00000000
00000010
00000000
00000000
00000010
00000000
00000001
00001000
00000001
,
00001000
00000000
00000000
00000010
00000000
00000000
00000100
00000000
00000000
00001000
00000000
00000000
00022000
00000000
00000000
00000000
,
00000000
00000000
00000000
00000000
,
00000000
00000000
00000000
00033000
,
00001000
00000000
01000000
00000000
00100000
00000000
10000000
00000000
00010000
00100000
00010000
00100000
00001000
00010000
00001000
00010000
,
00001000
00000000
00001000
00000000
00010000
00000000
00000100
00000010
00000000
00000000
00000001
00001000
00000001
00000000
00001000
00000000
,
00002002
00000000
00003003
00000000
00000001
00000100
00000000
00000010
00000000
00000100
00000000
00000010
00010000
00000010
00010000
00000000
,
00002000
00000000
00000000
00000000
00103000
00010000
00100000
00010000
10000000
00000000
00000000
10000000
00000000
00000000
00100000
00000000
,
01100000
00000000
00000000
00000000
10000000
00100000
00000000
01000000
00010000
01000000
00100000
01000000
00100000
00000000
00100000
00000000
,
20000000
00000000
00000000
00000000
30010000
00000000
00100000
00000000
00001000
00010000
00000000
00001000
00010000
00000000
00000100
00000010
,
00000001
00000000
00000000
00000001
00000000
00000000
00001000
00000010
00000100
00000010
00000100
00000000
00000001
00001000
00000001
00000000
,
00000010
00000100
00000010
00000100
00001000
00000000
00000000
00000100
00010000
00000000
00001000
00000000
00000100
00000000
00001000
00000000
,
00010000
00001000
00010000
00000000
00001000
00000000
01000000
00000000
00100000
10000000
00010000
00000000
00100000
01000000
10000000
00000000
,
00010000
00000000
01000000
00001000
00000000
00010000
00000100
00000000
00001000
00000100
00000000
00000010
00000001
00000000
00001000
00000000
,
00001001
00000000
00000000
00000000
00000001
00000100
00000000
00000010
00001000
00000000
00000010
00000000
00000100
00000000
00000100
00000000
,
00001000
00010000
00001000
00000000
00100000
00010000
00100000
01000000
00100000
00000000
00000000
00100000
00000000
00000000
00010000
10000000
,
00200000
00000000
00000000
00000000
01300000
00000000
00010000
00000000
10000000
01000000
10000000
01000000
00100000
00010000
00000000
00100000
,
00001000
00000000
00000000
00001000
00000000
00000000
00010000
00000100
00001000
00000001
00001000
00000001
00000100
00000010
00000100
00000000
,
00000002
00000000
00000000
00000000
00000103
00000000
00001000
00000000
00010000
00000000
00000000
00010000
00000000
00001000
00010000
00001000
,
00020000
00000000
00000000
00000000
00031000
00000000
01000000
00000000
00010000
00000000
10000000
00010000
00100000
00000000
01000000
00000000
,
00020000
00000000
00000000
00000000
01030000
00000000
10000000
00000000
00010000
01000000
00010000
00000000
01000000
00001000
00010000
00000000
,
00001000
00000000
00000000
00000000
00100000
00000000
00000000
00000000
00001000
00000000
00000000
00000000
00010000
00000000
00000000
00000000
00000010
00000000
00000000
00000000
00010000
00000000
00000000
00000000
00001000
00000000
00000000
00000000
00000000
00000000
00000000
00000000
00000000
00001000
00000000
00000000
00000000
00000000
00000000
00010000
00000000
00000000
00001000
00000000
00000000
00010000
00000000
00000000
,
00001000
00000000
00000000
00011000
00000000
00000000
00001000
00000000
00000100
00000000
00000000
00000110
00000000
00000010
00010000
00001000
,
00010000
00000000
00000000
00011000
00000000
00000000
00010000
00000000
01000000
00000000
00000000
01100000
00000000
00100000
00010000
10000000
,
00010000
00000000
00000000
01000000
00000000
00000000
00200000
00000000
10000000
00000000
00000000
10300000
00000000
00000000
00010000
10000000
,
00010000
00100000
00010000
00100000
00001000
00010000
00001000
00000000
00010000
00000010
00000000
00000100
00000000
00000010
00001000
00000010
,
00010000
00000000
00000000
00011000
00000000
00000000
00001000
00000000
00000010
00000000
00000000
00000110
00000000
00000010
00000100
00010000
,
00001000
00000000
00000000
00011000
00000000
00000000
00010000
00000000
00100000
00000000
00000000
01100000
00000000
00100000
10000000
00010000
,
20000000
00000000
00000000
00000000
31000000
00000000
00200000
00000000
00000000
00000000
00000000
00000000
00310000
10000000
00010000
00000000
,
10000000
00000000
00100000
00000000
00010000
00000000
00001000
00000000
00020000
00000000
00000000
00000000
00031000
00000000
00100000
00001000
,
00010000
00000000
00000000
00022000
00000000
00000000
00033000
00000000
00010000
00000100
00000000
00001000
00000100
00000000
00000010
00000001
,
00000000
00001000
00000001
00001000
00000001
00000000
00000100
00000000
00000010
00000000
00010000
00001000
00010000
00000000
00000010
00000000
,
00010000
00000000
00000000
00022000
00000000
00000000
00033000
00000000
00001000
00000000
01000000
00100000
00000000
10000000
00000000
00100000
,
00000000
00000000
01000000
00010000
00000000
10000000
00000000
01000000
00200000
00000000
00000000
00000000
00301000
00000000
00010000
00000100
,
00001000
00000100
00000010
00000200
00000000
00000000
00001300
00000000
00000001
00000100
00000000
00000010
00001000
00000010
00000000
00010000
,
00000000
00001000
00100000
00010000
00100000
00010000
00000000
10000000
00100000
01000000
00000000
00010000
10000000
01000000
10000000
01000000
,
00100000
00000000
00000000
00101000
00000000
00000000
00022000
00000000
00000000
00033000
00000000
00000000
00000010
00000000
00000000
00010010
,
00000000
00000000
00022000
00000000
00000000
00033000
00000000
00000000
00001000
00000000
01000000
00010000
01000000
00100000
10000000
00020000
,
00000000
00000000
00000000
00000000
,
00000000
00000000
00000000
00000000
,
10030000
00000000
01000000
00000000
00100000
01000000
00100000
00000000
00002000
00000000
00000000
00000000
00013000
00000000
00100000
00000000
,
00010000
00000000
00010000
00000000
00002000
00000000
00000000
00000000
00003200
00000000
00000000
00000000
00000301
00000000
00001000
00000001
,
00000020
00000000
00000000
00002030
00000000
00000000
00013000
00000000
00010010
00000000
00000000
00011000
00000000
00001000
01000000
00000000
,
00200000
00000000
00000000
00320000
00000000
00031000
01000000
00001000
00010000
00000000
00000000
00011000
00000000
00010000
00000100
00000000
,
00000020
00000000
00000000
00000000
00000031
00000000
00001000
00000010
00001000
00000000
00000010
00000000
00000100
00001000
00000100
00000000
,
00001000
00000000
00010000
00000000
00020000
00000000
00000000
00000000
00031000
00000000
00100000
00000000
00010000
00000000
10000000
00010000
,
02000000
00000000
00000000
03200000
00000000
00000000
00310000
00000000
00011000
00000000
00000000
00101000
00000000
00001000
00010000
00000000
,
00000200
00000000
00000000
00000320
00000000
00001030
00010000
00000010
00010000
00000000
00000000
00011000
00000000
00001000
01000000
00000000
,
00200000
00000000
00000000
00000000
10300000
00000000
00010000
10000000
02000000
00000000
00000000
00000000
03100000
00000000
00010000
00000000
,
10000000
00100000
10000000
00100000
01000000
00010000
01000000
00001000
00010000
00001000
00000000
00100000
00000000
00001000
00010000
00001000
,
00010000
00000000
00001000
00000000
00000010
00000000
00000001
00000000
00000200
00000000
00000000
00001300
00000000
00010000
00001000
00000000
,
00011000
00000000
00000000
00000000
00100000
00000000
00001000
00000000
00011000
00000000
00000000
00001000
00000000
00010000
00001000
00010000
,
00001000
00000000
00010000
00000000
00100000
00000000
10000000
00000000
02000000
00000000
00000000
03010000
00000000
00001000
00010000
00000000
,
00011000
00000000
00000000
00000000
00000010
00000000
00010000
00000000
00011000
00000000
00000000
00010000
00000000
00001000
00010000
00001000
,
00010000
00001000
00000010
00001000
00010000
00001000
00000100
00001000
,
00010000
00000000
00010000
00000000
00001000
00000000
00001000
00000000
00010000
00001000
00010000
00001000
00010000
00000000
00001000
00000000
,
01000000
00010000
00000000
10000000
00100000
00000000
10000000
00000000
01000000
00100000
00000000
00001000
00100000
00000000
00001000
00000000
,
00010000
00000010
00000000
00000100
00000010
00000000
00001000
00000000
00000001
00000010
00000000
00000100
00001000
00000000
00000100
00000000
,
00010000
00001000
00000000
00010000
00100000
00000000
10000000
00000000
01000000
00010000
00000000
00001000
01000000
00000000
00100000
00000000
,
00010000
00000010
00000000
00001000
00000100
00000000
00000001
00000000
00001000
00000010
00000000
00001000
00010000
00001000
00010000
00000000
,
00022000
00000000
00000000
00000000
,
00000000
00000000
00000000
00000000
00000000
00000000
00000000
00000000
00033000
00000000
00001000
00000000
00000000
00001000
00000000
00000000
,
00022000
00000000
00033000
00000000
00001000
01000000
00000000
00100000
10000000
00000000
00010000
00000000
00200000
00000000
00000000
00000000
,
01300000
00000000
10000000
00000000
01000000
00000000
00010000
00000000
00011000
00000000
00000000
00101000
00000000
00000000
00011000
00000000
,
00020000
00000000
00000000
00000000
00030100
00000000
00000010
00000000
00000001
00001000
00000000
00000010
00000100
00000000
00000001
00001000
,
00000001
00000000
00001000
00000000
00000200
00000000
00000000
00000000
00010300
00001000
00010000
00001000
00100000
00001000
00010000
00001000
,
00100000
00010000
20000000
00000000
30100000
01000000
00010000
10000000
,
00010000
00000000
00000000
00100000
00000000
00000000
00010000
00000000
00100000
00000000
00000000
00000000
00001000
00000000
00000000
00000000
00020000
00000000
00000000
00000000
00000000
00000000
00000000
00000000
00032000
00000000
00000000
00000000
00000000
00000000
00000000
00000000
,
00013000
00000100
00001000
00000000
00000100
00000010
00000001
00000000
00000100
00000010
00001000
00000000
00000010
00010000
00001000
00000000
,
00010000
00000000
00010000
00000000
00011000
00000000
00001000
00010000
00100000
00000000
00010000
00001000
00000010
00000000
00001000
00000000
,
00011000
00000000
00000000
00000000
;

//---------------dance-single - ----------------
#NOTES:
     dance-single:
     :
     Medium:
     12:
     0.462484,0.517982,0.210220,0.184994,0.159767,385.000000,360.000000,25.000000,22.000000,0.000000,0.000000,0.462484,0.517982,0.210220,0.184994,0.159767,385.000000,360.000000,25.000000,22.000000,0.000000,0.000000:
0000
0000
0000
0000
,
0000
0000
0000
0000
,
0000
0000
0000
0000
,
0000
0000
0000
0000
,
0000
0000
0000
0000
,
0000
0000
0000
0000
,
1000
1000
0001
0001
,
0100
0100
0010
0010
,
1000
0000
0000
0001
0000
0000
1000
0000
0000
0002
0000
0000
2000
0000
0000
0000
,
0000
0000
0000
0000
,
0000
0000
0000
3003
,
1000
0000
0100
0000
0010
0001
1000
0001
,
0100
0100
0010
1000
,
1001
0000
0001
0000
0010
0100
0010
0000
,
0001
0000
0000
0000
0100
0000
0000
0000
0010
0000
0000
0010
0000
0000
0000
0000
,
1001
0000
1000
0100
0010
0100
0010
0000
,
0001
0000
0001
1000
0001
0000
0110
0000
,
1001
0000
1000
0000
0010
0100
0001
0100
,
0010
1000
0010
0000
0100
0010
0100
0010
,
1000
0000
0001
0000
0010
0100
1000
0001
,
0100
0000
0000
0010
0000
0000
0100
0000
0000
0010
0000
0000
0100
0000
0000
0000
,
1001
0000
0001
0010
0001
0000
1000
0010
,
1000
0000
0010
0000
0100
0000
0000
0000
0010
0000
0000
0010
0000
0000
0000
0000
,
1001
0000
1000
0100
0010
0001
0010
0000
,
0001
0000
0000
0001
0000
0000
0100
0000
0010
0000
1000
0000
0001
0000
0010
0000
,
0200
0000
0310
0000
0001
1000
0001
0000
,
0200
0000
0310
0000
0100
0010
0100
0000
,
2000
0000
3100
0000
0010
0100
0010
0000
,
0200
0000
0310
1001
,
1000
0000
0000
1000
0000
0000
0000
0000
0100
0000
0000
0100
0000
0000
0010
0000
,
0001
0000
0000
0001
0000
0000
0000
0000
0100
0000
0000
0100
0000
0000
0010
0000
,
1000
0000
0000
0001
0000
0000
2000
0000
0000
0000
0000
0000
0000
0000
0000
0000
,
3001
0010
0100
1000
0010
0100
0001
0000
,
0100
0000
0000
0100
0000
0000
0000
0000
0010
0000
0000
0010
0000
0000
1000
0000
,
0001
0000
0000
0001
0000
0000
0000
0000
0010
0000
0000
0010
0000
0000
0100
0000
,
1000
0000
0001
1000
0001
0000
0100
0010
,
0100
0010
0220
0330
,
1000
0000
0000
1001
0000
0000
0000
0000
0001
0000
0010
0000
0100
0000
0010
0000
,
0001
1000
0010
0100
0001
1000
0100
0000
,
0010
0000
0000
0110
0000
0000
0000
0000
0100
0000
1000
0000
0001
0000
0100
0000
,
0010
1000
0100
0010
0100
1000
0001
0000
,
1000
0000
0000
1001
0000
0000
0001
0000
0100
0000
0010
0000
0001
0000
0010
0000
,
0000
1000
0100
0010
1000
0010
0000
0001
,
1000
0000
0000
1000
0000
0000
1001
0000
0000
0000
0000
0000
0010
0000
0000
0010
,
0000
0000
0110
0000
0000
0000
0000
0000
1000
0000
0001
0000
0010
0000
0000
0020
,
0000
0000
0000
0000
,
0000
0000
0000
0000
,
0130
1000
0001
0100
2000
0000
3100
0000
,
0010
0100
0010
0000
1001
0000
0110
0000
,
0001
0000
0000
0001
0000
0000
0010
0000
0100
0000
0000
0110
0000
0000
0000
0000
,
1000
0000
0000
1000
0000
0000
0010
0000
0100
0000
0000
0110
0000
0000
0001
0000
,
2000
0100
3002
0010
,
1003
0001
2000
0000
0000
0000
3001
0000
,
1000
0000
0000
1000
0000
0000
0001
0000
0100
0000
0000
0110
0000
0000
0000
0000
,
0001
0000
0000
0001
0000
0000
1000
0000
0100
0000
0000
0110
0000
0000
1000
0000
,
0002
0100
2003
0010
,
3001
1000
0100
0010
0001
1000
0001
0000
,
1000
0010
1000
0000
0110
0000
0001
1000
,
0001
0000
1000
0001
0020
0000
0030
0000
,
0001
0010
0001
0000
0110
0000
1000
0001
,
1000
0000
0001
1000
0020
0000
0030
0000
,
1000
0010
1000
0000
0001
0010
0001
0000
,
1000
0010
0100
0001
0010
0100
1000
0000
,
0001
0000
0000
0001
0000
0000
0001
0000
1000
0000
0000
1000
0000
0000
1000
0000
,
0010
0000
0000
0010
0000
0000
0010
0000
0100
0000
0000
0100
0000
0000
0100
0000
,
0001
1000
0100
0010
0001
0100
0010
1000
,
0001
0000
0010
0000
0100
0000
0000
0100
0000
0000
0001
0000
0100
0000
1000
0000
,
0020
0000
0000
0000
,
0000
0000
0000
0000
0000
0000
0000
0000
0000
0000
0130
0000
0000
0100
0000
0000
,
1001
0000
1000
0100
0010
0001
0100
0000
,
0010
0000
0000
0000
0100
0000
0010
0000
0100
0000
0000
0100
0000
0000
0000
0000
,
1001
0000
1000
0100
0010
0100
0010
0001
,
1000
0010
0002
0000
0013
0100
0001
0010
,
0100
1000
0100
0000
1000
0001
0100
0010
,
1000
0010
0001
0010
1000
0000
0001
0000
,
2002
0000
0000
3003
,
1000
0000
0100
0000
0001
0000
1000
0000
0010
0000
0001
0000
0100
0010
0000
0000
,
0110
0000
0000
0000
;

//---------------dance-double - ----------------
#NOTES:
     dance-double:
     :
     Medium:
     12:
     0.466088,0.550356,0.227038,0.184994,0.163972,388.000000,361.000000,27.000000,22.000000,0.000000,0.000000,0.466088,0.550356,0.227038,0.184994,0.163972,388.000000,361.000000,27.000000,22.000000,0.000000,0.000000:
00000000
00000000
00000000
00000000
,
00000000
00000000
00000000
00000000
,
00000000
00000000
00000000
00000000
,
00000000
00000000
00000000
00000000
,
00000000
00000000
00000000
00000000
,
00000000
00000000
00000000
00000000
,
10000000
10000000
00010000
00010000
,
00100000
00100000
00001000
00001000
,
00010000
00000000
00000000
00001000
00000000
00000000
00010000
00000000
00000000
00002000
00000000
00000000
00020000
00000000
00000000
00000000
,
00000000
00000000
00000000
00000000
,
00000000
00000000
00000000
00033000
,
00010000
00001000
00010000
00000000
00001000
00010000
00000100
00001000
,
00000100
00000100
00001000
00000001
,
00001001
00000000
00001000
00000000
00000010
00000100
00000010
00000000
,
00001000
00000000
00000000
00000000
00000010
00000000
00000000
00000000
00010000
00000000
00000000
00010000
00000000
00000000
00000000
00000000
,
00011000
00000000
00001000
00000000
01000000
00100000
01000000
00000000
,
00010000
00000000
00010000
10000000
00010000
00000000
01100000
00000000
,
10010000
00000000
10000000
00000000
01000000
00000000
00100000
00001000
,
00010000
00001000
00010000
00000000
00001000
00010000
00000010
00010000
,
00001000
00000000
00010000
00000000
00000100
00000010
00000001
00000000
,
00001000
00000000
00000000
00000001
00000000
00000000
00001000
00000000
00000000
00000001
00000000
00000000
00001000
00000000
00000000
00000000
,
00001001
00000000
00000001
00000100
00000001
00000000
00001000
00000100
,
00010000
00000000
00001000
00000000
00010000
00000000
00000000
00000000
00001000
00000000
00000000
00001000
00000000
00000000
00000000
00000000
,
00011000
00000000
00010000
00001000
01000000
00000000
00100000
01000000
,
00010000
00000000
00000000
00010000
00000000
00000000
10000000
00000000
02000000
00000000
00000000
00000000
00000000
00000000
00000000
00000000
,
03100000
00000000
00001000
00000000
00010000
00000000
00001000
00000000
00010000
00000000
00000000
00010000
00000000
00000000
00001000
00000000
,
00010000
00000100
00001000
00000100
00000010
00000100
00000010
00000000
,
00002000
00000000
00003010
00000000
00000001
00001000
00000001
00000000
,
00002000
00000000
00000000
00000000
00000000
00000000
00000000
00000000
00003010
00000000
00000000
00000010
00000000
00000000
00000000
00000000
,
00010000
00000000
00000000
00010000
00000000
00000000
01000000
00000000
00100000
00000000
00000000
00100000
00000000
00000000
00000000
00000000
,
00001000
00000000
00000000
00001000
00000000
00000000
00000100
00000000
00000010
00000000
00000000
00000010
00000000
00000000
00000000
00000000
,
00010000
00000000
00000000
00001000
00000000
00000000
00020000
00000000
00000000
00000000
00000000
00000000
00000000
00000000
00000000
00000000
,
00130000
01000000
00010000
10000000
01000000
00100000
00001000
00000000
,
00010000
00000000
00000000
00010000
00000000
00000000
00100000
00000000
01000000
00000000
00000000
01000000
00000000
00000000
00000000
00000000
,
00001000
00000000
00000000
00001000
00000000
00000000
00000010
00000000
00000100
00000000
00000000
00000100
00000000
00000000
00010000
00000000
,
00002000
01003000
00002000
00013000
,
00001000
00010000
00001000
00000000
00022000
00000000
00033000
00000000
,
00001000
00000000
00000000
00011000
00000000
00000000
00000000
00000000
00010000
00000000
00001000
00000000
01000000
00000000
00010000
00000000
,
10000000
01000000
00100000
00010000
00001000
00000100
00000010
00000000
,
00000001
00000000
00000000
00001001
00000000
00000000
00000000
00000000
00001000
00000000
00000010
00000000
00010000
00000000
00001000
00000000
,
00010000
00000010
00001000
00010000
01000000
00100000
01000000
00000000
,
00010000
00000000
00000000
10010000
00000000
00000000
10000000
00000000
01000000
00000000
00100000
00000000
10000000
00000000
00100000
00000000
,
00000000
00001000
00010000
00001000
00000100
00001000
00000000
00010000
,
00000010
00000000
00000000
00010000
00000000
00000000
00011000
00000000
00000000
00000000
00000000
00000000
00100000
00000000
00000000
00001000
,
00000000
00000000
00011000
00000000
00000000
00000000
00000000
00000000
00000010
00000000
00001000
00000000
00000001
00000000
00000000
00002000
,
00000000
00000000
00000000
00000000
,
00000000
00000000
00000000
00000000
,
00003001
00000010
00000100
00000010
00000200
00000000
00010300
00000000
,
00001000
00000000
00011000
00000000
00011000
00000000
00010000
00001000
,
01000000
00000000
00000000
01000000
00000000
00000000
00100000
00000000
00010000
00000000
00000000
00011000
00000000
00000000
00010000
00000000
,
00000100
00000000
00000000
00000100
00000000
00000000
00000010
00000000
00001000
00000000
00000000
00011000
00000000
00000000
00010000
00000000
,
00002000
00000000
00103000
00010000
00100000
00000000
01000000
10000000
,
00000000
01000000
00200000
00000000
00000000
00000000
01300000
00000000
,
00100000
00000000
00000000
00100000
00000000
00000000
01000000
00000000
00010000
00000000
00000000
00011000
00000000
00000000
00010000
00000000
,
00000010
00000000
00000000
00000010
00000000
00000000
00000100
00000000
00001000
00000000
00000000
00011000
00000000
00000000
00010000
00000000
,
00002000
00000000
00103000
00010000
00100000
00000000
01000000
10000000
,
00010000
10000000
00010000
01000000
00001000
00010000
00001000
00000000
,
00100000
00001000
00100000
00000000
00011000
00000000
00001000
00010000
,
00001000
00000000
00010000
00000010
00000200
00000000
00000300
00000000
,
00000010
00001000
00000010
00000000
00011000
00000000
00010000
00001000
,
00010000
00000000
00001000
00100000
02000000
00000000
03000000
00000000
,
00100000
00001000
00100000
00000000
00001000
00010000
00001000
00000000
,
00010000
00000010
00010000
00000000
00011000
00000000
00011000
00000000
,
00001000
00000000
00000000
00001000
00000000
00000000
00001000
00000000
01000000
00000000
00000000
01000000
00000000
00000000
01000000
00000000
,
00010000
00000000
00000000
00010000
00000000
00000000
00010000
00000000
10000000
00000000
00000000
10000000
00000000
00000000
10000000
00000000
,
00010000
00100000
01000000
00100000
00010000
10000000
00100000
01000000
,
00001000
00010000
00000010
00001000
00000100
00000010
00000001
00000000
,
00002002
00000000
00000000
00000000
,
00000000
00000000
00000000
00000000
00000000
00000000
00000000
00000000
00003003
00000000
00000001
00000000
00000000
00000001
00000000
00000000
,
00001001
00000000
00001000
00000010
00000100
00000010
00001000
00000000
,
00000010
00000000
00000000
00000000
00010000
00000000
00001000
00000000
00010000
00000000
00000000
00010000
00000000
00000000
00000000
00000000
,
00011000
00000000
00001000
00010000
00100000
01000000
00100000
00000000
,
10000000
00010000
00200000
00000000
01300000
10000000
00010000
00100000
,
00001000
00010000
00001000
00000000
00010000
00000010
00000100
00000001
,
00001000
00000100
00000001
00000100
00001000
00000000
00000001
00000000
,
00002002
00000000
00000000
00003003
,
00000001
00000000
00000100
00000000
00001000
00000000
00010000
00000000
00100000
00000000
10000000
00000000
00010000
10000000
00000000
00000000
,
10010000
00000000
00000000
00000000
;

//---------------dance-single - ----------------
#NOTES:
     dance-single:
     :
     Easy:
     9:
     0.366384,0.453234,0.294308,0.151358,0.050453,305.000000,270.000000,35.000000,18.000000,0.000000,0.000000,0.366384,0.453234,0.294308,0.151358,0.050453,305.000000,270.000000,35.000000,18.000000,0.000000,0.000000:
0000
0000
0000
0000
,
0000
0000
0000
0000
,
0000
0000
0000
0000
,
0000
0000
0000
0000
,
0000
0000
0000
0000
,
0000
0000
0000
0000
,
1000
0001
1000
0001
,
0100
0010
0100
0010
,
1000
0000
0000
0001
0000
0000
1000
0000
0000
0001
0000
0000
2000
0000
0000
0000
,
0000
0000
0000
0000
,
0000
0000
0000
0000
,
3001
0100
0010
0010
,
0200
0000
0000
0301
,
1001
1000
0100
0001
,
0100
0000
0000
0000
0010
0000
0000
0000
0001
0000
0000
0001
0000
0000
0000
0000
,
1001
1000
0010
0001
,
0010
0000
0100
0010
0100
0000
0000
0000
,
1001
0001
0010
1000
,
0010
0010
1001
1001
,
0001
0000
0100
0000
0010
0100
0010
0000
,
1000
1000
0010
0010
,
0110
1000
0010
0001
,
0010
0000
0000
0000
0100
0000
0000
0000
0010
0000
0000
0010
0000
0000
0000
0000
,
1001
1000
0001
0010
,
1000
0010
0002
0000
,
1003
0000
0010
0000
0100
0010
0100
0000
,
0001
0000
0010
0000
0100
0010
0100
0000
,
1000
0000
0010
0000
0100
0010
0100
0000
,
0020
0000
0000
0130
,
0001
1001
1000
1001
,
0010
0110
0100
0110
,
0001
0001
2000
0000
,
3100
0000
0010
0000
0001
1000
0001
0000
,
1000
1001
0001
1001
,
0100
0110
0010
0110
,
1000
0100
0001
0100
,
1000
1000
0002
0000
,
1003
1001
0001
0010
,
0100
0010
0100
0000
0010
0100
0010
0000
,
0001
1001
1000
0010
,
0100
0001
0100
0000
0001
0100
0001
0000
,
1000
1001
0001
0010
,
0100
1000
0100
0000
1000
0100
1000
0000
,
0001
0000
0000
1000
0000
0000
0001
0000
0000
0000
0000
0000
0100
0000
0000
0010
,
0000
0000
0100
0000
0000
0000
0000
0000
0001
0000
0000
0000
1000
0000
0000
2000
,
0000
0000
0000
0000
,
0000
0000
0000
0000
,
3001
0100
2000
3100
,
0010
0100
0100
1001
,
0001
0010
0110
0110
,
1000
0010
0110
0110
,
0002
0000
1003
0100
,
0010
0100
0010
0000
0000
0000
1001
0000
,
0001
0100
0110
0110
,
1000
0100
0110
0110
,
0002
0000
2003
0000
,
3010
0000
0100
0000
0001
1000
0001
0000
,
1000
1000
0100
0001
,
0100
1001
2002
3003
,
0001
0001
0100
1000
,
0100
1001
2002
3003
,
0001
0001
1000
1000
,
0010
0000
0100
0000
0001
1000
0001
0000
,
1000
0000
0000
1000
0000
0000
0000
0000
0001
0000
0000
0001
0000
0000
0000
0000
,
0100
0000
0000
0100
0000
0000
0000
0000
0010
0000
0000
0010
0000
0000
0000
0000
,
0100
0010
0100
0000
0001
1000
0001
0000
,
0010
0000
0010
0000
0100
0010
0100
0010
,
0200
0000
0000
0000
,
0000
0000
0000
1300
,
1001
0001
0100
1000
,
0100
0000
0000
0000
0010
0000
0000
0000
0100
0000
0000
0100
0000
0000
0000
0000
,
1001
0000
0001
0000
0010
0100
0010
0000
,
0100
0200
0000
0000
,
1300
0001
0100
1000
,
0100
0000
0010
0100
0010
0000
0100
0000
,
0002
0000
0000
0000
,
1003
0001
1000
0001
1000
0001
1000
0000
,
1001
0000
0000
0000
;

//---------------dance-double - ----------------
#NOTES:
     dance-double:
     :
     Easy:
     10:
     0.345962,0.453234,0.252264,0.117723,0.050453,288.000000,258.000000,30.000000,14.000000,0.000000,0.000000,0.345962,0.453234,0.252264,0.117723,0.050453,288.000000,258.000000,30.000000,14.000000,0.000000,0.000000:
00000000
00000000
00000000
00000000
,
00000000
00000000
00000000
00000000
,
00000000
00000000
00000000
00000000
,
00000000
00000000
00000000
00000000
,
00000000
00000000
00000000
00000000
,
00000000
00000000
00000000
00000000
,
00010000
10000000
00010000
10000000
,
00100000
01000000
00100000
01000000
,
00001000
00000000
00000000
00010000
00000000
00000000
00001000
00000000
00000000
00010000
00000000
00000000
00002000
00000000
00000000
00000000
,
00000000
00000000
00000000
00000000
,
00000000
00000000
00000000
00000000
,
00013000
00000100
00000010
00000001
,
00000100
00001000
00010000
00000000
,
00011000
00001000
01000000
00100000
,
10000000
00000000
00000000
00000000
01000000
00000000
00000000
00000000
00010000
00000000
00000000
00010000
00000000
00000000
00000000
00000000
,
00011000
00001000
00000010
00000001
,
00000100
00001000
00010000
00010000
,
00011000
00001000
01000000
00010000
,
10000000
00000000
01000000
00000000
00010000
00001000
00010000
00000000
,
00001000
00100000
00001000
00010000
,
00000010
00000010
00000010
00000000
,
00001001
00000001
00000100
00001000
,
00010000
00000000
00000000
00000000
00001000
00000000
00000000
00000000
00100000
00000000
00000000
00100000
00000000
00000000
00000000
00000000
,
00011000
00001000
00010000
00100000
,
01000000
00000000
00010000
00000000
10000000
00010000
10000000
00000000
,
10010000
10000000
01000000
00010000
,
00011000
00001000
00000100
00000001
,
00001001
00000001
00000010
00001000
,
00020000
00000000
00000000
00031000
,
00001000
00100000
01000000
00010000
,
00001000
00000010
00000100
00010000
,
00001000
00001000
00002000
00000000
,
00013000
00000000
00001000
00000000
00010000
00001000
00010000
00000000
,
00001000
00000100
00000010
00001000
,
00010000
01000000
00100000
00010000
,
00001000
00100000
00010000
00100000
,
01000000
00100000
01000000
00000000
00200000
00000000
00000000
00000000
,
00310000
10010000
10000000
00100000
,
00001000
00010000
00000100
00000010
,
00001000
00001001
00000001
00000010
,
00010000
00001000
01000000
10000000
,
00010000
10010000
10000000
01000000
,
00001000
00010000
00000010
00000001
,
00001000
00000000
00000000
00000001
00000000
00000000
00001000
00000000
00000000
00000000
00000000
00000000
00000010
00000000
00000000
00000100
,
00000000
00000000
00000010
00000000
00000000
00000000
00000000
00000000
00010000
00000000
00000000
00000000
00001000
00000000
00000000
00020000
,
00000000
00000000
00000000
00000000
,
00000000
00000000
00000000
00000000
,
00031000
01000000
10000000
01000000
,
00100000
10010000
10010000
10000000
,
01000000
00010000
00011000
00011000
,
00001000
00000010
00001001
00001001
,
00000001
00000100
00001000
00010000
,
00001000
00010000
00001000
00000000
00000000
00000000
00011000
00000000
,
00010000
01000000
10010000
10010000
,
10000000
00100000
01100000
01100000
,
02000000
00000000
03002000
00000000
,
00013000
00000100
00000001
00000100
,
00001000
00001000
00000001
00000100
,
00001000
00011000
00022000
00033000
,
00010000
00010000
01000000
10000000
,
00100000
01100000
02200000
03300000
,
10000000
01000000
00001000
00010000
,
00000010
00000001
00001000
00001000
,
00000001
00000000
00000000
00000001
00000000
00000000
00000000
00000000
00000100
00000000
00000000
00000100
00000000
00000000
00000000
00000000
,
00000010
00000000
00000000
00000010
00000000
00000000
00000000
00000000
00010000
00000000
00000000
00010000
00000000
00000000
00000000
00000000
,
00001000
00010000
00001000
00000000
00010000
00001000
00010000
00000000
,
00100000
00010000
00000010
00010000
,
00022000
00000000
00000000
00000000
,
00000000
00000000
00000000
00033000
,
00011000
00001000
01000000
00010000
,
10000000
00000000
00000000
00000000
01000000
00000000
00000000
00000000
00010000
00000000
00000000
00010000
00000000
00000000
00000000
00000000
,
00011000
00001000
00000100
00000001
,
00001000
00000000
00000010
00000000
00010000
00001000
00010000
00000000
,
00001000
00100000
10000000
00100000
,
00001000
00000100
00000001
00000100
,
00002000
00000000
00000000
00000000
,
00013000
01000000
00001000
00000100
,
00000110
00000000
00000000
00000000
;

//---------------dance-single - ----------------
#NOTES:
     dance-single:
     :
     Beginner:
     5:
     0.225836,0.291365,0.235446,0.050453,0.004204,188.000000,160.000000,28.000000,6.000000,0.000000,0.000000,0.225836,0.291365,0.235446,0.050453,0.004204,188.000000,160.000000,28.000000,6.000000,0.000000,0.000000:
// measure 0
0000
0000
0000
0000
,  // measure 1
0000
0000
0000
0000
,  // measure 2
0000
0000
0000
0000
,  // measure 3
0000
0000
0000
0000
,  // measure 4
0000
0000
0000
0000
,  // measure 5
0000
0000
0000
0000
,  // measure 6
1000
0000
0001
0000
,  // measure 7
1000
0000
0001
0000
,  // measure 8
0100
0000
0010
0020
,  // measure 9
0000
0000
0000
0000
,  // measure 10
0000
0000
0030
0000
,  // measure 11
1000
0001
1000
0000
,  // measure 12
0100
0000
0100
0000
,  // measure 13
0110
0000
0001
0000
,  // measure 14
1000
0001
1000
1000
,  // measure 15
0010
0000
0100
0000
,  // measure 16
0001
0000
1000
1000
,  // measure 17
0100
0000
0010
0000
,  // measure 18
0001
1000
0001
0001
,  // measure 19
0100
0000
0010
0000
,  // measure 20
0100
0100
0100
0000
,  // measure 21
1001
0000
0001
0000
,  // measure 22
0010
0100
0010
0010
,  // measure 23
0001
0000
1000
0000
,  // measure 24
0010
0010
0100
0000
,  // measure 25
1000
0000
0100
0000
,  // measure 26
0001
0000
0010
0000
,  // measure 27
1000
0000
0010
0000
,  // measure 28
0002
0000
0003
0000
,  // measure 29
1001
0000
1001
0000
,  // measure 30
0110
0000
0110
0000
,  // measure 31
0001
0000
2000
0000
,  // measure 32
3001
0000
0001
0000
,  // measure 33
0110
0000
0110
0000
,  // measure 34
1001
0000
1001
0000
,  // measure 35
1000
0000
0100
0000
,  // measure 36
0001
0000
0010
0000
,  // measure 37
1000
0000
0001
0000
,  // measure 38
0110
0000
0110
0000
,  // measure 39
0001
0000
1000
0000
,  // measure 40
0110
0000
0110
0000
,  // measure 41
1000
0000
0001
0000
,  // measure 42
0110
0000
0110
0000
,  // measure 43
1000
0000
1000
1000
,  // measure 44
0000
0000
0000
0000
0001
0000
0000
0000
0001
0000
0000
0000
0000
0000
0000
2000
,  // measure 45
0000
0000
0000
0000
,  // measure 46
0000
0000
3000
0000
,  // measure 47
1000
0000
0010
0000
,  // measure 48
0100
0100
0010
0000
,  // measure 49
1001
0000
0100
0000
,  // measure 50
1001
0000
0010
0000
,  // measure 51
1001
0000
1000
0000
,  // measure 52
0100
0100
0010
0000
,  // measure 53
1001
0000
0010
0000
,  // measure 54
1001
0000
0100
0000
,  // measure 55
1001
0000
0001
0000
,  // measure 56
0100
0100
0010
0000
,  // measure 57
1000
1000
0010
0100
,  // measure 58
0010
0100
0100
0000
,  // measure 59
0001
0001
0010
0100
,  // measure 60
0010
0100
0100
0000
,  // measure 61
1000
0000
0001
0000
,  // measure 62
0100
0100
0100
0000
,  // measure 63
0110
0000
1001
0000
,  // measure 64
0110
0000
1001
0000
,  // measure 65
0001
0000
0010
0000
,  // measure 66
1000
0000
0100
0100
,  // measure 67
0020
0000
0000
0000
,  // measure 68
0000
0000
0030
0000
,  // measure 69
1001
0000
0001
0000
,  // measure 70
0100
0010
1000
1000
,  // measure 71
0010
0000
0100
0000
,  // measure 72
0001
1000
0001
0001
,  // measure 73
0010
0000
0100
0000
,  // measure 74
1000
0000
0001
0000
,  // measure 75
0200
0000
0300
0000
,  // measure 76
0010
0100
0010
0100
,  // measure 77
0110
0000
0000
0000
;
