#VERSION:0.83;
#TITLE:Kamah (Scythe);
#SUBTITLE:;
#ARTIST:かめりあ;
#TITLETRANSLIT:;
#SUBTITLETRANSLIT:;
#ARTISTTRANSLIT:Camellia;
#GENRE:;
#CREDIT:;
#MUSIC:Kamah (Scythe).ogg;
#BANNER:Kamah (Scythe)-bn.png;
#BACKGROUND:Kamah (Scythe)-bg.png;
#CDTITLE:;
#SAMPLESTART:7.501;
#SAMPLELENGTH:15.000;
#SELECTABLE:YES;
#OFFSET:1.874;
#BPMS:0.000=128.000
,116.000=129.000
,117.000=130.000
,118.000=131.700
,119.000=133.200
,120.000=134.400
,121.000=136.100
,122.000=137.300
,123.000=138.700
,124.000=140.200
,125.000=141.300
,126.000=142.900
,127.000=144.200
,128.000=145.500
,129.000=146.700
,130.000=148.100
,131.000=149.300
,132.000=150.000
,212.000=151.000
,214.000=152.700
,215.500=153.600
,216.000=155.000
,218.000=155.700
,219.000=157.400
,220.000=157.700
,221.000=158.700
,222.000=159.700
,223.000=162.000
,226.000=164.000
,227.000=164.500
,228.000=165.200
,229.000=165.000
;
#STOPS:;
#SPEEDS:0.000=1.000=0.000=0;
#SCROLLS:0.000=1.000,
144.000=0.000,
146.000=0.500,
146.500=1.000,
146.750=2.000,
147.000=1.000,
240.000=0.000,
242.000=0.500,
242.500=1.000,
242.750=2.000,
243.000=1.000
;
#BGCHANGES:;
#FGCHANGES:;

//--------------- dance-single - XMOD FS XO RH- ----------------
#NOTEDATA:;
#STEPSTYPE:dance-single;
#DESCRIPTION:XMOD FS XO RH-;
#DIFFICULTY:Medium;
#METER:12;
#RADARVALUES:0,0,0,0,0;
#CREDIT:Talkion;
#NOTES:
0000
0000
0000
0000
,
0000
0000
0000
0000
,
0000
0000
0000
0000
,
0000
0000
0000
0000
,
0000
0000
0000
0110
,
1001
0000
0000
1000
0000
0100
0000
0010
0000
0000
0010
0000
0001
0000
0100
0000
,
0010
0000
0000
0100
0000
0001
0000
0010
0000
0000
0010
0000
0100
0000
1000
0000
,
0001
0000
0100
0000
0010
0000
0100
0000
2000
0000
3000
0000
0110
0000
0000
1000
,
0000
0100
0010
0100
0002
0003
0110
0000
,
0001
0000
0000
1000
0000
0010
0000
0100
0000
0000
0100
0000
0001
0000
0010
0000
,
0100
0000
0000
0010
0000
0001
0000
0100
0000
0000
0100
0000
0010
0000
1000
0000
,
0001
0000
0010
0000
0100
0000
0010
0000
2000
0000
3000
0000
0110
0000
0000
1000
,
0000
0100
0010
0001
0100
0100
2000
3000
,
0210
0000
0301
0000
1000
0100
0010
0100
,
1000
0010
0100
0010
0000
0001
0010
0100
,
2000
0000
3100
0000
0001
0100
0010
0100
,
0001
0000
0010
0000
0100
0000
0000
0000
1100
0000
0000
1100
0000
0000
1100
0000
,
2001
0000
3010
0000
1000
0010
0100
0010
,
1000
0100
0010
0100
0000
0001
0100
0010
,
1000
0000
0000
0010
0000
0100
0000
1000
0000
0000
1000
0000
0001
0000
0100
0000
,
0010
0000
0000
0100
0000
0001
0000
0010
0000
0000
0010
0000
0100
0000
1000
0000
,
1002
0000
0103
0000
0001
0100
0010
0100
,
0001
0010
0100
0010
0000
1000
0010
0100
,
0002
0000
0103
0000
1000
0100
0010
0100
,
1000
0000
0010
0000
0100
0000
0000
0000
0001
0000
0000
0001
0010
0000
0001
0000
,
2000
3000
0110
0000
0001
0010
0100
0010
,
0001
0100
0010
0100
0000
1000
0100
0010
,
0002
0000
0000
0023
0000
0000
0130
0000
0002
0000
0000
0023
0000
0000
0130
0000
,
1000
0010
1000
0001
0010
0001
0100
0000
,
0110
0010
1000
0001
,
0010
0100
0010
0001
,
1001
1000
0010
0100
,
0001
0000
0000
0000
1000
0000
0000
0000
0100
0000
0000
0100
0000
0000
0100
0000
,
1000
0001
1000
0001
0100
0010
0100
0010
,
1000
0001
1000
0001
0010
0100
0010
0100
,
1000
0010
0100
0001
0010
0100
1000
0010
,
0000
0000
0000
1001
,
1000
0000
0100
0000
0010
0000
0000
0100
M000
0100
0000
0000
0002
0000
0000
0000
,
1003
0000
0100
0000
0010
0000
0000
0100
M000
0100
0000
0000
0001
0000
1000
0000
,
0001
0000
0100
0000
0010
0000
0000
0100
000M
0100
0000
0000
2000
0000
0000
0000
,
3001
0000
0100
0000
0010
0000
0000
0100
000M
0100
0000
0000
2100
0000
0000
0000
,
3001
0000
0010
0000
0100
0000
0000
0010
000M
0010
0000
0000
2000
0000
0000
0000
,
3001
0000
0010
0000
0100
0000
0000
0010
0000
0010
0000
0000
1000
0000
0010
0000
,
0100
0000
0000
0001
0000
0100
0000
0010
0000
0000
0010
0000
1000
0000
0100
0000
,
0010
0000
0000
0100
0000
1000
0000
0010
0000
0000
0010
0000
0100
0000
0001
0000
,
2000
0000
3000
0000
1100
0000
0000
0100
00M0
0100
0000
0000
0001
0000
1000
0000
,
0100
0000
1000
0000
0001
0000
0000
0100
00M0
0100
0000
0000
1000
0000
0010
0000
,
0100
0000
0010
0000
1000
0000
0000
0010
0M00
0010
0000
0000
0001
0000
1000
0000
,
0010
1000
0001
0010
0100
0100
0100
0000
,
1001
0000
0001
0000
0100
0000
0000
0010
M000
0010
0000
0000
0001
0000
0000
0000
,
1001
0000
1000
0000
0100
0000
0000
0010
000M
0010
0000
0000
1000
0000
0000
0000
,
0001
0100
0100
0010
1000
0100
1000
0001
,
0100
0001
0010
0100
0010
0001
0100
0000
,
0110
0000
0010
0000
1000
0000
0001
0010
,
0010
0100
0010
0011
,
1100
0000
1000
0000
0001
0000
0100
0010
,
0010
1000
0001
0011
,
0010
0100
0010
0100
1000
0001
1000
0001
,
0100
0010
0100
0010
1000
0001
1000
0001
,
0020
0000
0000
0000
,
0030
0000
0000
1001
,
0001
0100
0020
0130
0001
0020
1000
0000
,
0031
0010
0200
0310
0001
0200
1000
0000
,
0301
0100
0020
0130
0001
0020
1000
0000
,
0031
0000
0010
0000
0200
0000
0310
0000
0000
0001
0000
0000
0101
0000
0000
0000
,
1010
0000
1000
0100
0010
0001
1110
0010
,
1001
0000
0001
0100
0010
1000
1000
1000
,
0001
0010
1000
0010
0001
0001
0002
0000
,
1003
0010
0001
0010
1000
0000
0110
0000
,
1001
0000
0000
1000
0000
0100
0000
0010
0000
0000
0010
0000
0001
0000
0100
0000
,
0010
0000
0000
0100
0000
0001
0000
0010
0000
0000
0010
0000
0100
0000
1000
0000
,
0001
0000
0100
0000
0010
0000
0100
0000
2000
0000
3000
0000
0110
0000
0000
1000
,
0000
0100
0010
0100
0002
0003
0110
0000
,
0001
0000
0000
1000
0000
0010
0000
0100
0000
0000
0100
0000
0001
0000
0010
0000
,
0100
0000
0000
0010
0000
0001
0000
0100
0000
0000
0100
0000
0010
0000
1000
0000
,
0001
0000
0010
0000
0100
0000
0010
0000
2000
0000
3000
0000
0110
0000
0000
1000
,
0000
0010
0100
0010
0002
0000
0013
0000
,
1000
0001
0010
0100
0001
1000
0010
0100
,
1000
0000
0001
0000
0100
0000
0010
0000
0001
0000
0000
0001
0000
0000
0001
0000
,
1000
0100
0001
0010
2000
3000
0110
0000
,
1100
0000
0000
0101
0000
0000
1001
0000
0002
0000
0000
0000
0013
0000
0000
0000
,
0001
1000
0010
0100
1000
0001
0010
0100
,
0001
1000
0100
0010
1000
0001
0100
0010
,
0001
0000
0100
0000
0010
0000
0100
0000
0002
0000
0000
0000
0013
0000
0000
0100
,
0000
0001
0100
0010
2000
3000
0110
0000
,
1001
0000
0000
0000
;

//--------------- dance-single - XMOD FS Mines- SJ- ----------------
#NOTEDATA:;
#STEPSTYPE:dance-single;
#DESCRIPTION:XMOD FS Mines- SJ-;
#DIFFICULTY:Hard;
#METER:15;
#RADARVALUES:0,0,0,0,0;
#CREDIT:Talkion;
#NOTES:
0000
0000
0000
0000
,
0000
0000
0000
0000
,
0000
0000
0000
0000
,
0000
0000
0000
0000
,
0000
0000
0000
0110
,
1001
0000
1000
0100
00M0
0100
0001
0010
0M00
0010
1000
0000
0100
0000
1000
0000
,
0001
0000
0010
0100
M000
0100
0001
0010
M000
0010
0100
0000
0001
0000
1000
0000
,
0010
0000
0100
0001
0000
0100
0001
0000
0022
0000
0033
0000
MMMM
0000
0000
0001
,
0000
0010
0100
1000
0000
0100
1000
0000
2020
0000
3030
0000
MMMM
0000
0010
0000
,
0100
0000
0001
0100
00M0
0100
1000
0010
0M00
0010
0001
0000
0100
0000
0001
0000
,
1000
0000
0010
0100
000M
0100
1000
0010
000M
0010
0100
0000
1000
0000
0001
0000
,
0010
0000
0100
1000
0000
0100
1000
0000
2020
0000
3030
0000
MMMM
0000
0000
1000
,
0000
0010
0100
0001
0000
0100
0001
0000
0020
0000
0000
0000
MM3M
0000
0000
0000
,
1002
0000
0000
0000
0103
0000
0000
0001
1000
0100
0020
0001
0000
0130
1000
0000
,
0001
0100
0020
1000
0000
0130
0001
0000
0010
0000
1010
0000
1100
0000
0101
0000
,
0021
0000
0000
0000
0130
0000
0000
1000
0001
0100
0010
1000
0000
1000
0100
0000
,
1000
0100
0010
0001
0000
0001
0100
0000
0101
0000
0000
1100
0000
0000
0101
0000
,
2001
0000
0000
0000
3100
0000
0000
1000
0001
0100
0020
1000
0000
0130
0001
0000
,
1000
0100
0020
0001
0000
0130
1000
0000
0010
0000
0011
0000
0101
0000
2100
0000
,
3010
0000
1000
0010
0M00
0010
0001
0100
00M0
0100
1000
0000
0010
0000
1000
0000
,
0001
0000
0100
0010
M000
0010
0001
0100
M000
0100
0010
0000
0001
0000
0000
0000
,
1002
0000
0000
0000
0013
0000
0000
0001
1000
0010
0200
0001
0000
0310
1000
0000
,
0001
0010
0200
1000
0000
0310
0001
0000
0100
0000
1100
0000
1010
0000
0011
0000
,
0001
0200
0000
0000
0310
0000
0000
1000
0001
0010
0100
1000
0000
1000
0010
0000
,
1000
0010
0100
0001
0000
0001
0010
0100
1000
0000
0000
2000
0010
0000
3001
0000
,
MMMM
0000
0000
0000
0110
0000
0001
1000
0100
0010
0002
0100
0000
1003
0001
0000
,
0100
0010
2000
0100
0000
3001
1000
0000
0100
0010
0001
0000
0001
0000
0001
0000
,
1000
0001
1000
0100
00M0
0100
0001
0000
1000
0001
1000
0100
00M0
0100
0001
0000
,
1000
0000
0010
0100
0010
0100
0000
0001
0000
0000
0011
0000
1010
0000
0000
0000
,
1000
0000
0100
0000
1000
0000
0000
0000
0001
0100
0000
0100
0010
0000
0000
0000
,
1000
0000
0001
0000
0010
0100
0010
0000
0001
0000
1000
0000
0010
0000
0100
0000
,
0001
0000
0010
0000
0001
0000
0000
0000
1000
0010
0000
0010
0100
0000
0000
0000
,
0001
0000
1000
0000
0001
0000
1000
0000
0100
0000
0000
0100
0000
0000
0100
0000
,
0020
0030
0000
0000
0000
0000
0000
0000
0002
0003
0000
0000
0000
0000
0000
0000
0020
0000
0030
0000
0000
0000
0000
0000
0002
0000
0003
0000
0000
0000
0000
0000
0200
0000
0000
0300
0000
0000
0000
0000
0020
0000
0000
0030
0000
0000
0000
0000
0200
0000
0000
0000
0300
0000
0000
0000
0020
0000
0000
0000
0030
0000
0000
0000
,
2000
0000
0000
0000
0000
3000
0000
0000
0200
0000
0000
0000
0000
0300
0000
0000
2000
0000
0000
0000
0000
0000
3000
0000
0200
0000
0000
0000
0000
0000
0300
0000
0020
0000
0000
0000
0000
0000
0000
0030
0002
0000
0000
0000
0000
0000
0000
0003
0020
0000
0000
0000
0000
0000
0000
0000
0032
0000
0000
0000
0000
0000
0000
0000
,
2003
0010
3002
0100
2003
0100
3002
0010
,
0003
0000
0000
1001
,
1000
0000
0100
0000
0010
0000
0001
0010
0M00
1020
0000
0000
0230
0000
0000
0000
,
0301
0000
0100
0000
0010
0000
1000
0010
0M00
0021
0000
0000
0130
0000
1000
0000
,
0002
0000
0010
0000
1003
0000
0001
0100
00M0
1200
0000
0000
0320
0000
0000
0000
,
0031
0000
0010
0000
0100
0000
1000
0100
00M0
0201
0000
0000
0310
1000
0010
1000
,
0001
0000
0010
0000
0100
0000
1000
0100
00M0
0201
0000
0000
0320
0000
0000
0000
,
1030
0000
0010
0000
0100
0000
0001
0100
00M0
1200
0000
0000
0310
0001
0010
0001
,
1000
0000
0001
0100
00M0
0100
1000
0010
0M00
0010
0001
0000
0100
0000
0010
0000
,
2000
0000
0001
0000
0001
0000
0001
0000
3001
0000
0010
0100
1000
0000
0000
0000
,
0020
0000
0030
0000
1001
0000
1000
0100
00M0
0100
0001
1000
0001
0000
0100
0000
,
0010
0000
0100
0000
0001
0000
1000
0010
0M00
0010
0001
0000
0100
0000
0010
0100
,
0000
0010
0100
0001
1000
0000
0001
0010
0M00
0010
1000
0000
0100
0000
0010
0000
,
0001
0010
0100
1000
1010
0001
0011
0000
,
1001
0000
1000
0000
0010
0000
0100
0010
M000
0021
0000
0000
0130
0000
1000
0000
,
1001
0000
0001
0000
0010
0000
0100
0010
000M
1020
0000
0000
0130
0000
0001
0000
,
0100
0010
1000
0000
1000
0000
0001
0000
0010
0000
0001
0000
1000
0000
0010
0000
,
1000
0100
0010
0100
1000
1010
0011
0000
,
0101
0000
0001
0000
1000
0000
0000
0000
0001
0010
0000
0010
0100
0000
0110
0000
,
1001
0000
1000
0000
0010
0100
0010
0000
1000
0000
0001
0000
0011
0000
0000
0000
,
1010
0000
1000
0000
0001
0000
0000
0000
1000
0100
0000
0100
0010
0000
0110
0000
,
1001
0000
0001
0000
1000
0000
0001
0000
0100
0000
0000
0100
0010
0000
1000
0000
,
0200
0300
0000
0000
0000
0000
0000
0000
0020
0030
0000
0000
0000
0000
0000
0000
0200
0000
0300
0000
0000
0000
0000
0000
0020
0000
0030
0000
0000
0000
0000
0000
0002
0000
0000
0003
0000
0000
0000
0000
0200
0000
0000
0300
0000
0000
0000
0000
0002
0000
0000
0000
0003
0000
0000
0000
0200
0000
0000
0000
0300
0000
0000
0000
,
0020
0000
0000
0000
0000
0030
0000
0000
2000
0000
0000
0000
0000
3000
0000
0000
0020
0000
0000
0000
0000
0000
0030
0000
2000
0000
0000
0000
0000
0000
3000
0000
0200
0000
0000
0000
0000
0000
0000
0300
0020
0000
0000
0000
0000
0000
0000
0030
0200
0000
0000
0000
0000
0000
0000
0000
0320
0000
0000
0000
0000
0000
0000
0000
,
0031
1000
0010
0100
0001
0100
0010
1000
0001
0010
0100
1000
,
0000
0000
0000
1001
,
1000
0000
0001
0010
0100
0000
1000
0010
0100
0000
0201
0000
0000
0000
0000
0000
,
0310
0000
1000
0010
0100
0000
0001
0010
0100
0000
1200
0000
0000
0000
0000
0000
,
0310
0000
0001
0010
0100
0000
1000
0010
0100
0000
0201
0000
0000
0000
0000
0000
,
0310
0000
1000
0010
0100
0000
0001
0000
0000
0011
0000
0000
1010
0000
0000
0000
,
1001
0000
0000
0000
0001
0010
0001
0000
1000
0010
1000
0000
0001
0000
0011
0000
,
1100
0000
0000
0000
1000
0010
1000
0000
0001
0000
0101
0000
0110
0000
1010
0000
,
1000
0001
1000
0000
0100
00M0
0100
0000
0001
0000
0001
0000
0002
0000
0000
0000
,
1003
0001
1000
0000
0100
00M0
0100
0000
0001
0000
0000
0000
0110
0000
0000
0000
,
1001
0000
1000
0100
00M0
0100
0001
0010
0M00
0010
1000
0000
0100
0000
1000
0000
,
0001
0000
0010
0100
M000
0100
0001
0010
M000
0010
0100
0000
0001
0000
1000
0000
,
0010
0000
0100
0001
0000
0100
0001
0000
0022
0000
0033
0000
MMMM
0000
0000
0001
,
0000
0010
0100
1000
0000
0100
1000
0000
2020
0000
3030
0000
MMMM
0000
0010
0000
,
0100
0000
0001
0100
00M0
0100
1000
0010
0M00
0010
0001
0000
0100
0000
0001
0000
,
1000
0000
0010
0100
000M
0100
1000
0010
000M
0010
0100
0000
1000
0000
0001
0000
,
0010
0000
0100
1000
0000
0100
1000
0000
2020
0000
3030
0000
MMMM
0000
0000
1000
,
0000
0010
0100
0001
0000
0100
0001
0000
0020
0000
0000
0000
MM3M
0000
0000
0000
,
0001
0000
1000
0010
0100
0010
1000
0000
0002
0000
0010
0000
2003
0000
0010
0000
,
3001
0000
0010
0100
M000
0100
0001
0010
M000
0010
0100
0000
0001
0000
1000
0001
,
1000
0010
0100
0001
0000
0100
0001
0000
0022
0000
0033
0000
MMMM
0000
0000
1000
,
0001
0010
0100
1000
0000
0100
1000
0000
0020
0000
0000
0000
MM3M
0000
0000
0000
,
1000
0000
0001
0010
0100
0010
0001
0000
2000
0000
0010
0000
3002
0000
0010
0000
,
1003
0000
0010
0100
000M
0100
1000
0010
000M
0010
0100
0000
1000
0000
0001
0000
,
1000
0010
1000
0010
0100
0001
0100
0001
0020
0000
0000
0000
0130
0000
0000
1000
,
0000
0100
0010
0001
0000
0010
0001
0000
0200
0000
0000
0000
M3MM
0000
0000
0000
,
1001
0000
0000
0000
;

//--------------- dance-single - XMOD BU- DSFS- FS- JA- Mines- SJ- ----------------
#NOTEDATA:;
#STEPSTYPE:dance-single;
#DESCRIPTION:XMOD BU- DSFS- FS- JA- Mines- SJ-;
#DIFFICULTY:Challenge;
#METER:17;
#RADARVALUES:0,0,0,0,0;
#CREDIT:Talkion;
#NOTES:
0000
0000
0000
0000
,
0000
0000
0000
0000
,
0000
0000
0000
0000
,
0000
0000
0000
0000
,
0000
0000
0000
0110
,
2001
0000
0100
3100
00M0
0100
0001
0010
0M00
0010
1000
0001
0010
0001
1000
0000
,
0020
0000
0100
0130
0000
0010
1000
0100
00M0
0100
0001
0010
0100
0010
0001
0000
,
1000
0100
1000
0001
0000
0100
0010
0000
2020
0000
3030
0000
MMMM
0000
1000
0001
,
0000
0010
0100
1000
0000
0100
0010
0000
0022
0000
0033
0000
MMMM
0000
0001
1000
,
0002
0000
0100
0103
00M0
0100
1000
0010
0M00
0010
0001
1000
0010
1000
0001
0000
,
0020
0000
0100
0130
0000
0010
0001
0100
00M0
0100
1000
0010
0100
0010
1000
0000
,
0001
0100
0010
1000
0000
0100
0010
0000
0022
0000
0033
0000
MMMM
0000
0001
1000
,
0000
0000
0000
0010
0000
0000
0100
0000
0000
0001
0000
0000
0000
0000
0000
0010
0000
0000
0100
0000
0000
0000
0000
0000
2100
0000
0000
0000
0000
0000
0000
0000
0000
0000
0000
0000
3MMM
0000
0000
0000
0000
0000
1000
0000
0010
0000
0100
0000
,
0002
0000
0000
0000
0003
0000
0000
0000
0110
0000
0000
0000
1000
0000
0001
0100
0001
0000
1000
0000
0200
0000
0010
0000
0000
0000
1300
0000
0001
0000
0100
0000
,
0010
1000
0200
0010
0000
1300
0001
1000
0010
0100
0101
0000
1100
0000
1010
0000
,
0012
0000
0000
0000
0003
0000
0000
0000
0110
0000
0000
0000
1000
0000
0001
0010
0001
0000
1000
0000
0020
0000
0100
0000
0000
0000
2030
0000
0100
0000
0000
0000
,
3001
1000
0020
0100
0000
1030
0100
0010
0011
0000
0000
1010
0000
0000
0011
0000
,
2001
0000
0000
0000
3000
0000
0000
0000
0110
0000
0000
0000
0001
0000
1000
0100
1000
0000
0001
0000
0200
0000
0010
0000
0000
0000
0301
0000
0010
0000
0100
0000
,
1000
0001
0200
0010
0000
0301
1000
0001
0010
0100
1100
0000
1010
0000
0012
0000
,
0203
0000
0010
0310
M000
0010
0001
0100
00M0
0100
1000
0001
0100
0001
1000
0000
,
0200
0000
0010
0310
0000
0100
1000
0010
0M00
0010
0001
0100
0010
0100
0001
0000
,
2001
0000
0000
0000
3000
0000
0000
0000
0110
0000
0000
0000
0001
0000
1000
0100
1000
0000
0001
0000
0200
0000
0010
0000
0000
0000
0301
0000
1000
0000
0100
0000
,
0010
0001
0200
0010
0000
0301
1000
0001
0010
0100
1100
0000
0101
0000
0011
0000
,
2010
0000
0010
0000
3000
0000
0000
0000
0110
0000
0000
0000
0001
0000
1000
0010
1000
0000
0001
0000
0020
0000
0100
0000
0000
0000
0032
0000
0100
0000
0000
0000
,
1003
0001
0020
0100
0000
0031
0100
0010
1000
0000
0000
2000
0100
0000
3001
0000
,
MMMM
0000
0000
0000
0000
0000
0000
0000
0110
0000
0000
0000
1000
0000
0001
0100
0001
0000
1000
0000
0200
0000
0010
0000
0000
0000
1300
0000
0010
0000
0100
0000
,
0001
1000
0200
0010
0000
1300
0001
1000
0010
0100
0101
0000
0011
0000
1010
0000
,
1000
0001
1000
0100
00M0
0100
0001
0000
1000
0001
1000
0100
00M0
0100
0001
0000
,
1000
0010
0100
0001
0000
0000
1000
0100
0010
0001
0000
0000
1001
0000
0000
0110
0000
0000
1001
0000
0000
0000
0000
0000
,
1000
0000
0100
0000
1000
0000
0000
0000
0001
0100
0000
0100
0010
0000
0000
0000
,
1000
0000
0001
0000
0010
0100
0010
0000
0001
0000
1000
0000
0010
0000
0100
0000
,
0001
0000
0010
0000
0001
0000
0000
0000
1000
0010
0000
0010
0100
0000
0000
0000
,
0001
0000
1000
0000
0001
0000
1000
0000
0100
0000
0000
0100
0000
0000
0100
0000
,
0020
0030
0000
0000
0000
0000
0000
0000
0002
0003
0000
0000
0000
0000
0000
0000
0020
0000
0030
0000
0000
0000
0000
0000
0002
0000
0003
0000
0000
0000
0000
0000
0200
0000
0000
0300
0000
0000
0000
0000
0020
0000
0000
0030
0000
0000
0000
0000
0200
0000
0000
0000
0300
0000
0000
0000
0020
0000
0000
0000
0030
0000
0000
0000
,
2000
0000
0000
0000
0000
3000
0000
0000
0200
0000
0000
0000
0000
0300
0000
0000
2000
0000
0000
0000
0000
0000
3000
0000
0200
0000
0000
0000
0000
0000
0300
0000
0020
0000
0000
0000
0000
0000
0000
0030
0002
0000
0000
0000
0000
0000
0000
0003
0020
0000
0000
0000
0000
0000
0000
0000
0032
0000
0000
0000
0000
0000
0000
0000
,
1003
1010
0110
0101
1001
0011
0110
1100
,
0000
0000
0000
1001
,
1000
0000
0100
0000
0010
0000
0200
1000
0300
M100
0001
0000
0012
0000
0000
0000
,
1003
0000
0100
0000
0010
0000
0200
1000
0300
M100
0001
1000
0001
0000
0010
0000
,
0100
0000
1000
0000
0001
0000
0200
0001
0300
010M
1000
0000
2010
0000
0000
0000
,
3001
0000
0100
0000
0010
0000
0200
0001
0300
010M
1000
0000
0100
0010
0001
0100
,
0010
0000
1000
0000
0001
0000
0020
0001
0030
001M
1000
0000
2100
0000
0000
0000
,
3001
0000
0010
0000
0100
0000
0020
0001
0030
001M
1000
0001
1000
0100
0010
0001
,
2000
0000
0010
3010
0M00
0010
0001
0100
00M0
0100
1000
0001
0100
0001
1000
0000
,
0200
0000
0010
0000
0010
0000
0010
0000
0310
0000
0001
1000
0010
0100
0001
0000
,
0020
0000
0030
0000
1100
0000
0200
1000
0300
M100
0001
0100
0010
0000
1000
0000
,
0001
0000
0010
0001
0010
0000
0200
1000
0300
M100
0001
0000
0010
0000
0001
1000
,
0000
0001
1000
0010
0100
0000
0020
1000
0030
M010
0001
0000
0010
0000
0100
0000
,
1000
0000
0001
0010
0001
0000
1000
0010
0100
0000
0100
0000
0100
0000
0000
0000
,
1001
0000
0001
0000
0010
0000
0200
1000
0300
M100
0000
0001
0010
0000
0001
0000
,
1001
0000
1000
0000
0010
0000
0200
0001
0300
010M
0000
1000
0010
0000
1000
0000
,
0001
0010
0100
0000
0100
0000
1000
0000
0010
0000
0100
0000
0001
1000
0100
1000
,
0001
0100
0010
1000
0000
0000
0001
0010
0100
1000
0000
0000
1001
0000
0000
0110
0000
0000
1001
0000
0000
0000
0000
0000
,
0101
0000
0001
0000
1000
0000
0000
0000
0001
0010
0000
0010
0100
0000
0110
0000
,
1001
0000
1000
0000
0010
0100
0010
0000
1000
0000
0001
0000
0011
0000
0000
0000
,
1010
0000
1000
0000
0001
0000
0000
0000
1000
0100
0000
0100
0010
0000
0110
0000
,
1001
0000
0001
0000
1000
0000
0001
0000
0100
0000
0000
0100
0010
0000
1000
0000
,
0200
0300
0000
0000
0000
0000
0000
0000
0020
0030
0000
0000
0000
0000
0000
0000
0200
0000
0300
0000
0000
0000
0000
0000
0020
0000
0030
0000
0000
0000
0000
0000
0002
0000
0000
0003
0000
0000
0000
0000
0200
0000
0000
0300
0000
0000
0000
0000
0002
0000
0000
0000
0003
0000
0000
0000
0200
0000
0000
0000
0300
0000
0000
0000
,
0020
0000
0000
0000
0000
0030
0000
0000
2000
0000
0000
0000
0000
3000
0000
0000
0020
0000
0000
0000
0000
0000
0030
0000
2000
0000
0000
0000
0000
0000
3000
0000
0200
0000
0000
0000
0000
0000
0000
0300
0020
0000
0000
0000
0000
0000
0000
0030
0200
0000
0000
0000
0000
0000
0000
0000
0320
0000
0000
0000
0000
0000
0000
0000
,
0031
1000
0010
0100
0001
0100
0010
1000
0001
0010
0100
1000
,
0000
0000
0000
1001
,
1000
0100
0010
0001
1000
0010
0100
0001
0010
0000
2010
0000
0000
0000
0000
0000
,
3001
0100
0010
1000
0001
0010
0100
1000
0010
0000
0012
0000
0000
0000
0000
0000
,
1003
0100
0010
0001
1000
0010
0100
0001
0010
0000
2010
0000
0000
0000
0000
0000
,
3001
0100
0010
1000
0001
0010
0100
1000
0000
1010
0000
0000
0011
0000
0000
0000
,
1001
0000
0000
0000
0001
0100
0010
0100
0001
0010
0100
0010
0001
0000
0101
0000
,
1010
0000
0000
0000
1000
0100
0010
0100
1000
0000
1010
0000
0011
0000
1010
0000
,
1000
0001
1000
0000
0100
00M0
0100
0000
0001
0000
0001
0000
0001
1000
0100
0010
,
0001
1000
0001
0000
0100
00M0
0100
0000
1000
0000
0010
0000
0110
0000
0000
0000
,
2001
0000
0100
3100
00M0
0100
0001
0010
0M00
0010
1000
0001
0010
0001
1000
0000
,
0020
0000
0100
0130
0000
0010
1000
0100
00M0
0100
0001
0010
0100
0010
0001
0000
,
1000
0100
1000
0001
0000
0100
0010
0000
2020
0000
3030
0000
MMMM
0000
1000
0001
,
0000
0010
0100
1000
0000
0100
0010
0000
0022
0000
0033
0000
MMMM
0000
0001
1000
,
0002
0000
0100
0103
00M0
0100
1000
0010
0M00
0010
0001
1000
0010
1000
0001
0000
,
0020
0000
0100
0130
0000
0010
0001
0100
00M0
0100
1000
0010
0100
0010
1000
0000
,
0001
0100
0001
1000
0000
0100
0010
0000
0022
0000
0033
0000
MMMM
0000
0000
0001
,
0000
0100
0010
1000
0000
0100
0020
0000
0032
0000
0000
0000
MMM3
0000
0000
0000
,
1001
0000
0001
0100
0010
1000
0100
0000
1000
0001
0010
0100
0010
0001
1000
0000
,
0020
0000
0100
0130
0000
0010
1000
0100
0010
0000
0001
0100
0000
0001
0010
0100
,
1000
0001
0010
0001
0100
0010
1000
0000
2200
0000
3300
0000
MMMM
0000
0000
0001
,
1000
0100
1000
0010
0000
0100
0002
0000
2003
0000
0000
0000
3MMM
0000
0000
0000
,
1001
0000
1000
0100
0010
0001
0100
0000
0001
1000
0010
0100
0010
1000
0100
0010
,
0001
0000
1000
0010
0100
0001
0010
0001
1000
0100
0010
0100
1000
0010
0100
0010
,
1000
0001
0010
0100
1000
0010
0100
0001
0010
0100
0010
0100
0010
0100
0000
1000
,
0000
0100
0010
0001
0000
0100
0010
0000
2000
0000
0000
0000
3MMM
0000
0000
0000
,
1001
0000
0000
0000
;
