#TITLE:KUGUTSU;
#SUBTITLE:;
#ARTIST:onoken;
#TITLETRANSLIT:;
#SUBTITLETRANSLIT:;
#ARTISTTRANSLIT:;
#GENRE:;
#CREDIT:;
#MUSIC:KUGUTSU.ogg;
#BANNER:;
#BACKGROUND:;
#CDTITLE:;
#SAMPLESTART:44.824;
#SAMPLELENGTH:17.455;
#SELECTABLE:YES;
#OFFSET:-0.097;
#BPMS:0.000=220.000
,125.000=110.000
,141.000=220.000
,323.000=110.000
,324.000=220.000
;
#STOPS:41.750=0.409
,65.250=0.273
,71.250=0.409
,81.000=0.068
,82.250=0.068
,83.500=0.068
,94.000=0.273
,97.500=0.068
,99.250=0.068
,101.000=0.068
,108.750=0.068
,112.500=0.068
,205.500=0.136
,206.000=0.136
,206.500=0.136
,212.000=0.136
,212.500=0.136
,213.000=0.136
,218.500=0.136
,219.000=0.136
,219.500=0.136
,225.000=0.136
,225.500=0.136
,226.000=0.136
,231.500=0.136
,232.000=0.136
,232.500=0.136
,233.000=0.136
,233.500=0.136
,237.000=0.136
,237.500=0.136
,238.000=0.136
;
#BGCHANGES:;
#FGCHANGES:;

//--------------- dance-single - D0omsday ----------------
#NOTES:
     dance-single:
     D0omsday:
     Easy:
     13:
     0,0,0,0,0:
0000
0000
0000
0000
,
0000
0000
0000
0000
,
0000
0000
0000
0000
,
0000
0000
0000
0000
,
0000
0000
0000
0000
,
1000
0000
0000
0010
0000
0000
1010
0000
0000
0000
0000
0000
1000
0000
0000
0000
,
0001
0000
0000
0010
0000
0000
0011
0000
0000
0000
0000
0000
0001
0000
0000
0000
,
0100
0000
0010
1000
0001
0000
0010
0001
,
1000
0100
0010
0100
,
1000
0000
0001
0000
1000
0000
0000
0000
0010
0000
0000
0100
0000
0001
0000
0010
,
0000
0000
0001
0000
1000
0000
0000
0020
0130
0000
0010
0000
1000
0000
0000
0000
,
0001
0000
0010
0000
0000
0100
0000
1000
0000
0001
0000
0000
0000
0000
0100
0000
,
0000
0010
1000
0001
0000
0010
0001
0100
,
0000
0000
0000
0000
0000
0000
0010
0000
0000
0000
0000
0000
0000
0000
0000
1000
0000
0000
0000
0000
0000
0001
0000
0000
0000
0000
0000
1000
0000
0000
0001
0000
0000
0000
0000
0000
0000
0000
0010
0000
0000
0000
0000
0000
0000
0000
0001
0000
,
0000
1000
0000
0000
0000
0001
0000
1000
0000
0000
0000
0001
0000
1000
0000
0010
0000
0000
0000
0000
0000
0100
0000
0000
,
0010
0000
1000
0000
0000
0100
0000
0010
0000
0001
0000
0000
1000
0000
0010
0000
,
0000
0100
0000
0010
0000
2000
3001
0000
0010
0000
0001
0000
0000
0000
0100
0000
,
0000
0010
0000
1000
0000
0100
0000
0000
1000
0000
0000
0001
0000
0200
0310
0000
,
0100
0000
0001
0000
0010
0000
0000
0000
0100
0000
0000
1000
0000
0001
0000
0100
,
0000
0010
1000
0000
0001
0010
0100
0000
,
2200
0000
0000
0000
3300
0022
0000
0000
0000
0033
0202
0000
0000
0000
0303
1010
,
0000
0000
0000
1000
0000
0001
0000
0000
0000
0010
0000
0000
0000
0100
0000
0000
,
0000
1000
0000
0000
0000
0010
0000
0000
1000
0000
0001
0000
0000
0010
0000
0001
,
0000
1000
0000
0010
0000
0000
0100
0000
0020
1030
0000
0000
0000
0001
0000
0010
,
0000
0001
0000
0000
0100
0000
0002
1003
0000
0000
0000
1000
0000
0200
0310
0000
,
0000
0000
0000
0000
0000
0000
0010
0000
0000
0000
0000
0000
0200
0000
0000
1300
0000
0000
0000
0000
0000
0001
0000
0000
0000
0000
0000
0000
0000
0000
0100
0000
0000
0000
0000
0000
0000
0000
0010
0000
0000
0000
0000
0000
0000
0000
1000
0000
,
0000
0000
0000
0001
0000
0000
0000
0010
0000
0000
0000
0001
0000
0000
0000
0100
0000
0000
0000
0000
0000
0010
0000
0000
,
0000
1000
0000
0002
0013
0000
0000
0000
0001
0000
0000
0100
0000
0010
0000
0000
,
1000
0000
0000
0000
0000
0000
0200
0000
0000
0310
0000
0000
0000
0000
0000
0000
0000
0000
0000
0000
0001
0000
0000
0000
0000
0000
0000
0000
1000
0000
0000
0000
0001
0000
0000
0000
1000
0000
0000
0000
0000
0000
0000
0000
0000
0000
0000
0000
,
0010
0000
0000
0000
0000
0100
0000
0010
0000
0100
0000
0010
0000
1000
0000
0001
,
0000
1000
0000
0001
0000
0010
0000
0100
0000
0010
0000
0100
0000
1000
0000
0001
,
0000
1000
0000
0001
2000
0000
0000
0000
0000
0000
0000
0000
0000
0000
0000
0000
,
0000
0000
3000
0000
0000
0000
0000
0001
,
0100
0000
0010
0000
0110
0000
0000
0000
0100
0001
0000
0000
0101
0000
0000
0000
,
0001
0010
0000
0000
0011
0000
0000
0000
0010
0100
0000
0000
1000
0000
0010
0000
,
0100
0001
1001
0000
1000
0000
0010
1000
,
0001
0000
0000
0000
0200
0300
0200
0300
1000
0000
0001
0000
0100
0000
0000
0000
,
0001
0000
0000
0000
0020
0030
0020
0030
1000
0000
0001
0000
0100
0000
0000
0000
,
0001
0000
0000
0000
0020
0030
0020
0030
1000
0000
0000
0000
0200
0300
0200
0300
,
0001
0000
0011
0000
0010
0001
1000
0000
,
0010
0000
0000
0000
0200
0300
0200
0300
1000
0000
0000
0000
0010
0000
0100
0000
,
0001
0000
0000
0000
0020
0030
0020
0030
1000
0000
0100
0000
0010
0000
0000
0000
,
0001
0000
0000
0000
0200
0300
0200
0300
1000
0000
0000
0000
0020
0030
0020
0030
,
0001
0000
0101
0000
0100
0010
1000
0000
,
0001
0000
0000
0000
0020
0030
0020
0030
1000
0000
0000
0000
0100
0000
1000
0000
,
0001
0000
0000
0000
0200
0300
0200
0300
1000
0000
0001
0000
0100
0000
0000
0000
,
0001
0000
0000
0000
0020
0030
0020
0030
1000
0000
0000
0000
0200
0300
0200
0300
,
0001
0000
0010
0000
0001
0100
0010
0000
,
1000
0100
0010
0000
0001
1000
0010
0000
,
1000
0001
0010
0001
1000
0001
0010
0000
,
0100
0000
0000
1000
0000
0000
0010
0000
0000
0000
0000
0000
1000
0000
0000
0001
0000
0000
0010
0000
0001
0000
1000
0000
,
0001
0000
0000
0000
1001
0000
2002
3003
0022
0033
2020
3030
0110
0000
0000
0000
,
0000
0000
0000
0000
0000
0000
0000
1010
,
2020
3030
2002
3003
0022
0033
0110
0000
0000
0000
0000
0000
0000
0000
0000
0000
,
0000
0000
0000
0000
0000
0000
0000
0000
0011
0000
0022
0033
0202
0303
2020
3030
,
1100
0000
0000
0000
,
0000
0000
1100
0000
2200
3300
2002
3003
0022
0033
0110
0000
0000
0000
0000
0000
,
0000
0000
0000
0000
0000
0000
0000
0000
0000
0000
0000
0000
0110
0000
0220
0330
,
0022
0033
0202
0303
2020
3030
0220
0330
0000
0000
0000
0000
0000
0000
0000
0000
,
0000
0000
1010
0000
2020
3030
2002
3003
0022
0033
1001
0000
0000
0000
0000
0000
,
0000
0000
0000
0001
,
0100
0010
1000
0000
0001
0010
0100
0000
,
1000
0001
0100
0000
0010
0000
1010
0000
,
0011
0101
1100
2002
,
0000
0000
0000
0000
3003
0000
1000
0010
,
0100
0001
1000
0010
0100
0001
0010
0000
,
0100
0000
1100
0000
1000
0001
0100
0001
,
0010
0100
1000
0000
0010
0000
0110
0000
,
1000
0000
0001
0000
0010
0000
0100
0010
,
0001
1000
0100
0010
0001
1000
0010
0100
,
0010
0000
0000
0000
0000
0000
1000
0000
0000
0001
0000
0000
0010
0000
0000
0000
0000
0000
0100
0000
0010
0000
0100
0000
,
1000
0001
1000
0010
0000
0000
0200
0000
0000
0301
0000
0000
,
0010
0001
1000
0000
0000
0000
1001
0000
,
0001
0000
1000
0000
0001
0000
1000
0000
0000
0000
0000
0000
0001
0000
1000
0000
0001
0000
1000
0000
0000
0010
0000
0000
,
0100
0001
0010
0000
0001
0000
0101
0000
,
1010
0000
0101
0000
0100
0010
1000
0000
,
0100
0010
0000
0011
,
0110
0000
0000
0011
0000
0000
0001
0000
0000
1000
0001
1000
,
0001
0100
0010
0000
1000
0000
0001
0010
,
0100
1000
0010
0000
0110
0000
0100
0000
,
0002
2000
0000
3003
,
1000
0000
0100
1000
0001
0000
0100
0010
,
1000
0001
0010
0000
0100
0000
0010
0001
,
0100
0000
0010
1000
0100
1000
0020
0000
,
0130
0000
0000
0000
0000
0000
0000
0000
0100
0000
0000
0000
0001
0000
0000
0000
0000
0000
0000
0000
0001
0000
0000
0000
1000
0000
0000
0000
0000
0000
0200
0000
0000
0300
0000
0000
0200
0000
0000
0300
0000
0000
0001
0000
0000
0000
0000
0000
,
0010
0000
0001
0100
0010
0000
1000
0001
,
0010
0100
1000
0010
0100
0000
0010
1000
,
0001
0000
0010
0000
0100
1000
0002
0000
,
0103
0000
0001
0000
0200
0300
0200
0300
1000
0000
0200
0300
0200
0300
0010
0000
,
1000
0001
1000
0001
1000
0000
0100
0010
,
0001
0000
1000
0010
0100
0001
1000
0001
,
0010
0100
1000
0000
0001
0100
0010
0100
,
0001
0000
0010
0100
1000
0010
0100
0001
,
0100
0010
1000
0100
0010
0001
1000
0000
,
0001
0100
0001
0000
1000
0100
1000
0000
,
0001
0010
0100
1000
0001
0100
0010
1000
,
0001
0010
0001
0100
0010
1000
0100
1000
,
0020
0000
0000
0030
0000
0000
2020
3030
2002
3003
0022
0033
,
0220
0000
0000
0330
0000
0000
0220
0330
2200
3300
2002
3003
,
0202
0000
0000
0303
0000
0000
0202
0303
0022
0033
0220
0330
,
2002
0000
0000
0000
,
0000
0000
0000
0000
,
0000
0000
0000
0000
,
3003
0000
0000
0000
;

//--------------- dance-single - D0omsday ----------------
#NOTES:
     dance-single:
     D0omsday:
     Medium:
     15:
     0,0,0,0,0:
0000
0000
0000
0000
,
0000
0000
0000
0000
,
0000
0000
0000
0000
,
0000
0000
0000
0000
,
0000
0000
0000
0000
,
1001
0000
0000
1001
0000
0000
1001
0000
0000
0000
0001
0000
0100
0000
0010
0000
,
1010
0000
0000
1010
0000
0000
1010
0000
2000
0000
0000
0000
3100
0000
0010
0000
,
0001
0000
1000
0000
0010
0000
0100
0000
0001
0000
1000
0000
0100
0010
0000
0100
,
0010
0001
1000
0010
0100
0010
1000
0001
,
0010
0000
0100
0000
1000
0000
0001
0000
0100
0000
0010
0100
0000
0001
0000
0010
,
0100
0000
1000
0000
0010
0000
1000
0002
0103
0000
0010
0000
0100
0000
0001
0000
,
0010
0000
0001
0000
0100
0010
0000
1000
0000
0100
0000
0000
0000
1000
0001
0000
,
0100
0010
0100
0001
0010
0100
1000
0010
,
0100
0000
0000
0000
0000
0000
0010
0000
0000
0000
0000
0000
1000
0000
0000
0001
0000
0000
0000
0000
0000
0010
0000
0000
0000
0000
0000
0001
0000
0000
1000
0000
0000
0000
0010
0000
0000
0000
1000
0000
0000
0000
0001
0000
0000
0000
0010
0000
,
0000
0100
0000
0000
0000
0010
0000
0001
0000
1000
0000
0010
0000
0100
0000
0001
0000
0000
0010
0000
0000
0001
0000
0000
,
0100
0000
0010
0000
1000
0100
0000
0010
0000
0001
1000
0000
0001
0000
0100
0000
,
0010
0000
0100
0001
0000
2000
3100
0000
0010
0000
0100
0000
1000
0000
0001
0000
,
0100
0010
0000
1000
0000
0100
1000
0000
0010
0000
0100
0001
0000
0020
0130
0000
,
0010
0000
0001
0000
1000
0000
0010
0000
1000
0000
0100
0010
0000
0100
0000
1000
,
0001
0000
0000
0100
0000
0000
0010
0000
0000
1000
0000
0000
0001
0000
0000
0010
0000
0000
0001
0000
1000
0000
0001
0000
,
1000
0000
0000
0000
2010
3001
0000
0000
0000
0012
0103
0000
0000
0000
0210
0301
,
0000
0000
0000
0010
0000
0000
0000
0000
0000
0001
0000
0000
0000
0000
0000
1000
0000
0000
0000
0010
0000
0000
0000
0100
0000
0000
0000
0001
0000
0000
0000
1000
0000
0000
0000
0100
0000
0000
0000
0010
0000
0000
0000
0001
0000
0000
0000
0010
,
0000
0000
0000
0100
0000
0000
0000
1000
0000
0000
0000
0010
0000
0000
0000
0100
0000
0000
0000
0000
0000
0001
0000
0000
1000
0000
0000
0000
0000
0000
0100
0000
0000
0000
0000
0000
1000
0000
0000
0001
0000
0000
0000
0000
0000
0100
0000
0000
,
0000
0001
0000
0010
0000
0100
1000
0000
0002
0013
0000
0001
0000
0100
0000
0010
,
0000
1000
0000
0000
0001
0000
0012
0013
0000
0000
0000
0100
0000
0210
0310
0000
,
0000
0000
0000
0000
0000
0000
0100
0000
0000
0000
0000
0000
1200
0000
0000
1300
0000
0000
0000
0000
0000
0010
0000
0000
0000
0000
0000
0000
0000
0000
1000
0000
0000
0000
0100
0000
0000
0000
1000
0000
0000
0000
0001
0000
0000
0000
0010
0000
,
0000
0001
0000
1000
0000
0010
0000
1000
0000
0001
0000
0100
0000
0001
0000
1000
0000
0000
0100
0000
0000
1000
0000
0000
,
0001
0100
0000
0020
0130
0000
0001
0000
1000
0000
0100
0010
0000
0100
0000
1000
,
0001
0000
0000
0000
0000
0000
0200
0000
0000
0310
0000
0000
1000
0000
0000
0000
0001
0000
0000
0000
1000
0000
0000
0000
0100
0000
0000
0000
0010
0000
0000
0000
0001
0000
0000
0000
1000
0000
0000
0000
0000
0000
0010
0000
0000
0000
0000
0000
,
0100
0000
0010
0000
0000
1000
0000
0001
0000
0010
0000
0001
0000
0100
0000
0001
,
1000
0001
0000
1000
0001
1000
0000
0100
0000
0010
0001
0000
1000
0010
0000
0100
,
0000
0010
0000
1000
0200
0000
0000
0000
0000
0000
0000
0000
0000
0000
0000
0000
,
0000
0000
0000
0000
0300
0000
0000
0000
0000
0000
0000
0000
0000
0000
1000
0010
,
0100
0001
0010
0100
1000
0000
0000
0000
1000
0010
0000
0000
1010
0000
0000
0000
,
0010
0100
0000
0000
0110
0000
0000
0000
0100
0001
0000
0000
0010
0100
0010
0100
,
1000
0001
1000
0001
0100
0000
0000
0000
0010
0000
1000
0000
0100
0000
0010
0000
,
0001
0000
0000
0000
0200
0300
0200
0300
1000
0000
0010
0000
1000
0000
0100
0000
,
0010
0000
0001
0000
0200
0300
0200
0300
1000
0000
0001
0000
0010
0000
0001
0000
,
1000
0000
0000
0000
0020
0030
0020
0030
0001
0000
1000
0000
0020
0030
0020
0030
,
0001
0000
1001
0000
1000
0010
1000
0100
,
0010
0000
0000
0000
0200
0300
0200
0300
0001
0000
0100
0000
0010
0000
1000
0000
,
0100
0000
1000
0000
0020
0030
0020
0030
0001
0000
0100
0000
0010
0000
0100
0000
,
0001
0000
0000
0000
0020
0030
0020
0030
1000
0000
0001
0000
0020
0030
0020
0030
,
1000
0000
1001
0000
0001
0100
0010
1000
,
0001
0000
0000
0000
0020
0030
0020
0030
1000
0000
0100
0000
0010
0000
0100
0000
,
1000
0000
0001
0000
0200
0300
0200
0300
1000
0000
0010
0000
0100
0000
0001
0000
,
0010
0000
0000
0000
0200
0300
0200
0300
0001
0000
1000
0000
0200
0300
0200
0300
,
0001
0000
0010
0001
0100
0001
0010
0100
,
1000
0010
0100
0001
1000
0001
0100
0010
,
1000
0100
0010
0100
1000
0001
0010
0001
,
0100
0000
0000
0010
0000
0000
1000
0000
0000
0100
0000
0000
1000
0000
0000
0010
0000
0000
0100
0000
0001
0000
0010
0000
,
0100
0000
0000
0000
0010
0000
0000
0000
0001
0000
0000
0000
0100
0000
0000
0000
0000
0000
0220
0000
0000
0330
0000
0000
2020
0000
0000
3030
0000
0000
2002
0000
0000
3003
0000
0000
0011
0000
0000
0000
0000
0000
0000
0000
0000
0000
0000
0000
,
0001
0010
0100
1000
0001
0100
0000
0010
,
2020
0000
0000
3030
0000
0000
2002
0000
0000
3003
0000
0000
0022
0000
0000
0033
0000
0000
0110
0000
0000
0000
0000
0000
0100
0000
0000
0000
0000
0000
1000
0000
0000
0000
0000
0000
0001
0000
0000
0000
0100
0000
0000
0000
0001
0000
0000
0000
,
1000
0000
0000
0000
0010
0000
0000
0000
1000
0000
0000
0000
0200
0000
0000
0000
0000
0000
0000
0000
0000
0000
0000
0000
0310
0000
0000
0000
0000
0000
0022
0000
0000
0033
0000
0000
0202
0000
0000
0303
0000
0000
0220
0000
0000
0330
0000
0000
,
1010
0000
0000
0000
0000
0000
0000
0000
0000
0000
0000
0000
0000
0000
0000
0000
0000
0000
0000
0000
0000
0000
0000
0000
0000
0000
0000
0000
0000
0000
0000
0000
0000
0000
0000
0000
0000
0000
0000
0000
0000
0000
0000
0000
0000
0000
0000
0000
0000
0000
0000
0000
1000
0000
0000
0000
0000
0000
0000
0000
0000
0000
0000
0000
0000
0000
0000
0000
0000
0001
0000
0000
0000
0000
0000
0000
0000
0000
0000
0000
0000
0000
0000
0000
0000
0000
1000
0000
0000
0000
0000
0000
0000
0000
0000
0000
0000
0000
0000
0000
0000
0000
0000
0000
0001
0000
0000
0000
0000
0000
0000
0000
0000
0000
0000
0000
0000
0000
0000
0000
0010
0000
0000
0000
0000
0000
0000
0000
0000
0000
0000
0000
0000
0000
0000
0000
0000
0000
0000
0000
0000
0000
0000
0000
0001
0000
0000
0000
0000
0000
0000
0000
0000
0000
0000
0000
0000
0000
0000
0000
0000
0000
0000
0000
0000
0000
0000
0000
0100
0000
0000
0000
0000
0000
0000
0000
0000
0000
0000
0000
0000
0000
0000
0000
0000
0000
0000
0000
0000
0000
0000
0000
,
0010
0000
1000
0000
2002
3003
0022
0033
0220
0330
1100
0000
0000
0000
0000
0000
,
1000
0000
0000
0000
0100
0000
0000
0000
0010
0000
0000
0000
0001
0000
0000
0000
0000
0000
0100
0000
0000
0000
0000
0000
0010
0000
0000
0000
0000
0000
0000
0000
0000
0000
0000
0000
1000
0000
0000
0000
0000
0000
2020
0000
0000
3030
0000
0000
,
2002
3003
0022
0033
0220
0330
2200
3300
1000
0001
1000
0000
0001
0000
0100
0000
,
0000
0000
0010
0000
2020
3030
2200
3300
0220
0330
0011
0000
0010
0000
0001
0000
,
1000
0000
0000
0000
0000
0000
0001
0000
0000
1000
0000
0000
0001
0000
0000
0000
1000
0000
0000
0000
0010
0000
0000
0000
1000
0000
0000
0000
0001
0000
0000
0000
0010
0000
0000
0000
0001
0000
0000
0000
0000
0000
0100
0000
0000
0000
0000
0000
,
0010
1000
0100
1000
0001
0100
0010
1000
,
0100
0010
0001
0010
0100
1000
1100
0000
,
1001
0101
0110
2002
,
0000
0000
0000
0000
3003
0000
0001
0010
,
0100
1000
0010
0000
1010
0000
0101
0001
,
0020
0030
0020
0030
0020
0030
0001
0000
0100
0000
0010
0000
1000
0000
0200
0300
,
0200
0000
0000
0300
0000
0000
0200
0000
0000
0300
0000
0000
0200
0000
0000
0300
0000
0000
0001
0000
0000
0000
0000
0000
1000
0000
0000
0000
0010
0000
0000
0000
0100
0000
0000
0000
0001
0000
0000
0000
0000
0000
0000
0000
0000
0000
0000
0000
,
0011
0000
1100
0000
0000
0000
1000
0010
,
0100
0000
0001
0000
0010
0000
0001
0000
0200
0300
0200
0300
0020
0030
0020
0030
,
1000
0000
0000
0000
0000
0000
0100
0000
0000
0000
0000
0000
0020
0000
0000
0030
0000
0000
0020
0000
0000
0030
0000
0000
1000
0000
0000
0000
0000
0000
0001
0000
0000
0000
0000
0000
0100
0000
0000
0000
0010
0000
0000
0000
1000
0000
0000
0000
,
0100
0010
0001
0100
0010
1000
0002
0000
0000
0013
0000
0000
,
0100
1000
0001
0000
0000
0000
1001
0000
,
0001
0000
0000
0000
0100
0000
0000
0000
0010
0000
0000
0000
1000
0000
0000
0000
0000
0000
0000
0000
0000
0000
0000
0000
0010
0000
0000
0000
1000
0000
0000
0000
0001
0000
0000
0000
0200
0000
0000
0300
0000
0000
0200
0000
0000
0300
0000
0000
,
0200
0000
0000
0300
0000
0000
0200
0000
0000
0300
0000
0000
1000
0000
0000
0000
0100
0000
0000
0000
0010
0000
0000
0000
0002
0000
0000
0000
0000
0000
0003
0000
0000
0000
0000
0000
1001
0000
0000
0000
0000
0000
0000
0000
0000
0000
0000
0000
,
1010
0000
0011
0000
0001
0100
0010
0000
,
1010
0000
1100
0000
0000
0000
1000
0001
,
0100
0000
0000
0010
0000
0000
1000
0000
0000
0100
0000
0000
0010
0000
0001
0000
1000
0000
0010
0000
1000
0000
0001
0000
,
0010
0000
0100
0000
1000
0000
0010
0000
1000
0000
0001
0000
0100
0000
0020
0030
,
0020
0030
0020
0030
0020
0030
0001
0000
1000
0000
0010
0000
0100
0000
0000
0000
,
0002
2000
0000
3003
,
1000
0100
0010
0100
1000
0001
0100
0010
,
1000
0001
0010
0100
0010
0001
0100
0010
,
1000
0001
0010
0100
1000
0010
0200
0000
,
0300
0000
0010
0000
1000
0000
0001
0000
0010
0000
0001
0000
1000
0000
0000
0100
0000
0000
0010
0000
0000
0001
0000
0000
,
1000
0010
0100
0010
1000
0100
0010
0001
,
1000
0001
0100
0001
0010
0100
1000
0010
,
0100
0010
1000
0001
1000
0100
0020
0000
,
0031
0010
0001
0000
0000
0000
1000
0010
1000
0000
0000
0000
0001
1000
0001
0000
,
0100
0010
1000
0100
0010
1000
0010
0100
,
1000
0001
0100
0010
1000
0001
0100
0010
,
0001
0010
0100
0001
1000
0100
0010
0001
,
1000
0010
0100
0001
0010
1000
0010
0100
,
1000
0001
0100
0010
1000
0001
0010
0100
,
0001
0100
1000
0001
0100
0010
1000
0100
,
0010
0001
1000
0010
0100
0001
0100
0010
,
0001
0010
1000
0100
0001
0100
1000
0010
,
0220
0000
0330
0100
0001
1000
0200
0300
0220
0330
0022
0033
,
2002
0000
3003
0001
0100
0010
2000
3000
2002
3003
0022
0033
,
0220
0000
0330
0100
1000
0010
0200
0300
0202
0303
0022
0033
,
2002
0000
0000
0000
,
0000
0000
0000
0000
,
0000
0000
0000
0000
,
3003
0000
0000
0000
;

//--------------- dance-single - D0omsday ----------------
#NOTES:
     dance-single:
     D0omsday:
     Hard:
     18:
     0,0,0,0,0:
0000
0000
0000
0000
,
0000
0000
0000
0000
,
0000
0000
0000
0000
,
0000
0000
0000
0000
,
0000
0000
0000
0000
,
1100
0000
0000
1010
0000
0000
1001
0000
0000
0000
0001
0000
0010
0000
0100
0000
,
0010
0000
0000
0011
0000
0000
0101
0000
0200
0000
0000
0000
0310
1000
0010
0000
,
0100
0000
0001
0000
0010
0001
0010
0000
0100
0000
1000
0000
0010
0100
0000
0001
,
1000
0000
0100
0000
0010
0000
0001
0000
1000
0010
1000
0000
0001
0010
0001
0000
,
1000
0001
0010
0000
0100
1000
0000
0100
1000
0000
0001
0100
0000
0010
0000
0100
,
0001
1000
0100
0000
0010
0100
0000
2000
3010
0100
0001
0000
0010
0000
0100
0010
,
0000
0100
0010
0000
0001
1000
0000
0010
0000
0100
0000
0000
0000
0010
1000
0000
,
0001
0000
0010
0100
1000
0000
0001
0000
0100
0000
0010
1000
0001
0000
0010
0100
,
0000
0000
0000
0010
0000
0000
0100
0000
0000
0000
0000
0000
1000
0000
0000
0100
0000
0000
0000
0000
0000
0010
0000
0000
0000
0000
0000
0001
0000
0000
0100
0000
0000
0000
0001
0000
0000
0000
0010
0000
0000
0000
0100
0000
0000
0000
1000
0000
,
0000
0000
0001
0000
0000
0000
0000
0000
0000
0000
0100
0000
0000
0000
0010
0000
0000
0000
0100
0000
0000
0000
0001
0000
0000
0000
0010
0000
0000
0000
0100
0000
0000
1000
0000
0000
0100
0000
0000
0000
0000
0000
0010
0000
0000
0001
0000
0000
,
1000
0000
0010
0000
0100
0001
0000
0010
0000
0100
0010
0001
1000
0000
0010
0000
,
0100
0000
0001
0010
0000
0200
1300
0010
0100
0000
0001
0000
1000
0000
0100
0000
,
0010
0100
0000
1000
0000
0010
0100
0001
0010
0000
0001
1000
0000
0020
0130
0000
,
0001
0010
0100
0000
1000
0001
0000
1000
0001
0000
1000
0010
0000
0100
0000
0001
,
0010
0000
0000
0000
0000
0000
0001
0000
0000
0000
0000
0000
0100
0000
0000
0000
0000
0000
0010
0000
0000
1000
0000
0000
0001
0000
0000
0000
0000
0000
0010
0000
0000
0000
0000
0000
0100
0000
0000
0000
0010
0000
0000
0000
0100
0000
0000
0000
,
1000
0001
1000
0001
2000
3001
1000
0001
1000
0002
1003
0001
1000
0001
2000
3001
,
1000
0000
0000
0001
0000
0000
1000
0000
0000
0001
0000
0000
0100
0000
0000
0010
0000
0000
0000
1000
0000
0000
0000
0001
0000
0000
0000
0010
0000
0000
0000
0100
0000
0000
0000
0010
0000
0000
0000
0001
0000
0000
0000
1000
0000
0000
0000
0010
,
0000
0000
0000
0100
0000
0000
0000
0001
0000
0000
0000
1000
0000
0000
0000
0100
0000
0000
0000
0000
0000
0010
0000
0000
0001
0000
0000
0000
0000
0000
0100
0000
0000
0000
0000
0000
0010
0000
0000
1000
0000
0000
0000
0000
0000
0001
0000
0000
,
0000
0010
0100
1000
0010
0000
0100
0000
0002
1003
0010
0100
0000
0001
0000
0010
,
0000
0001
1000
0001
1000
0000
0020
1030
0001
1000
0001
1000
0000
0020
1030
0001
,
1000
0000
0000
0001
0000
0000
1000
0000
0000
0000
0000
0000
0020
0000
0000
1030
0000
0000
0000
0000
0000
0100
0000
0000
0000
0000
0000
0000
0000
0000
0010
0000
0000
0000
0001
0000
0000
0000
1000
0000
0000
0000
0010
0000
0000
0000
1000
0000
,
0000
0000
0001
0000
0000
0000
0100
0000
0000
0000
0001
0000
0000
0000
1000
0000
0000
0000
0100
0000
0000
0000
1000
0000
0000
0000
0001
0000
0000
0000
0010
0000
0000
0100
0000
0000
0000
0000
0000
0010
0000
0000
0100
0000
0000
0000
0000
0000
,
1000
0001
0000
0200
0310
1000
0001
0000
0010
0000
0100
1000
0000
0001
0000
0100
,
0010
0000
0000
0000
0000
0000
0200
0000
0000
0301
0000
0000
1000
0000
0000
0000
0100
0000
0000
0000
0010
0000
0000
0000
0001
0000
0000
0000
0100
0000
0000
0000
0010
0000
0000
0000
1000
0000
0000
0000
0000
0000
0001
0000
0000
0010
0000
0000
,
0001
0000
1000
0000
0000
0010
0000
0100
0000
0001
0000
1000
0000
0100
0000
0010
,
0100
1000
0000
0001
0100
0010
0000
1000
0000
0001
0010
0000
0001
0010
0000
0100
,
0000
0010
0001
1000
0020
0000
0000
0000
0000
0000
0000
0000
0000
0000
0000
0000
,
0000
0000
0000
0000
0000
0000
0000
0000
0030
0000
0000
0000
0000
0000
0000
0000
0000
0000
0000
0000
0000
0000
0000
0000
0000
0000
0000
0000
1000
0010
1000
0000
,
0100
0000
0010
0000
0001
0000
0100
0010
0100
0000
0000
0000
0000
0000
0000
0000
0100
0000
0001
0000
0000
0000
0000
0000
0101
0000
0000
0000
0000
0000
0000
0000
,
0001
0000
0010
0000
0000
0000
0000
0000
0110
0000
0000
0000
0000
0000
0000
0000
0100
0000
1000
0000
0000
0000
0000
0000
1000
0010
1000
0000
0001
0000
0010
0100
,
0010
0100
1000
0001
2001
0000
0000
0000
3010
0000
1000
0000
0001
0000
0010
0100
,
0010
0000
0000
0000
0200
0300
0200
0300
0001
0000
1000
0010
1000
0000
0010
0000
,
0100
0000
0001
0000
0020
0030
0020
0030
1000
0000
0100
0010
0100
0000
1000
0000
,
0001
0000
0000
0000
0200
0300
0200
0300
1000
0001
0100
0000
0020
0030
0020
0030
,
0001
0000
0000
0000
2001
0000
0000
0000
3010
0000
0100
0001
0100
0000
0010
0000
,
1000
0000
0000
0000
0200
0300
0200
0300
0001
0000
0010
0100
0010
0000
0001
0000
,
0100
0000
0001
0000
0020
0030
0020
0030
1000
0000
0001
0010
0001
0000
0100
0000
,
0010
0000
0000
0000
0200
0300
0200
0300
1000
0001
0100
0000
0020
0030
0020
0030
,
0001
0000
0000
0000
1002
0000
0000
0000
0103
0000
0010
1000
0010
0000
0100
0000
,
0001
0000
0000
0000
0020
0030
0020
0030
1000
0000
0100
0010
0100
0000
1000
0000
,
0010
0000
1000
0000
0200
0300
0200
0300
0001
0000
1000
0010
1000
0000
0001
0000
,
0010
0000
0000
0000
0200
0300
0200
0300
0001
1000
0100
0000
0020
0030
0020
0030
,
1000
0000
0000
0000
0010
0100
0010
0000
1000
0000
0001
0000
0010
0100
0010
0000
,
0001
0000
0100
0000
0010
1000
0010
0000
0100
0000
0001
0000
1000
0100
1000
0000
,
0100
0000
0010
0000
0001
0100
0001
0000
1000
0100
1000
0000
0001
0010
0001
0000
,
1000
0000
0000
0010
0000
0000
1000
0000
0000
0000
0000
0000
0100
0000
0000
0000
0000
0000
0010
0000
0000
0000
0000
0000
0001
0000
0000
0000
0000
0000
0100
0000
0000
0000
0000
0000
0010
0000
0000
0000
1000
0000
0000
0000
0100
0000
0000
0000
,
0010
0000
0000
0000
0100
0000
0000
0000
1000
0000
0000
0000
0001
0000
0000
0000
0000
0000
0202
0000
0000
0303
0000
0000
0220
0000
0000
0330
0000
0000
2020
0000
0000
3030
0000
0000
1100
0000
0000
0000
0000
0000
1000
0000
0000
0000
0000
0000
,
0001
0000
0010
0100
0010
0000
0001
0000
1000
0000
0010
0100
0010
0000
1000
0000
,
2020
0000
0000
3030
0000
0000
2200
0000
0000
3300
0000
0000
2002
0000
0000
3003
0000
0000
0101
0000
0000
0000
0000
0000
0100
0000
0000
0010
0000
0000
0100
0000
0000
0000
0000
0000
0001
0000
0000
0000
0010
0000
0000
0000
0100
0000
0000
0000
,
1000
0000
0000
0000
0010
0000
0000
0000
0100
0000
0000
0000
0002
0000
0000
0000
0000
0000
0000
0000
0003
0000
0000
0000
0011
0000
0000
0000
0000
0000
0022
0000
0000
0033
0000
0000
0220
0000
0000
0330
0000
0000
2200
0000
0000
3300
0000
0000
,
1001
0000
0000
0000
0000
0000
0000
0000
0000
0000
0000
0000
0000
0000
0000
0000
0000
0000
0000
0000
0000
0000
0000
0000
0000
0000
0000
0000
0000
0000
0000
0000
0000
0000
0000
0000
0000
0000
0000
0000
0000
0000
0000
0000
0000
0000
0000
0000
0000
0000
0000
0000
1000
0000
0000
0000
0000
0000
0000
0000
0000
0000
0000
0000
0000
0000
0000
0000
0000
0001
0000
0000
0000
0000
0000
0000
0000
0000
0000
0000
0000
0000
0000
0000
0000
0000
1000
0000
0000
0000
0000
0000
0000
0000
0000
0000
0000
0000
0000
0000
0000
0000
0000
0000
0001
0000
0000
0000
0000
0000
0000
0000
0000
0000
0000
0000
0000
0000
0000
0000
0010
0000
0000
0000
0000
0000
0000
0000
0000
0000
0000
0000
0000
0000
0000
0000
0000
0000
0000
0000
0000
0000
0000
0000
0001
0000
0000
0000
0000
0000
0000
0000
0000
0000
0000
0000
1000
0000
0000
0000
0000
0000
0000
0000
0000
0000
0000
0000
0001
0000
0000
0000
0000
0000
0000
0000
0000
0000
0000
0000
0000
0000
0000
0000
0000
0000
0000
0000
0000
0000
0000
0000
,
0100
0000
0110
0000
0220
0330
2020
3030
2002
3003
0011
0000
0010
0000
0000
0000
,
0001
0000
0000
0000
0100
0000
0000
0000
0010
0000
0000
0000
1000
0000
0000
0001
0000
0000
1000
0000
0000
0001
0000
0000
1000
0000
0000
0000
0000
0000
0000
0000
0000
0000
0000
0000
1100
0000
0000
0000
0000
0000
2200
0000
0000
3300
0000
0000
,
0220
0330
0022
0033
2002
3003
2020
3030
0010
1000
0010
0000
0100
0000
0001
0000
,
0000
0000
0011
0000
0022
0033
0220
0330
2200
3300
1001
0000
0001
0000
0100
0000
,
0010
0000
0000
0000
0000
0000
1000
0000
0000
0001
0000
0000
1000
0000
0000
0000
0100
0000
0000
0000
0010
0000
0000
0000
0001
0000
0000
0000
0010
0000
0000
0000
0100
0000
0000
0000
1000
0000
0000
0000
0000
0000
0001
0000
0000
0000
0000
0000
,
0100
0000
0020
0030
0020
0030
0100
0000
1000
0000
0020
0030
0020
0030
0001
0000
,
1000
0000
0200
0300
0200
0300
0001
0000
1000
0000
0020
0030
0020
0030
0000
0000
,
0011
0101
1010
2002
,
0000
0000
0000
0000
3003
0000
1001
0001
,
0011
0000
0010
0000
0110
0000
0100
0000
1100
0000
1000
0000
1010
0000
0010
0100
,
0010
0000
0100
0000
0101
0000
0001
0000
1000
0001
1000
0000
0010
0000
0200
0300
,
0200
0000
0000
0300
0000
0000
0200
0000
0000
0300
0000
0000
0001
0000
0000
0000
0010
0000
0000
0000
0001
0000
0000
0000
1000
0000
0000
0000
0010
0000
0000
0000
1000
0000
0000
0000
0100
0000
0000
0000
0000
0000
0000
0000
0000
0000
0000
0000
,
0110
0000
0000
0000
0001
0000
0000
0000
1000
0000
0000
0000
0010
0000
1000
0001
,
0010
0000
0001
1000
0010
0000
1000
0001
0010
0000
0001
0000
0200
0300
0200
0300
,
1000
0000
0000
0000
0000
0000
0001
0000
0000
0000
0000
0000
0100
0000
0000
0000
0000
0000
0020
0000
0000
0030
0000
0000
0020
0000
0000
0030
0000
0000
0001
0000
0000
1000
0000
0000
0001
0000
0000
0000
0100
0000
0000
0000
0010
0000
0000
0000
,
1000
0100
0010
0001
0100
0010
2000
0000
0000
3100
0000
0000
,
0110
0001
0000
1001
,
0001
0000
0000
0000
0020
0000
0030
0000
0020
0000
0030
0000
1000
0000
0000
0000
0000
0000
0000
0000
0000
0000
0000
0000
0001
0000
0000
0000
0200
0000
0300
0000
0200
0000
0300
0000
1000
0000
0000
0000
0000
0000
0010
0000
0000
0100
0000
0000
,
0010
0000
0000
0000
0000
0000
0100
0000
0000
0000
0000
0000
0001
0000
0000
0000
1000
0000
0000
0000
0100
0000
0000
0000
0020
0000
0000
0000
0000
0000
0000
0000
0000
0000
0000
0000
0031
0000
0000
0010
0000
0000
0001
0000
0000
0000
0000
0000
,
1000
0010
1000
0000
0001
0100
0001
0000
1000
0100
1000
0000
0010
0000
0000
0000
,
0110
0000
0000
0000
0001
0000
0000
0000
0000
0000
0000
0000
1000
0000
0001
0010
,
0100
0000
0000
0000
0000
0000
1000
0000
0000
0010
0000
0000
0100
0000
0000
0000
0000
0000
0001
0000
0000
0010
0000
0000
0100
0000
0000
0000
0010
0000
0000
0000
0001
0000
0000
0000
1000
0000
0000
0000
0010
0000
0000
0000
0100
0000
0000
0000
,
0001
0000
0020
0030
0020
0030
1000
0001
1000
0000
0100
0000
1000
0000
0020
0030
,
0020
0030
0020
0030
0020
0030
0001
0000
0100
0000
0001
0000
0011
0000
0000
0000
,
0110
2000
0000
3001
,
1000
0010
0100
0010
0001
0010
0100
0001
,
1000
0100
0010
1000
0010
0100
1000
0001
,
0100
0010
1000
0001
0010
0100
0002
0000
,
0003
0000
0000
0000
0100
0000
0000
0000
0010
0000
0000
0000
0001
0000
0000
0000
0100
0000
0000
0000
0010
0000
0000
0000
1000
0000
0000
0000
0000
0000
0020
0000
0000
0030
0000
0000
0020
0000
0000
0030
0000
0000
0001
0000
0000
0000
0000
0000
,
0010
0100
1000
0010
0001
0010
1000
0100
,
0001
0100
0010
0001
0100
1000
0100
0010
,
1000
0001
0010
1000
0010
0100
2000
0000
,
3001
0100
0001
0100
0001
0000
1000
0100
1000
0100
1000
0000
0001
1000
0001
1000
,
0001
0100
0010
0001
0010
1000
0001
0010
,
1000
0010
0100
1000
0001
0100
0010
0001
,
0010
1000
0100
0010
0001
0010
1000
0001
,
0100
0010
0001
0100
1000
0100
0001
1000
,
0010
1000
0100
0010
0001
0100
1000
0001
,
0010
1000
0001
0010
1000
0010
0001
0100
,
0010
0001
0010
0100
1000
0100
0001
1000
,
0100
0010
1000
0010
0100
0001
0100
1000
,
2002
0000
3003
1000
0010
0100
0202
0303
2002
3003
2200
3300
,
0220
0000
0330
0100
1000
0001
0022
0033
2002
3003
2020
3030
,
2200
0000
3300
1000
0001
0100
0220
0330
2020
3030
2200
3300
,
2002
0000
0000
0000
,
0000
0000
0000
0000
,
0000
0000
0000
0000
,
3003
0000
0000
0000
;

//--------------- dance-single - D0omsday (Hospital Visit Special) ----------------
#NOTES:
     dance-single:
     D0omsday (Hospital Visit Special):
     Challenge:
     20:
     0,0,0,0,0:
0000
0000
0000
0000
,
0000
0000
0000
0000
,
0000
0000
0000
0000
,
0000
0000
0000
0000
,
0000
0000
0000
0000
,
1100
0000
0000
1010
0000
0000
0101
0000
0000
0000
0001
0000
0010
0100
1000
0010
,
0100
0000
0000
0101
0000
0000
0021
0000
0100
0000
0000
0000
0031
0100
0010
1000
,
0200
0300
0200
0300
0001
0010
0100
1000
0020
0030
0020
0030
0001
0100
0010
1000
,
0001
0010
0200
0300
0200
0300
0001
0010
0100
1000
0001
0100
0010
1000
0100
0010
,
0001
1000
0010
1000
0001
0020
0030
0020
1030
0001
0010
0200
0000
1000
0000
0310
,
0001
1000
0020
0030
0020
0031
0100
0010
1000
0010
1000
0200
0010
0000
1300
0020
,
0030
0020
0031
0010
0100
2000
0000
0010
0000
3002
0000
0000
0000
0013
0001
0100
,
0020
0030
0020
0031
0200
0300
0200
1300
0010
1000
0001
0010
0200
0300
0200
0320
,
0030
0000
0000
0020
0000
0000
0031
0000
0000
1000
0000
0000
0010
0000
0000
0200
0000
0000
0000
0000
0000
0001
0000
0000
0000
0000
0000
0310
0000
0000
0100
0000
0000
0000
0010
0000
0000
0000
0001
0000
0000
0000
0010
0000
0000
0000
1000
0000
,
0000
0000
0200
0000
0000
0000
0300
0000
0000
0000
0200
0000
0000
0000
0301
0000
0000
0000
0010
0000
0000
0000
0100
0000
0000
0000
1000
0000
0000
0000
0001
0000
0000
0100
0000
0000
0010
0000
0000
1000
0000
0000
0001
0000
0000
0020
0000
0000
,
0030
0020
1030
0001
0010
0200
0000
1000
0000
0310
0001
0200
0010
0000
0301
1000
,
0100
0010
0100
0002
0003
0002
0013
0001
0200
0300
0200
1300
0010
0100
0001
1000
,
0100
0020
0000
0001
0000
0130
1000
0001
0200
0300
0200
0310
0001
1000
0020
0030
,
0020
0031
0200
0300
0200
0320
0030
0020
1030
0001
0100
0020
0000
1000
0000
0130
,
0001
0000
0000
1000
0000
0000
0100
0000
0000
0010
0000
0000
0001
0000
0000
0100
0000
0000
0001
0000
0000
0010
0000
0000
0100
0000
0000
0010
0000
0000
0001
0000
0000
0100
0000
0000
0010
0000
0000
0000
0100
0000
0000
0000
0001
0000
0000
0000
,
1000
0100
0001
0100
1000
0001
0100
1000
0100
0001
1000
0010
0001
0010
1000
0001
,
0010
0000
0000
1000
0000
0000
0010
0000
0000
0001
0000
0000
1000
0000
0000
0010
0000
0000
0000
0100
0000
0000
0000
0010
0000
0000
0000
1000
0000
0000
0000
0001
0000
0000
0000
0010
0000
0000
0000
0100
0000
0000
0000
1000
0000
0000
0000
0010
,
0000
0000
0000
1000
0000
0000
0000
0001
0000
0000
0000
0100
0000
0000
0000
0020
0000
0000
0030
0000
0000
0020
0000
0000
0032
0000
0000
0000
0000
0000
0100
0000
0000
0000
0000
0000
1003
0000
0000
0200
0000
0000
0000
0000
0000
0010
0000
0000
,
0000
1300
0010
0100
0001
0010
0200
0300
0200
0301
0010
0100
0010
0001
1000
0010
,
0100
0001
0010
0001
0010
0000
0011
0010
0100
0010
0100
0010
0000
0110
0100
1000
,
0100
0000
0000
1000
0000
0000
0100
0000
0000
0000
0000
0000
1100
0000
0000
2000
0000
0000
0000
0000
0000
0010
0000
0000
0000
0000
0000
0000
0000
0000
3001
0000
0000
0000
0100
0000
0000
0000
0010
0000
0000
0000
0001
0000
0000
0000
0010
0000
,
0000
0000
0100
0000
0000
0000
0001
0000
0000
0000
1000
0000
0000
0000
0100
0000
0000
0000
0010
0000
0000
0000
1000
0000
0000
0000
0010
0000
0000
0000
0100
0000
0000
1000
0000
0000
0001
0000
0000
0100
0000
0000
0020
0000
0000
0030
0000
0000
,
0020
0230
0300
0200
0301
0010
0001
0200
0300
0200
1300
0020
0030
0020
0031
0010
,
0100
0000
0000
1000
0000
0000
0010
0000
0000
0100
0000
0000
0001
0000
0000
0000
0010
0000
0000
0000
0001
0000
0000
0000
1000
0000
0000
0000
0010
0000
0000
0000
1000
0000
0000
0000
0100
0000
0000
0010
0000
0000
0001
0000
0000
0100
0000
0000
,
0020
0000
0032
0000
0003
0010
0000
1000
0000
0001
0000
0010
0000
1000
0000
0010
,
0001
1000
0000
0010
0100
1000
0000
0100
0010
1000
0001
0010
0100
0010
0001
0100
,
0010
1000
0100
0020
0200
0000
0000
0000
0000
0000
0000
0000
0000
0000
0000
0000
,
0000
0000
0000
0000
0000
0000
0000
0000
0330
0000
0000
0000
0000
0000
0000
0000
0000
0000
0000
0000
0000
0000
0000
0000
0000
0000
0000
0000
1000
0100
1000
0100
,
0010
0001
0010
0001
1000
0010
1000
0010
0100
0000
0000
0000
0000
0000
0000
0000
0001
0000
1000
0000
0000
0000
0000
0000
1001
0000
0000
0000
0000
0000
0000
0000
,
1000
0000
0010
0000
0000
0000
0000
0000
1010
0000
0000
0000
0000
0000
0000
0000
0100
0000
0001
0000
0000
0000
0000
0000
0010
0001
0010
0000
0100
0010
0100
1000
,
0001
0100
0010
1000
1001
0000
0001
0000
0010
0000
0100
0010
0001
0100
0010
0000
,
2000
0000
0000
0000
3020
0030
0020
0030
0100
0000
1000
0100
0010
1000
0010
0000
,
0001
0000
1000
0000
0020
0030
0020
0030
0100
0000
1000
0010
0100
0010
1000
0000
,
0001
0000
0010
0000
0200
0300
0200
0300
0001
0100
0010
1000
0200
0300
0200
0300
,
0101
0000
0000
0000
1010
0000
1000
0000
0001
0000
0010
0100
1000
0010
0100
0000
,
0002
0000
0000
0000
0023
0030
0020
0030
0100
0000
0001
0010
0100
0001
0100
0000
,
1000
0000
0001
0000
0200
0300
0200
0300
1000
0000
0010
0100
0001
1000
0100
0000
,
0010
0000
0001
0000
0200
0300
0200
0300
1000
0010
0100
0001
0020
0030
0020
0030
,
1010
0000
0000
0000
1001
0000
0001
0000
0010
0000
0100
0001
0100
0010
0001
0000
,
0100
0000
0001
0000
0020
0030
0020
0030
1000
0000
0100
0010
1000
0010
0100
0000
,
1000
0000
0001
0000
0200
0300
0200
0300
1000
0000
0010
0100
1000
0100
0010
0000
,
0100
0000
0001
0000
0020
0030
0020
0030
1000
0100
0010
0001
0200
0300
0200
0300
,
1100
0000
0000
0000
0010
0001
0010
0001
0010
0001
0010
0001
1000
0010
1000
0010
,
1000
0010
1000
0100
0010
0100
0010
0100
0010
0100
0010
0001
1000
0001
1000
0001
,
1000
0001
1000
0010
0100
0001
0010
0100
0010
0001
1000
0010
0100
0001
1000
0100
,
0010
0000
0000
0001
0000
0000
0100
0000
0000
0010
0000
0000
1000
0000
0000
0100
0000
0000
0010
0000
0000
0100
0000
0000
1000
0000
0000
0001
0000
0000
1000
0000
0000
0010
0000
0000
1000
0000
0000
0000
0200
0000
0300
0000
0200
0000
0300
0000
,
0001
0000
0020
0030
0020
0030
1010
0000
0000
1100
0000
0000
1001
0000
0000
0011
0000
0000
0101
0000
0000
0100
0000
0000
,
0020
0030
0020
0031
1000
0001
0020
0030
0020
0030
1000
0001
1000
0010
0100
0000
,
0101
0000
0000
0000
0000
0000
0011
0000
0000
0000
0000
0000
0110
0000
0000
0000
0000
0000
1100
0000
0000
0000
0000
0000
1000
0000
0000
0100
0000
0000
0020
0000
0000
0030
0000
0000
0020
0000
0000
0030
0100
0000
0000
0000
0001
0000
0000
0000
,
0010
0000
0100
0000
1000
0000
0200
0000
0000
0000
0300
0000
0110
0000
0000
0011
0000
0000
0101
0000
0000
0110
0000
0000
,
1001
0000
0000
0000
0000
0000
0000
0000
0000
0000
0000
0000
0000
0000
0000
0000
0000
0000
0000
0000
0000
0000
0000
0000
1000
0000
0000
0000
0000
0000
0000
0000
0000
0000
0000
0000
0001
0000
0000
0000
0000
0000
0000
0000
0000
0000
0000
0000
0000
0000
0000
0000
1000
0000
0000
0000
0000
0000
0000
0000
0000
0000
0000
0000
0000
0000
0000
0000
0000
0001
0000
0000
0000
0000
0000
0000
0000
0000
0000
0000
0000
0000
0000
0000
0000
0000
1000
0000
0000
0000
0000
0000
0000
0000
0000
0000
0000
0000
0000
0000
0000
0000
0000
0000
0001
0000
0000
0000
0000
0000
0000
0000
0000
0000
0000
0000
0000
0000
0000
0000
0100
0000
0000
0000
0000
0000
0000
0000
0000
0000
0000
0000
0000
0000
0000
0000
0000
0000
0000
0000
0000
0000
0000
0000
0010
0000
0000
0000
0000
0000
0000
0000
0000
0000
0000
0000
1000
0000
0000
0000
0000
0000
0000
0000
0000
0000
0000
0000
0200
0000
0000
0000
0000
0000
0000
0000
0000
0000
0000
0000
0300
0000
0000
0000
0000
0000
0000
0000
0000
0000
0000
0000
,
0200
0300
0101
0000
0011
0000
1001
0000
1010
0000
0110
0000
0100
0000
0001
0010
,
0100
0000
0000
0000
1000
0000
0000
0000
0020
0000
0030
0000
0020
0000
0030
0001
0000
0000
0100
0000
0000
0010
0000
0000
2000
0000
0000
0000
0000
0000
3000
0000
0000
0000
0000
0000
1010
0000
0000
0000
0000
0000
1001
0000
0000
0000
0000
0000
,
0011
0000
0101
0000
1010
0000
1100
0000
0100
0010
0001
0000
0011
0000
1001
0000
,
0000
1010
0110
0101
0011
0110
0100
1000
,
0001
0000
0000
0000
0000
0000
0100
0000
0000
0010
0000
0000
1000
0000
0000
0000
0200
0000
0300
0000
0200
0000
0300
0000
0001
0000
0000
0000
0020
0000
0030
0000
0020
0000
0030
0000
1000
0000
0000
0001
0000
0000
1000
0000
0000
0100
0000
0000
,
0010
0000
0001
0000
0100
0010
1000
0010
0100
0000
0001
0000
1000
0100
0010
0001
,
0100
0000
0010
0000
1000
0001
0010
0001
0100
0000
0010
0000
1000
0100
0010
0100
,
1000
0010
0100
0001
0010
0100
1000
0001
0100
0010
0100
0001
0020
0000
0000
0000
,
0000
0000
0000
0000
0030
0000
0110
0100
,
1100
0000
0100
0000
0110
0000
0100
0000
0101
0000
0100
0000
0110
0000
0010
0001
,
0100
0000
0100
0000
0110
0000
0010
1000
0001
0010
0100
1000
0010
0000
0110
0000
,
0101
0000
0000
1001
0000
0000
1000
0000
0010
0000
0100
0000
1000
0000
0100
0000
0001
0000
1000
0000
0000
0000
0000
0000
,
1200
0300
0200
0300
0001
0000
0000
0000
1000
0000
0010
0000
0100
1000
0100
0010
,
0100
0001
0100
0010
0100
1000
0100
0010
0100
0000
0001
0000
0011
0000
1100
0000
,
1000
0000
0000
0010
0000
0000
0100
0000
0000
0010
0000
0000
1000
0000
0000
0000
0000
0000
1001
0000
0000
0000
0000
0000
0001
0000
0000
0010
0000
0000
0100
0000
0000
1000
0000
0000
0020
0000
0030
0000
0020
0000
0030
0000
0020
0000
0030
0000
,
0200
0300
0200
0300
0200
0300
0001
0000
0020
0030
0020
0030
2000
0000
0000
3000
0000
0000
1010
0000
0000
0000
0000
0000
,
0020
0030
0020
0030
0001
0000
0000
0000
0000
0000
0000
0000
1001
0000
0000
0000
,
1000
0000
0000
0000
0100
0000
0000
0000
0001
0000
0000
0000
0100
0000
0000
0000
0000
0000
0000
0000
0000
0000
0000
0000
0010
0000
0000
0000
1000
0000
0000
0000
0010
0000
0000
0000
0001
0000
0000
0010
0000
0000
0100
0000
0000
0010
0000
0000
,
0001
0000
0000
0100
0000
0000
0010
0000
0000
0100
0000
0000
0001
0000
0000
0000
0020
0000
0030
0000
0020
0000
0030
0000
2000
0000
0000
0000
0000
0000
0000
0000
0000
0000
0000
0000
3100
0000
0000
0010
0000
0000
2000
0000
0000
3000
0000
0000
,
2000
3100
0002
0003
0002
0013
0200
0300
0200
0301
1000
0010
0100
0000
0000
0000
,
0020
0030
0020
0030
0001
0000
0000
0000
0000
0000
0000
0000
1100
0000
1000
0010
,
0200
0000
0000
0300
0000
0000
0200
0000
0000
1300
0000
0000
0020
0000
0000
0030
0000
0000
0020
0000
0000
0031
0000
0000
0100
0000
0000
0000
0001
0000
0000
0000
0020
0000
0030
0000
0020
0000
0030
0000
1000
0000
0000
0000
0200
0000
0300
0000
,
0200
0000
0300
0000
0000
0000
0001
0000
0000
0010
0000
0000
0200
0000
0000
0300
0000
0000
0200
0000
0000
0310
0000
0000
1000
0000
0000
0100
0000
0000
0010
0000
0000
0001
0000
0000
1000
0000
0000
0000
0000
0000
1010
0000
0000
0000
0000
0000
,
1001
0011
0101
0100
0110
0010
1000
0000
,
0020
0030
0020
0030
0002
0000
0000
0000
0000
0000
0000
0000
1003
0000
0000
0000
,
0010
1000
0001
0010
0100
0010
0001
0100
0010
1000
0010
0100
1000
0100
0010
1000
,
0001
0010
0100
1000
0100
0001
0100
0010
0001
1000
0010
0100
0001
0010
0100
0010
,
1000
0010
0100
1000
0001
0100
0010
0001
0010
0100
0001
1000
0200
0000
0000
0000
,
0300
0000
0000
0000
0020
0000
0030
0000
0020
0000
0030
0000
1000
0000
0000
0000
0200
0000
0300
0000
0200
0000
0300
0000
0001
0000
0000
0000
0000
0000
0100
0000
0000
0001
0000
0000
1000
0000
0000
0010
0000
0000
0100
0000
0000
0000
0000
0000
,
0001
0010
0100
0010
0001
1000
0010
0100
1000
0100
0010
1000
0001
0010
0100
0010
,
0001
1000
0100
0010
1000
0010
0001
1000
0010
0100
0001
1000
0010
0001
0010
0100
,
0001
0010
0100
0001
0100
0010
0001
1000
0010
0100
0001
0010
0200
0000
0000
0000
,
1300
0010
1000
0010
1000
0000
0001
0010
0001
0010
0001
0000
1000
0100
1000
0100
,
1000
0001
0100
0001
0010
0100
1000
0010
0100
0010
0001
0010
1000
0001
0010
0100
,
0010
0001
1000
0010
0100
0001
1000
0100
1000
0010
0100
0001
0010
0001
1000
0100
,
0001
0100
0010
0100
1000
0010
0100
1000
0100
0010
1000
0001
0010
0100
0010
0001
,
1000
0010
0100
0001
0010
1000
0010
0001
1000
0100
0001
0100
1000
0001
0100
0010
,
0001
0010
0100
0001
1000
0100
0010
0001
1000
0010
1000
0100
0001
0100
1000
0001
,
0010
0001
1000
0010
0100
0001
1000
0100
0001
0100
1000
0010
0001
0010
1000
0001
,
0010
0100
0010
1000
0010
0001
0100
0010
0001
1000
0100
0010
1000
0100
0010
0001
,
0100
0010
0001
0010
1000
0001
0010
1000
0001
0100
1000
0010
0001
0010
0100
0002
,
2000
0000
3003
0001
0100
1000
2200
3300
0220
0330
0202
0303
,
2002
0000
3003
1000
0100
0001
0202
0303
0220
0330
2200
3300
,
2002
0000
3003
1000
0010
0001
0022
0033
0220
0330
2020
3030
,
2002
0000
0000
0000
,
0000
0000
0000
0000
,
0000
0000
0000
0000
,
3003
0000
0000
0000
;
