#VERSION:0.83;
#TITLE:KATHARSIS;
#SUBTITLE:;
#ARTIST:dj kaya+Karl with a K;
#TITLETRANSLIT:;
#SUBTITLETRANSLIT:;
#ARTISTTRANSLIT:;
#GENRE:;
#ORIGIN:;
#CREDIT:;
#BANNER:katharsis-bn.png;
#BACKGROUND:katharsis-bg.png;
#PREVIEWVID:;
#JACKET:katharsis-jacket.png;
#CDIMAGE:;
#DISCIMAGE:;
#LYRICSPATH:;
#CDTITLE:;
#MUSIC:katharsis.ogg;
#OFFSET:-0.000000;
#SAMPLESTART:6.315790;
#SAMPLELENGTH:12.631578;
#SELECTABLE:YES;
#BPMS:0.000=152.000,
140.000=125.000;
#STOPS:;
#DELAYS:;
#WARPS:;
#TIMESIGNATURES:0.000=4=4;
#TICKCOUNTS:0.000=4;
#COMBOS:0.000=1;
#SPEEDS:0.000=1.000=0.000=0;
#SCROLLS:0.000=1.000;
#FAKES:;
#LABELS:0.000=Song Start;
#BGCHANGES:;
#KEYSOUNDS:;
#ATTACKS:
;

//---------------dance-single - kaya----------------
#NOTEDATA:;
#CHARTNAME:kaya;
#STEPSTYPE:dance-single;
#DESCRIPTION:kaya;
#CHARTSTYLE:;
#DIFFICULTY:Beginner;
#METER:5;
#RADARVALUES:0.162699,0.273772,0.074129,0.087607,0.000000,169.000000,158.000000,11.000000,13.000000,0.000000,0.000000,0.000000,0.000000,0.000000,0.162699,0.273772,0.074129,0.087607,0.000000,169.000000,158.000000,11.000000,13.000000,0.000000,0.000000,0.000000,0.000000,0.000000;
#CREDIT:kaya;
#NOTES:
0000
0000
0000
0000
,
0000
0000
0000
0000
,
0000
0000
0000
0000
,
0000
0000
0000
0000
,
1000
1000
0100
0000
,
0100
0000
0100
0000
,
0001
0001
0100
0000
,
0100
0000
0100
0000
,
1000
1000
0010
0000
,
0010
0000
0010
0000
,
0001
0001
0010
0000
,
0010
0000
0010
0000
,
2002
0000
0000
0000
,
3003
0000
0000
0000
,
1000
0000
0100
0000
,
0001
0000
0010
0000
,
1000
1000
0010
0000
,
0001
0001
0010
0000
,
1000
1000
0100
0000
,
1001
0000
0000
0000
,
0001
0001
0001
0000
,
0001
0001
0001
0000
,
1000
1000
1000
0000
,
1000
1000
1000
0000
,
0010
0010
0010
0000
,
0010
0010
0010
0000
,
0100
0100
0100
0000
,
0100
0100
0100
0000
,
0001
0000
0001
0000
,
0001
0100
1000
0000
,
1000
0000
1000
0000
,
1000
0100
0001
0000
,
0001
0000
0001
0000
,
0001
0010
1000
0000
,
1000
0010
0001
0000
,
0000
0000
0000
0000
,
0000
0000
0000
0000
,
0000
0000
0000
0000
,
0000
0000
1000
0000
,
0000
0000
1001
0000
,
0000
0000
0001
0000
,
0000
0000
1001
0000
,
0000
0000
1000
0000
,
0000
0000
1001
0000
,
2000
0000
0000
0000
,
3000
0000
0000
0002
,
0000
0000
0000
0003
,
0000
0000
2000
0000
,
0000
0000
3000
0000
,
0000
0001
0000
0000
,
0000
0000
0000
0000
,
0000
0010
0010
0010
,
0000
0010
0010
0010
,
0000
0000
0000
0100
0000
0100
0000
0000
,
0000
0100
0000
0000
0000
0000
2000
0000
,
0000
0000
0000
3000
0000
0000
0000
1000
,
0000
0100
0000
0001
0000
0000
0001
0000
,
0010
0000
1000
0000
0000
0000
0000
0001
,
0000
0001
0000
0000
0000
0000
0000
0020
,
0030
0000
0000
0100
,
0100
1001
0000
1001
,
0000
1001
0000
1001
,
0000
2002
0000
0000
,
0000
0000
0000
3003
,
0000
1000
1000
1000
,
1000
1000
1000
1000
,
0000
0001
0001
0001
,
0001
0001
0001
0001
,
0000
0010
0010
0010
,
0010
0010
0010
0010
,
0000
0100
0100
0100
,
0100
0100
0100
0100
,
0000
2000
0000
0000
,
0000
3000
1000
1000
,
0002
0000
0000
0000
,
0003
0001
0001
0200
,
0000
0000
0300
0100
,
0100
0020
0000
0000
,
0030
0010
0010
1001
,
0000
0000
0000
0000
,
1000
0100
0001
0000
,
0000
0010
0000
0000
;

//---------------dance-single - karl+kaya----------------
#NOTEDATA:;
#CHARTNAME:karl+kaya;
#STEPSTYPE:dance-single;
#DESCRIPTION:karl+kaya;
#CHARTSTYLE:;
#DIFFICULTY:Easy;
#METER:9;
#RADARVALUES:0.296516,0.410658,0.053912,0.289777,0.016847,308.000000,300.000000,8.000000,43.000000,0.000000,0.000000,0.000000,0.000000,0.000000,0.296516,0.410658,0.053912,0.289777,0.016847,308.000000,300.000000,8.000000,43.000000,0.000000,0.000000,0.000000,0.000000,0.000000;
#CREDIT:karl+kaya;
#NOTES:
0000
0000
0000
0000
,
0000
0000
0000
0000
,
0000
0000
0000
0000
,
0000
0000
0000
0000
,
1000
0000
1000
0000
0000
0000
0010
0100
,
0000
0001
1000
0001
,
0010
0000
0100
0000
0000
0000
1000
0100
,
0000
1000
0010
0100
,
0001
0000
1000
0000
0000
0000
0001
0100
,
0000
0001
1000
0001
,
0200
0010
0010
0310
,
0002
1000
1000
1003
,
0220
0000
0000
0000
,
0000
0000
0330
0000
,
0001
0000
0010
0000
0000
0000
0100
1000
,
0000
0001
1000
0010
,
0100
0000
0001
0000
0000
0000
1000
0010
,
0000
1000
0001
0100
,
0002
1000
1000
1000
,
2000
0000
0000
3003
,
1000
0010
1000
0100
,
1000
0010
1000
1000
,
0001
0010
0001
0100
,
0001
0010
0001
0001
,
1000
0010
0100
0001
,
0001
0010
0100
1000
,
1000
0100
0010
0001
,
0001
0100
0010
1000
,
0001
0100
0001
0100
,
0001
0010
0002
0003
,
1000
0100
1000
0010
,
1000
0100
2000
3000
,
0001
0010
0100
1000
,
0001
0010
0200
0300
,
1000
0000
0100
0000
0010
0010
0010
0000
,
2002
0000
0000
3003
,
2000
0000
3200
0320
,
0000
0000
0000
0000
,
0032
0000
2000
0000
,
0000
0000
0000
3003
,
0002
0000
0203
0320
,
0000
0000
0000
0000
,
2030
0000
0000
0000
,
0000
0000
0001
0000
,
3002
0023
0230
0000
,
2300
0000
0000
3002
,
0203
0320
0000
2030
,
0000
3001
2000
3020
,
0230
0000
0302
0000
,
2003
0000
0000
0000
,
0000
0000
0000
0000
,
0000
0000
0000
0000
3001
0000
0000
0000
0100
0000
0000
0001
0000
0000
1000
0000
,
0010
0000
0100
0000
0001
0000
0000
0000
0010
0000
0000
0100
0000
0000
1000
0000
,
1000
0000
0001
0000
0000
0000
0100
0000
0000
0100
0000
0000
0010
0000
0000
0010
,
0000
0010
0000
1000
0001
0100
0010
0000
,
0000
0110
0000
1001
0000
1000
0000
0010
,
0100
0010
0100
0001
0000
0000
1000
0001
,
0010
0100
1000
0000
0001
0100
0000
0010
,
1000
0010
0000
1000
0100
0000
1000
0001
,
0000
0000
0001
0100
0001
1000
0010
1000
,
0100
0010
1001
0100
,
1001
0000
0001
1000
0001
0000
1000
0001
,
1000
0200
0000
0320
,
0000
2030
0000
3002
,
0003
0000
1000
0100
1000
0100
1000
0100
,
1000
0000
0001
0100
0001
0100
0001
0100
,
0001
0000
1000
0010
1000
0010
1000
0010
,
1000
0000
0001
0010
0001
0010
0001
0010
,
0001
0000
1000
0100
0010
0001
0010
0100
,
1000
0000
0001
0100
0010
1000
0010
0100
,
0001
0000
1000
0100
0010
0100
0010
0001
,
1000
0000
0001
0100
0010
0100
0010
1000
,
0001
0000
0000
0000
2000
0000
0000
0000
3020
0000
0000
0000
0230
0000
0000
0302
,
0000
1003
0000
1000
0100
0010
0001
0100
,
0001
1000
0001
0000
1000
0001
1000
0000
,
0100
0010
0100
0010
0100
0000
0010
0001
,
0100
0000
0010
1000
0100
0000
0010
0001
,
0100
0000
0010
1000
0001
0000
1000
0100
,
0010
0000
0001
0100
0010
0000
0220
0000
,
0000
0000
0000
0000
,
0330
0000
0001
1000
0001
0000
0100
0100
,
0010
0010
1001
0000
0000
0000
0000
0000
;

//---------------dance-single - kaya+karl----------------
#NOTEDATA:;
#CHARTNAME:kaya+karl;
#STEPSTYPE:dance-single;
#DESCRIPTION:kaya+karl;
#CHARTSTYLE:;
#DIFFICULTY:Medium;
#METER:13;
#RADARVALUES:0.500611,0.711807,0.181953,0.795202,0.303255,520.000000,493.000000,27.000000,118.000000,0.000000,0.000000,0.000000,0.000000,0.000000,0.500611,0.711807,0.181953,0.795202,0.303255,520.000000,493.000000,27.000000,118.000000,0.000000,0.000000,0.000000,0.000000,0.000000;
#CREDIT:kaya+karl;
#NOTES:
0000
0000
0000
0000
,
0000
0000
0000
0000
,
0000
0000
0000
0000
,
1000
0100
1000
0100
0010
0001
0010
0001
,
1000
0000
0000
0000
1010
0000
0000
0001
0000
0000
1000
0000
0010
0000
0100
0000
,
0000
0000
0001
0000
1000
0000
0001
0000
0020
0000
0000
0000
0130
0000
1000
0001
,
1000
0000
0000
0000
0101
0000
0000
1000
0000
0000
0010
0000
1000
0000
0001
0000
,
0000
0000
0010
0000
1000
0000
0010
0000
0001
0000
0100
0000
0010
0000
0000
1000
,
0001
0000
0000
0000
1100
0000
0000
0001
0000
0000
1000
0000
0010
0000
0000
0100
,
0000
1000
0100
0100
0010
1000
0001
0200
,
1000
0000
0000
0000
0001
0000
0000
0301
0000
0000
0010
0000
0010
0000
0010
0000
,
0100
1000
0000
0000
0001
0000
0100
0000
0010
0000
1000
0000
0001
0000
0000
0000
,
0002
0000
0023
0000
0230
0000
0000
2300
,
3002
0000
0000
0203
0320
0000
0000
0030
,
1000
0000
0000
0000
0101
0000
0000
1000
0000
0000
0010
0000
1000
0000
0001
0000
,
0000
0000
0001
0000
0100
0000
0010
0000
0001
0000
1000
0000
0100
0000
0000
0001
,
1000
0000
0000
0000
0110
0000
0000
1000
0000
0000
0001
0000
0010
0000
0000
1000
,
0000
0001
0100
0100
0010
0001
1000
0001
,
0200
0000
0000
0000
1000
0000
0000
1000
0000
0000
0310
0000
0100
0000
0002
0000
,
2000
0000
0000
3003
,
0001
0000
0010
0000
0010
0000
0000
0100
0000
0000
0100
0000
0000
0002
0000
0203
,
0000
0300
1000
0000
0001
0000
1000
0000
0000
0100
0000
0000
0010
0000
0001
0000
,
1000
0000
0010
0000
0010
0000
0000
0100
0000
0000
0100
0000
0000
2000
0000
3200
,
0000
0300
0001
0000
1000
0000
0001
0000
0000
0010
0000
0000
0100
0000
1000
0000
,
0001
0000
0100
0000
0100
0000
0000
0010
0000
0000
0010
0000
0000
0002
0000
0023
,
0000
0030
1000
0000
0001
0000
1000
0000
0000
0010
0000
0000
0100
0000
0001
0000
,
1000
0000
0100
0000
0100
0000
0000
0010
0000
0000
0010
0000
0000
2000
0000
3020
,
0000
0030
0001
0000
1000
0000
0001
0000
0000
0100
0000
0000
0010
0000
1000
0000
,
0001
0000
0100
0001
0000
0100
0001
0000
0000
0000
0010
0000
0000
0200
0000
0302
,
0000
0103
0010
0000
0100
0000
1000
0000
0000
0001
0000
0000
1000
0000
1000
0000
,
1000
0000
0100
1000
0000
0100
1000
0000
0000
0000
0010
0000
0000
0200
0000
2300
,
0000
3100
0010
0000
0100
0000
0001
0000
0000
1000
0000
0000
0001
0000
0001
0000
,
0001
0000
0010
0100
0000
1000
0001
0000
0000
0000
0100
0000
0000
0020
0000
0032
,
0000
0013
0100
0000
0001
1000
0001
0000
0000
0010
0000
0000
0100
0000
1000
0000
,
1000
0000
0100
0010
0000
0001
1000
0000
0010
0000
0010
0000
0010
0000
0010
0000
,
2002
0000
0000
3003
,
2000
0000
0000
3200
0000
0000
0320
0100
,
0000
0200
0000
0030
,
2300
0000
0000
0010
0000
0000
0100
0000
,
0000
0100
0000
0000
3001
0000
0001
0000
,
0002
0000
0000
0203
0000
0000
0320
0100
,
0000
0200
0000
0030
,
0302
0000
0000
0000
,
0000
0000
0003
0000
,
0020
0000
0032
0000
0203
0000
0000
0320
,
2030
0000
0100
3020
,
2030
0000
3200
0000
0000
0320
0032
0000
,
0000
0100
0023
0032
,
0203
0000
0000
0320
0230
0000
0000
0302
,
0203
1000
0000
0000
,
0000
0002
0000
0000
,
0303
0000
0000
0000
2002
3003
0000
0000
0001
0000
1000
0001
0000
0000
0001
0000
,
0010
0000
0100
0000
1000
0000
0000
0000
0001
0000
0100
0010
0000
1000
0001
1000
,
0000
0000
2002
3003
0000
0000
0001
0000
0010
0100
0000
0000
1100
0000
0000
1001
,
0000
0000
1010
0000
0000
0000
0010
0000
0100
0001
1000
0000
2002
3003
0000
0000
,
1000
0000
0100
0000
0010
0001
1000
0000
0000
0000
0011
0000
0000
0000
0010
0001
,
1000
0000
0100
1000
0001
0000
2002
3003
0000
0000
0000
0000
0001
0000
0001
0100
,
0010
0000
1000
0100
0010
0000
0000
0000
0001
0000
0010
0100
1000
0000
0001
0000
,
1000
0000
0010
0100
0001
0000
1000
0000
0001
0010
0100
1000
0100
0010
0002
0000
,
0000
0000
1003
0000
0001
0100
0001
0100
0001
0100
0010
0000
0001
0000
0010
0000
,
0010
0000
1000
0000
0100
0010
0100
0000
0100
1000
0100
0000
0100
0010
0100
0000
,
0100
1000
0100
0000
0010
0000
0010
0000
0010
0001
0010
0000
0010
0000
0010
0000
,
0010
1000
0010
0000
0002
0000
2003
0000
3002
0000
2003
0000
3002
0000
2003
0000
,
3002
2003
3020
0230
0320
0230
0320
0230
,
0300
0000
0002
0100
2003
0100
3002
0100
,
2003
0100
3002
0100
2003
0100
3002
0100
,
2003
0100
3002
0010
2003
0010
3002
0010
,
2003
0010
3002
0010
2003
0010
3002
0010
,
2003
0001
3200
1000
0320
0001
0230
1000
,
0320
0001
0230
1000
0320
0001
0230
0010
,
2300
0001
3020
1000
0230
0001
0320
1000
,
0230
0001
0320
1000
0230
0001
0320
1000
,
0230
0000
0001
0000
0320
0000
0000
0000
0032
0000
0000
0000
0023
0000
0000
2030
,
0000
0000
3200
0000
0000
0000
0310
0001
1000
0000
0100
1000
0001
0000
1000
0000
,
0100
0010
0001
0010
0001
0000
1000
0000
0010
0100
0001
0100
0001
0000
1000
0000
,
0001
0010
0100
0000
1000
0010
0100
0000
0001
0010
0100
0000
1100
0000
1000
0000
,
1001
1000
1100
1000
0101
0001
1001
0001
,
0101
0001
1010
1000
1001
1000
1010
1000
,
0011
0001
1001
0001
0011
0001
2002
0000
,
0000
0000
0000
3003
,
0001
0000
0100
0010
0100
0000
1000
0000
0100
0001
0000
0000
1000
0000
1000
0000
,
0001
0010
1000
0010
0001
0000
0000
0000
0000
0000
0000
0000
0000
0000
0000
0000
;

//---------------dance-single - kaya+karl----------------
#NOTEDATA:;
#CHARTNAME:kaya+karl;
#STEPSTYPE:dance-single;
#DESCRIPTION:kaya+karl;
#CHARTSTYLE:;
#DIFFICULTY:Hard;
#METER:16;
#RADARVALUES:0.739364,0.930824,0.680639,0.505425,0.758137,768.000000,667.000000,101.000000,75.000000,0.000000,0.000000,0.000000,0.000000,0.000000,0.739364,0.930824,0.680639,0.505425,0.758137,768.000000,667.000000,101.000000,75.000000,0.000000,0.000000,0.000000,0.000000,0.000000;
#CREDIT:kaya+karl;
#NOTES:
0000
0000
0000
0000
,
0000
0000
0000
0000
,
0002
0000
0023
0000
0230
0000
0000
2300
,
3002
0000
0000
0000
0000
0000
0203
0000
0320
0000
0030
0000
1000
0001
1000
0001
,
1000
0000
0010
0000
0001
0010
0100
0010
0000
0010
1000
0000
0100
1000
0100
0000
,
0000
0001
0100
0000
1000
0000
0001
0000
0100
0000
0010
0000
1001
0000
0001
1000
,
0002
0000
0103
0000
1000
0100
0010
0100
0000
0100
0001
0000
0010
0001
0010
0000
,
0000
1000
0010
0000
0001
0000
1000
0000
0001
0000
0100
0000
0110
0000
0100
0001
,
2000
0000
3001
0000
0010
1000
0010
0100
0000
0100
1000
0000
0001
1000
0010
0000
,
0000
0100
0001
0000
1000
0000
0010
0000
1000
0000
0100
0000
0110
0000
0010
0001
,
2000
0000
0000
0000
0100
0000
0000
3100
0000
0010
0100
0000
0001
0000
0100
0000
,
1000
0001
1000
0000
0010
0000
0100
0000
1001
0000
0000
0000
0110
0000
0001
1000
,
0001
0000
0100
0000
1000
0100
0010
0100
0000
0100
0001
0000
0100
0001
1000
0100
,
0000
0010
0100
0000
0001
0000
0100
0000
1000
0000
0001
0000
1001
0000
1000
0001
,
2000
0000
3010
0000
0001
0010
0100
0010
0000
0010
1000
0000
0001
1000
0100
0010
,
0000
0001
0010
0000
0100
0000
0001
0000
0100
0000
1000
0000
1001
0000
0001
1000
,
0002
0000
0013
0000
0100
1000
0100
0010
0000
0010
0001
0000
1000
0010
0100
0001
,
0000
0100
0010
0000
0100
0000
0001
1000
0010
0000
0100
0000
1001
0000
1000
0200
,
0001
0000
0000
0000
0010
0000
0000
0010
0300
0100
1000
0000
1000
0001
0100
0020
,
0200
0000
0000
0330
,
1000
0000
0010
0100
1000
0000
0100
0001
0000
0000
0001
0000
0000
1001
0000
1001
,
0000
0002
0000
0103
0010
0100
1000
0000
0000
1000
0000
0000
0110
0000
0001
0000
,
0001
0000
0010
0100
0001
0000
0100
1000
0000
0000
1000
0000
0000
1001
0000
1001
,
0000
2000
0000
3100
0010
0100
0001
0000
0000
0100
0000
0000
0110
0000
0010
0000
,
0001
0000
0100
0010
0001
0000
0010
1000
0000
0000
1000
0000
0000
1001
0000
1001
,
0000
2000
0000
3010
0100
0010
0001
0000
0000
0001
0000
0000
0110
0000
1000
0000
,
1000
0000
0100
0010
1000
0000
0010
0001
0000
0000
0001
0000
0000
1001
0000
1001
,
0000
0002
0000
0013
0100
0010
1000
0000
0000
0010
0000
0000
0110
0000
0010
0000
,
0001
0000
0000
0000
0100
0000
0010
0000
1000
0000
0010
0000
0100
0000
0001
0000
0000
0000
0000
0000
1000
0000
0000
0000
0000
0000
0202
0303
0000
0000
2200
3300
,
0000
0100
0010
0001
0010
0100
1000
0000
0000
0100
0000
0000
0110
0000
0100
0000
,
1000
0000
0000
0000
0100
0000
0010
0000
0001
0000
0010
0000
0100
0000
1000
0000
0000
0000
0000
0000
0001
0000
0000
0000
0000
0000
2200
3300
0000
0000
0202
0303
,
0000
0100
0010
1000
0010
0100
0001
0000
0000
0100
0000
0000
0110
0000
0100
0000
,
0001
0000
0000
0000
0010
0000
0100
0000
1000
0000
0100
0000
0010
0000
0001
0000
0000
0000
0000
0000
1000
0000
0000
0000
0000
0000
0022
0033
0000
0000
2020
3030
,
0000
0010
0100
0001
0100
0010
1000
0000
0000
0010
0000
0000
0110
0000
0010
0000
,
1000
0000
0010
0100
0001
0100
0010
1000
0001
1000
0100
0001
0100
0010
0100
1000
,
0002
0000
0000
0000
,
2003
0000
0000
0000
0100
0000
0000
3001
,
0000
0002
0100
0000
,
2000
0000
0000
0000
0000
0000
0000
0000
0000
0000
0000
0000
0000
0000
0000
0000
0000
0003
0000
0000
0000
0000
0000
0000
0000
0000
0000
0000
0000
0000
0000
0000
0010
0000
0000
0000
0000
0000
0000
0000
0000
0000
0000
0000
0000
0000
0000
0000
3001
0000
0000
0000
0000
0000
0000
0000
0000
0000
0000
0000
0000
0000
0000
0000
,
0000
0002
0000
0000
0010
0000
0010
0000
,
2003
0000
0000
0000
0100
0000
0000
3001
,
0000
0002
0100
0000
,
1003
0000
0000
2000
0000
0000
0001
0000
,
0000
0000
0002
0000
0000
0000
3003
0000
1000
0001
0000
0000
0010
0000
0100
0000
,
2000
0000
0001
0000
0100
0000
3010
2000
,
0100
0000
3100
2000
0010
0000
3002
0000
,
1000
0000
0100
0000
0013
0002
0100
0000
,
0103
0002
0010
0000
2003
0000
0001
0000
,
0010
0000
3100
2000
0010
0000
3010
2000
,
0100
0002
0000
0000
,
0000
0000
0000
0000
,
3000
0000
0000
0000
0203
0000
0000
0000
0310
0000
0001
0010
0000
0100
0010
1000
,
0001
0010
0100
0000
0002
0000
0000
0103
0010
0001
1000
0010
0000
0010
1000
0001
,
0100
0010
2000
0000
0000
0000
3100
0000
0010
0001
0000
0010
0100
0001
0100
0010
,
0001
1000
0010
0100
0000
0000
0010
0000
1000
0010
1000
0001
0200
0000
0000
0000
,
0310
1000
0001
0000
0100
0001
1000
0000
0000
0000
1001
0000
0000
0000
1000
0100
,
1000
0100
0010
0001
0010
0001
2000
0000
0000
0000
0000
0000
3001
0000
0001
0100
,
1000
0000
1000
0100
0001
0000
0000
0000
0010
0001
0100
0010
1000
0100
0010
0001
,
1000
0001
0100
0000
0100
0000
0100
1000
0100
0010
1000
0100
0010
0001
2000
0000
,
3001
0010
0100
0010
0001
1000
0001
0100
0010
1000
0100
0010
0100
1000
0001
1000
,
0100
1000
0010
0100
0220
0000
0330
0000
2002
0000
3003
0000
0220
0000
0330
0000
,
2002
0000
3003
0000
1000
0001
0010
0100
0220
0000
0330
0000
1000
0001
0100
0010
,
0220
0000
0330
0000
1000
0100
1000
0000
0001
0100
0001
0000
1000
0010
1000
0000
,
0001
0010
0001
0000
1000
0010
0100
0000
0001
0010
0100
0000
1000
0010
0100
0000
,
0000
0000
1100
1100
0101
0101
1100
1100
,
0101
0101
1010
1010
0011
0011
1010
1010
,
0101
0101
0011
0011
0101
0101
0011
0011
,
0101
0101
1010
1010
1100
1100
1010
1010
,
1100
1100
1001
1001
1010
1010
0110
0110
,
0101
0101
1001
1001
0011
0011
0110
0110
,
1100
1100
0101
0101
1010
1010
0101
0101
,
1010
1010
0011
0011
1100
1100
0011
0011
,
1100
0000
1100
0000
0002
0000
0000
0000
0023
0000
0000
0000
0230
0000
0000
2300
,
0000
0000
3002
0000
0000
0000
0103
0010
1000
0001
0010
0100
1000
0001
0100
0010
,
1000
0100
0010
0001
1000
0001
0010
0100
1000
0010
0100
0001
1000
0001
0100
0010
,
1000
0001
0010
0100
1000
0010
0100
1000
0100
0001
1000
0000
0001
0010
0001
0010
,
0001
0010
0001
0010
0001
0010
0001
0010
0100
1000
0100
1000
0100
1000
0100
1000
,
0100
1000
0100
1000
0010
0100
0010
0100
0010
0100
0010
0100
0010
0100
0010
0100
,
0001
1000
0001
1000
0001
1000
0001
1000
0001
1000
0001
2000
0002
0000
0000
0000
,
0000
0000
0000
3003
,
1100
0000
0100
0010
0001
0000
0100
0010
1000
0001
0000
0000
1000
0100
0010
0001
,
1000
0001
1000
0001
1000
0001
1000
0000
0000
0000
0000
0000
0000
0000
0000
0000
0000
0000
0000
0000
0000
0000
0000
0000
;

//---------------dance-single - karl+kaya----------------
#NOTEDATA:;
#CHARTNAME:karl+kaya;
#STEPSTYPE:dance-single;
#DESCRIPTION:karl+kaya;
#CHARTSTYLE:;
#DIFFICULTY:Challenge;
#METER:18;
#RADARVALUES:0.846226,1.341482,0.128041,0.438035,1.405081,879.000000,860.000000,19.000000,65.000000,0.000000,0.000000,0.000000,0.000000,0.000000,0.846226,1.341482,0.128041,0.438035,1.405081,879.000000,860.000000,19.000000,65.000000,0.000000,0.000000,0.000000,0.000000,0.000000;
#CREDIT:karl+kaya;
#NOTES:
// measure 0
0000
0000
0000
0000
,  // measure 1
0000
0000
0000
0000
,  // measure 2
0000
0000
0000
0000
,  // measure 3
0000
0000
0000
0000
,  // measure 4
0001
0000
0010
0100
1000
0001
1000
0100
0000
0200
0001
0000
1300
0001
0010
0100
,  // measure 5
0000
0200
0001
0000
1300
0100
0010
0001
0000
0001
1000
0001
0100
0001
0010
0001
,  // measure 6
1000
0000
0010
0100
0001
1000
0001
0100
0000
0200
1000
0000
0301
1000
0010
0100
,  // measure 7
0000
0200
1000
0000
0301
0100
0010
1000
0000
1000
0001
1000
0100
1000
0010
1000
,  // measure 8
0001
0000
1000
0100
0010
0001
1000
0010
0000
0020
0001
0000
1030
0001
0100
0010
,  // measure 9
0000
0020
0001
0000
1030
0001
0010
0100
1000
0000
0010
0100
0000
0001
1000
0000
,  // measure 10
0002
0000
1003
0000
0100
0000
0200
0001
0000
1300
0001
0000
0100
0000
0200
1000
,  // measure 11
0000
0301
1000
0000
0010
0000
0010
1000
0001
0000
1000
0100
0010
0001
0100
0010
,  // measure 12
1000
0000
0010
0100
0001
1000
0001
0100
0000
0200
1000
0000
0301
1000
0010
0100
,  // measure 13
0000
0200
1000
0000
0301
0100
0010
1000
0000
1000
0001
1000
0100
1000
0010
1000
,  // measure 14
0001
0000
0010
0100
1000
0001
1000
0100
0000
0200
0001
0000
1300
0001
0010
0100
,  // measure 15
0000
0200
0001
0000
1300
0100
0010
0001
0000
0001
1000
0001
0100
0001
0010
0001
,  // measure 16
1000
0000
0001
0100
0010
1000
0001
0010
0000
0020
1000
0000
0031
1000
0100
0010
,  // measure 17
0000
0020
1000
0000
0031
1000
0010
0100
0001
0000
0010
0100
0000
1000
0001
0000
,  // measure 18
2000
0000
3001
0000
0100
0000
0200
1000
0000
0301
1000
0000
0100
0000
0010
0002
,  // measure 19
1000
1000
1000
1003
,  // measure 20
0001
0000
0001
0010
0100
0001
0100
0010
0000
0000
0010
0000
0000
0021
0000
1030
,  // measure 21
0000
1000
0010
0100
0010
0001
0100
0000
0000
0100
0000
0000
0110
0000
0001
0000
,  // measure 22
1000
0000
1000
0010
0100
1000
0100
0010
0000
0000
0010
0000
0000
1020
0000
0031
,  // measure 23
0000
0001
0010
0100
0010
1000
0100
0000
0000
0100
0000
0000
0110
0000
1000
0000
,  // measure 24
0001
0000
0001
0100
0010
0001
0010
0100
0000
0000
0100
0000
0000
0201
0000
1300
,  // measure 25
0000
1000
0100
0010
0100
0001
0010
0000
0000
0010
0000
0000
0110
0000
0001
0000
,  // measure 26
1000
0000
1000
0100
0010
1000
0010
0100
0000
0000
0100
0000
0000
1200
0000
0301
,  // measure 27
0000
0001
0100
0010
0100
1000
0010
0000
0000
0010
0000
0000
0110
0000
0001
0000
,  // measure 28
1000
0000
0010
0100
1000
0001
0010
0200
0000
0000
0001
0000
0000
1000
0000
0001
,  // measure 29
0000
0310
0100
0001
1000
0100
0020
0000
0000
0001
0000
0000
1000
0000
0031
0000
,  // measure 30
0001
0000
0010
0100
0001
1000
0010
0200
0000
0000
1000
0000
0000
0001
0000
1000
,  // measure 31
0000
0310
0100
1000
0001
0100
0020
0000
0000
1000
0000
0000
0001
0000
1030
0000
,  // measure 32
1000
0000
0100
0010
1000
0001
0100
0020
0000
0000
0001
0000
0000
1000
0000
0001
,  // measure 33
0000
0130
0010
0001
1000
0010
0200
0000
0000
0001
0000
0000
1000
0000
0301
0000
,  // measure 34
0001
0000
0100
0010
0001
1000
0100
0010
1000
0100
0010
0100
0001
0100
0010
0002
,  // measure 35
2000
0000
0000
3003
,  // measure 36
1000
0100
0010
0001
0000
0000
0200
0000
,  // measure 37
0000
0000
0000
0000
0000
0300
0000
0000
,  // measure 38
0010
0000
2000
0002
0000
0000
0000
0000
,  // measure 39
0000
3003
1001
1001
,  // measure 40
0001
0010
0100
1000
0000
0000
0020
0000
,  // measure 41
0000
0000
0030
0000
,  // measure 42
1000
0000
0000
1000
0001
0000
1000
0000
,  // measure 43
0000
0000
1000
0000
0000
0000
0000
0000
1000
0100
0000
0000
0010
0000
0001
0000
,  // measure 44
2000
0000
3200
0000
0302
0000
1003
0020
,  // measure 45
0001
0000
0031
0200
1000
0000
0302
0000
,  // measure 46
0023
0000
2030
0000
3001
0200
1000
0000
,  // measure 47
1300
0020
0001
0000
2030
0000
3200
0000
,  // measure 48
0302
0000
1003
0020
0001
0000
0031
0200
,  // measure 49
1000
0002
0000
0000
,  // measure 50
0000
0000
0000
0000
,  // measure 51
0303
0000
0000
0000
2001
0000
3000
0001
0100
0000
1000
0100
0000
0001
0010
0100
,  // measure 52
0001
0100
1000
0000
0002
0000
0003
1000
0010
0100
1000
0001
0010
0100
0010
1000
,  // measure 53
0100
0010
0012
0000
0000
1003
0010
0000
0001
0010
0000
1000
0100
0001
1000
0010
,  // measure 54
0100
1000
0010
0100
0000
0000
0101
0000
1000
0001
0100
0010
2020
0000
3030
0000
,  // measure 55
0001
1000
0010
0001
0010
0100
0010
0000
0000
0000
0110
0000
0000
0000
1000
0001
,  // measure 56
0010
0100
0001
1000
0010
0100
2100
0000
0000
0000
0000
0000
3001
0000
0001
0100
,  // measure 57
0010
0000
0001
0010
1000
0000
0000
0000
0100
0010
0001
1000
0100
0001
1000
0010
,  // measure 58
0100
0000
0000
1000
0000
0000
0010
0000
0000
0100
0000
0000
0001
0000
1000
0000
0001
0000
1000
0000
0000
0001
0000
0000
0010
0000
0000
0100
0000
0000
1000
0000
0000
0010
0000
0000
0100
0000
0000
0001
0000
0000
0020
0000
0000
0000
0000
0000
,  // measure 59
0031
0000
0000
1000
0000
0000
0001
0000
0000
0100
0000
0000
0001
0000
0000
0010
0000
0000
0001
0000
0000
0010
0000
0000
0100
0000
0000
1000
0000
0000
0001
0000
1000
0000
0001
0000
1000
0000
0000
0100
0000
0000
0010
0000
0000
0001
0000
0000
,  // measure 60
0100
0000
0000
0010
0000
0000
1000
0000
0000
0001
0000
0000
0010
0000
0001
0000
1000
0000
0100
0000
0000
0000
0000
0000
0010
0000
0001
0000
1000
0000
0100
0000
0000
0000
0000
0000
1000
0000
0010
0000
0100
0000
0001
0000
0000
0000
0000
0000
,  // measure 61
1000
0010
0100
0001
0000
0000
1000
0100
1000
0001
0100
0001
0020
0000
0000
0000
0000
0000
0031
0100
0001
1000
0100
1000
,  // measure 62
0020
0000
1030
1000
1000
1000
0001
0001
,  // measure 63
0001
0000
0001
0000
0100
0010
1000
0001
0100
0010
1000
0001
1000
0001
1000
0001
,  // measure 64
0000
0000
0000
0000
0000
0000
1000
0010
1000
0001
1000
0010
0100
0001
1000
0001
0100
0010
0100
0001
1000
0001
0010
0100
,  // measure 65
1000
0001
1000
0100
0010
0001
1000
0001
0100
0010
1000
0001
0010
0001
1000
0001
0100
0010
1000
0001
0010
0001
1000
0001
,  // measure 66
0100
0001
1000
0100
1000
0001
0010
0100
1000
0001
0100
0010
1000
0001
1000
0100
0010
0001
1000
0001
0100
0001
1000
0100
,  // measure 67
1000
0001
0010
0001
1000
0010
0100
0001
0100
0010
1000
0001
0100
0001
1000
0010
1000
0001
1000
0100
1000
0001
0010
0100
,  // measure 68
0010
0001
1000
0010
0000
0000
1000
0001
0010
0001
1000
0100
1000
0001
0010
0100
1000
0001
1000
0010
1000
0001
1000
0100
,  // measure 69
0010
0001
1000
0001
0100
0010
1000
0001
0100
0001
1000
0001
0010
0100
1000
0100
0010
0001
1000
0001
0100
0010
0100
0001
,  // measure 70
1000
0100
0010
0001
1000
0001
0100
0010
1000
0001
0010
0001
1000
0001
0010
0100
1000
0001
0100
0010
0100
0001
1000
0010
,  // measure 71
1000
0001
1000
0100
0010
0001
1000
0100
1000
0001
0100
0001
1000
0010
1000
0001
0010
0001
1000
0010
0100
0001
0100
0010
,  // measure 72
1000
0000
0100
0000
0010
0000
0001
0000
0010
0000
0100
0000
2000
0000
0000
0000
0000
0000
0000
0000
0000
0000
0000
0000
3002
0000
0000
0000
0000
0000
0000
0000
0000
0000
0000
0000
2003
0000
0000
0000
0000
0000
0000
0000
0000
3020
0000
0000
,  // measure 73
0000
0000
0230
0000
0000
0000
0301
1000
0001
0100
0010
1000
0001
0100
0010
0100
,  // measure 74
0001
0010
0100
0001
0100
0010
0001
1000
0010
0100
1000
0001
1000
0100
0010
1000
,  // measure 75
0001
0000
0010
0000
0100
0000
0001
0000
1000
0000
0010
0000
0100
0000
1000
0000
0010
0000
0100
0000
0001
0000
1000
0000
0001
0010
0100
0000
1000
0000
0100
0000
,  // measure 76
0010
0000
0100
0000
0001
0000
0100
0000
0010
0000
0100
0000
1000
0000
0001
0000
0010
0100
1000
0000
0001
0000
0100
0000
0010
0000
0100
0000
1000
0000
0100
0000
,  // measure 77
0010
0000
0100
0000
0001
0000
0010
0000
0100
1000
0001
0000
0010
0000
0100
0000
1000
0001
0100
0000
0010
0000
1000
0000
0001
0100
0010
0000
1000
0000
0001
0000
,  // measure 78
0010
0001
1000
0000
0001
0000
0100
0000
0010
1000
0001
0000
1000
0000
0100
0000
0010
0001
1000
0100
0010
0001
1000
0100
0020
0000
0000
0000
0000
0000
0000
0000
,  // measure 79
0000
0000
0000
0030
,  // measure 80
1001
0000
0100
0000
0110
0000
0010
0000
1001
0000
0000
0000
0001
0010
0100
1000
,  // measure 81
0001
0010
0001
0100
0010
1000
0100
0000
0000
0000
0000
0000
0000
0000
0000
0000
0000
0000
0000
0000
0000
0000
0000
0000
;
