#TITLE:ジュピターガンズノベル;
#SUBTITLE:;
#ARTIST:工藤吉三(ベイシスケイプ);
#TITLETRANSLIT:Jupiter guns novel;
#SUBTITLETRANSLIT:;
#ARTISTTRANSLIT:Yoshimi Kudo(Basiscape Co Ltd);
#GENRE:;
#CREDIT:;
#MUSIC:Jupiter guns novel.ogg;
#BANNER:Jupiter guns novel.png;
#BACKGROUND:Jupiter guns novel-bg.png;
#CDTITLE:./CDTitles/GITADORA OverDrive.png;
#SAMPLESTART:77.423;
#SAMPLELENGTH:15.000;
#SELECTABLE:YES;
#OFFSET:1.006;
#BPMS:0.000=156.000
,35.500=93.600
,37.000=156.000
;
#STOPS:157.750=0.385
,164.750=0.385
,200.000=0.769
,270.000=0.769
;
#DISPLAYBPM:156.000;
#BGCHANGES:0.000=Jupiter guns novel.mp4=1.000=0=0=0=StretchNoLoop====,
99999.000=-nosongbg-=1.000=0=0=0=StretchNoLoop====
;
#FGCHANGES:;

//--------------- dance-single - forcednature ----------------
#NOTES:
     dance-single:
     forcednature:
     Beginner:
     5:
     0,0,0,0,0:
0000
0000
0000
0000
,
0000
0000
0000
0000
,
0000
0000
0000
0000
,
0000
0000
0000
0000
,
0000
0000
0000
0000
,
1000
0000
0000
0000
,
0001
0000
0000
0000
,
0100
0000
0000
0000
,
0010
0000
1000
0000
,
0000
1001
0000
0000
,
0000
0001
0000
0010
,
0000
0001
0000
0000
,
0000
1000
0000
0010
,
0000
1000
0000
0000
,
0000
0001
0000
0100
,
0000
0001
0000
0000
,
0000
1000
0000
0100
,
0000
1000
0000
0000
,
0010
0000
0000
0100
,
0000
0001
0000
0001
,
0000
1000
0000
0000
,
0000
0100
0100
0000
,
0000
1000
1000
0000
,
0000
0001
0001
0000
,
0000
0100
0000
0020
,
0000
0000
0000
0030
,
0000
1000
0000
0000
,
0000
0000
0000
0001
,
0000
0010
0000
0000
,
0000
0100
0000
0000
,
0000
1000
0000
0000
,
0000
0001
0000
0000
,
0000
0100
0000
0000
,
0010
0000
0000
1000
,
0000
1001
0000
0000
,
0000
0001
0000
0000
,
0000
0010
0000
0000
,
0000
0001
0000
0000
,
0000
0100
0000
0100
,
0000
0100
0000
0000
,
0010
0000
0010
0000
,
0010
0000
0000
1000
,
0000
0100
0000
1000
,
0000
0001
0000
0100
,
0100
0100
0000
0100
,
0100
0100
0000
0001
,
0000
0100
0000
0001
,
0000
1000
0000
0100
,
0000
0010
0100
0000
,
0100
0010
0000
0000
,
1001
0001
0000
1000
,
0001
1000
0000
0001
,
0000
0100
0000
0010
,
0100
0010
0000
0100
,
0000
0001
0000
0010
,
0001
0010
0000
0001
,
0000
1000
0000
0010
,
1000
0000
1001
0000
,
0000
1000
0000
0100
,
1000
0000
1000
0100
,
0000
0010
0000
0001
,
0010
0000
0010
0001
,
0000
0100
0000
0110
,
0000
0010
0000
1001
,
0000
1000
0000
0001
,
0000
0010
0010
0010
,
0000
0001
1000
0000
,
0001
0000
1001
1000
,
0000
1000
0000
0000
0001
0000
0000
0001
,
0000
0000
0100
0000
0000
0110
0000
0000
,
0010
0010
0010
0000
,
1000
0001
0000
1000
,
0100
1000
0000
0001
,
0100
0001
0000
0010
,
0100
0010
0000
0001
,
1000
0010
0100
0000
,
0000
1001
0000
0000
;

//--------------- dance-single - forcednature ----------------
#NOTES:
     dance-single:
     forcednature:
     Easy:
     9:
     0,0,0,0,0:
0000
0000
0000
0000
,
0000
0000
0000
0000
,
0000
0000
0000
0000
,
0000
0000
0000
0000
,
0000
0000
0000
0000
,
1000
0001
0100
0001
,
1000
0001
0010
0001
,
1000
0100
1000
0001
,
0100
0010
0100
0000
1001
0000
0000
0020
,
0000
0030
1001
0000
1000
0000
0100
0000
,
1000
0001
0000
0000
0100
0000
0010
0000
,
0100
0001
1000
0001
,
0010
0100
0000
0000
1000
0001
1000
0000
,
0010
0100
0001
0100
,
0010
1000
0000
0000
0001
0000
0010
0000
,
0001
1000
0100
1000
,
0001
0100
0000
0000
0010
0000
1000
0001
,
1000
0000
0100
0000
1000
0100
0000
1000
,
0001
0000
1000
0010
0000
1000
0001
0000
,
0010
0001
0000
0000
0100
0000
0010
0100
,
0010
1001
0110
0002
,
0000
0000
1003
0001
1000
0000
0010
0000
,
1000
0000
0001
1000
0001
0000
0010
0000
,
0001
0000
1000
0001
1000
0000
0100
0000
,
1000
0000
0000
0000
0010
0000
0000
0000
1001
0000
0000
0000
0001
0000
0000
1000
,
0000
0000
0002
0000
0000
0000
0000
0000
0000
0000
0000
0000
0003
0010
0000
0000
,
0010
0200
0000
0300
,
2000
0000
3000
0002
,
0000
0203
0000
0300
,
0020
0000
1030
0001
,
0001
0020
0000
0130
,
1000
0200
0000
2300
,
0000
3010
0100
0020
,
0000
0000
0030
0000
0000
0000
1000
0000
0000
1000
0000
0000
0001
0000
0000
0001
,
0000
0110
2000
3000
,
0001
0100
0001
0010
,
0001
1000
0001
0000
0200
0000
0300
0000
,
0010
1000
0100
2002
,
3003
0000
0000
0000
0001
0000
0000
0001
0000
0000
0000
0000
1000
0000
0000
1000
,
0000
0000
0000
0000
0010
0000
0000
0200
0300
0000
0000
0000
0000
0000
0000
0000
,
0001
0000
0000
1000
0000
0000
0000
0000
1000
0000
0000
0001
0000
0000
0000
0000
,
0100
0000
0000
0220
0330
0000
0000
0000
0000
0000
0000
0000
0001
0000
0000
0000
,
0100
0001
0100
0000
0001
0000
1000
0000
,
0100
1000
0100
0000
1000
0000
0001
0010
,
0001
0000
0010
0100
0010
0000
0100
1000
,
0100
1000
0001
1000
,
0010
0000
1000
0010
1000
0000
0001
0000
,
0010
0000
0001
0010
0001
0000
0100
0000
,
0010
0100
0000
0010
0000
0100
0000
0001
,
0000
0001
0000
0000
1000
0000
0000
1000
0000
0000
0200
0000
0000
0000
0000
0000
,
0310
0000
0001
1000
0001
0000
0100
0000
,
0010
1000
0001
0010
,
0000
0000
0001
1000
0001
0000
0100
0000
,
0010
1000
0100
0010
,
0000
0000
0100
0010
0100
0000
1000
0000
,
0001
0100
0010
1000
,
0000
0000
0001
1000
0001
0000
0001
0000
,
0010
0100
0000
1000
0001
0000
0000
0000
,
0100
0000
0010
1000
0010
0000
0100
0000
,
0001
0000
0010
0000
0001
0000
1000
0100
,
1000
0000
0001
0100
0001
0000
0010
0000
,
0100
0000
1000
0100
1000
0000
0010
0000
,
0100
0002
0003
0220
,
0330
1000
1100
0001
,
0101
0000
1000
0010
1000
0000
0001
0010
,
0001
0000
0100
0010
0100
0010
0200
0000
,
0000
0000
0300
0000
0001
0000
1000
0000
0001
0000
0000
1000
0000
0001
0000
0000
,
1000
0000
0001
0000
0000
0000
0000
0000
1001
0000
0000
0000
1000
0000
0000
1000
,
0000
0000
0001
0000
0000
0001
0000
0000
0100
0000
0000
0100
0000
0000
0010
0000
,
0000
0010
0000
0000
1000
0000
0000
0001
0000
0000
0010
0000
0000
0000
0000
0000
,
0100
0000
1000
0100
1000
0000
0001
0000
,
0100
0000
0001
0100
0001
0000
0010
0000
,
0100
0000
0010
0100
1000
0000
0010
0000
,
0100
0000
0010
0100
0001
0000
1000
0000
,
0100
0000
0000
0000
1000
0000
0100
0000
0010
0000
0000
0000
0001
0000
0000
1000
,
0000
0000
0000
0001
0000
0000
0100
0000
0000
0000
0100
0000
0000
0000
0020
0000
0000
0000
0000
0000
0000
0000
0000
0000
,
0030
1001
0000
0000
;

//--------------- dance-single - forcednature ----------------
#NOTES:
     dance-single:
     forcednature:
     Medium:
     13:
     0,0,0,0,0:
0000
0000
0000
0000
,
0000
0000
0000
0000
,
0000
0000
0000
0000
,
0000
0000
0000
0000
,
0000
0000
0000
0000
,
1000
0000
0100
0000
0010
0000
0001
0000
0000
0001
0000
0000
0010
0000
0000
0000
,
0001
0000
0100
0000
0010
0000
1000
0000
0000
1000
0000
0000
0010
0000
0100
0000
,
0001
0000
1000
0000
0001
0000
0010
0000
0000
0010
0000
0000
0100
0000
1000
0000
,
0000
0000
0010
0000
0000
0110
0000
0000
0100
0000
0000
0001
0000
0000
1002
0000
,
0000
0000
0000
0000
0013
0000
0100
0000
0000
0010
0000
0000
0001
0000
0000
0100
,
0000
0000
0210
0000
0000
0000
0310
0000
0000
1000
0000
0100
0000
1000
0000
0001
,
0000
0100
0000
0000
0010
0000
1000
0000
0000
0001
0000
0000
0010
0000
0000
0100
,
0000
1200
0000
1300
0010
0100
0001
0100
,
0000
0000
0000
0000
0010
0000
0000
0000
1000
0000
0000
0000
0010
0000
0000
0000
0000
0000
0100
0000
0000
0000
0000
0000
0000
0000
0000
0001
0000
0000
0000
0000
0000
0000
0000
0000
1000
0000
0000
0000
0000
0000
0000
0000
0000
0100
0000
0000
,
0000
0000
0210
0000
0000
0000
0310
0000
0000
0001
0000
1000
0000
0010
0000
0100
,
0000
0001
0000
0000
1000
0000
0100
0000
0000
1000
0000
0000
0001
0000
0000
0100
,
0000
0210
0000
0301
1000
0100
0010
0010
,
0001
0000
1000
0000
0001
0100
0000
0001
0100
0000
0010
1000
0000
0010
1000
0000
,
0001
0010
0000
0001
0010
0000
0100
1000
0000
0100
1000
0000
0010
0100
0000
0010
,
0100
0000
0002
0000
0000
0000
1003
0000
0100
0000
0000
0010
0000
0100
0000
0000
,
0010
0000
0000
0000
0001
0000
0000
0011
0000
0000
1100
0000
0000
1000
0000
0000
,
0020
0000
0000
0000
0130
0000
0001
0000
0010
0000
0000
0100
0000
0010
0000
0000
,
0001
0000
1000
0000
0100
0000
1000
0000
0010
0000
0000
0100
0000
0010
0000
0000
,
1000
0000
1000
0000
0100
0000
0010
0000
0001
0000
0000
0100
0000
0010
0000
0000
,
0100
0000
0001
0000
0010
0000
0000
0010
0100
0000
0010
0000
0001
1000
0000
0001
,
1000
0000
0020
0000
0000
0000
0000
0000
0000
0000
0000
0000
0030
0100
0010
0000
,
0100
0010
0000
0100
0020
0000
0000
0000
0000
0000
2030
0000
0000
0000
0000
0000
,
3002
0000
0000
0000
0000
0000
0000
0000
0003
0000
0000
0000
0010
0000
0000
0100
,
0000
1000
0100
0010
0002
0000
0003
0100
,
0010
0000
1000
0000
0001
0000
0010
0000
0100
0000
1000
0000
0001
0000
0000
0100
,
0000
0000
0001
0000
1000
0000
0000
0100
0000
0000
2000
0000
0000
0000
0010
0000
,
0000
0010
0000
0000
0020
0000
0000
0000
3030
0000
0000
0000
1000
0000
0000
0001
,
0000
0000
1000
0000
0100
0000
0000
0020
0000
0000
0000
0000
0030
0000
0000
0000
,
0001
0000
0100
0000
0000
0000
0001
1000
0000
0001
1000
0000
0010
0100
0000
0010
,
0000
0100
0001
0010
0100
1000
0010
0100
,
0010
0000
1000
0001
0010
0001
0100
0010
,
1000
0000
0010
0100
0001
0010
0001
1000
,
0010
0000
0000
0000
0100
0000
0100
0000
0002
0000
0000
0000
0013
0000
0000
0100
,
0000
0000
1000
0000
0001
0100
0000
0001
0000
0000
0100
0000
0010
1000
0000
0010
,
0000
0000
1000
0000
0100
0010
0000
0200
0300
0000
0000
0000
0000
0000
0000
0000
,
1000
0100
0000
1000
0000
0000
0100
0000
0010
0001
0000
0010
0000
0000
0001
0000
,
0100
0010
0000
0220
0330
0000
0000
0000
0000
0000
0000
0000
1000
0000
0100
0000
,
0010
0100
0010
0000
0100
0000
1000
0000
0002
0000
0000
0000
0003
0000
0100
0000
,
0010
0100
0010
0000
0100
0000
0001
0000
2000
0000
0000
0000
3100
0000
0001
0000
,
0100
0001
1000
0010
1000
0010
0001
0100
,
0001
0100
0010
0001
0010
1000
0000
0100
,
0010
0001
0010
0000
0100
0000
1000
0000
0002
0000
0000
0000
0003
0000
0100
0000
,
0010
1000
0010
0000
0100
0000
0001
0000
2000
0000
0000
0000
3100
0000
0001
0000
,
0100
1000
0010
0001
0010
1000
0000
1100
,
0000
0101
0000
0000
0001
0000
0001
0010
0000
0010
0200
0000
0000
0000
1300
0001
,
1000
0000
0000
0000
0001
0000
0100
0000
1000
0000
0100
0010
0100
0000
0001
0000
,
0010
0210
0000
1300
0001
0100
0010
1000
,
0001
0000
0000
0000
1000
0000
0100
0000
0001
0000
0100
0010
0100
0000
1000
0000
,
0010
0210
0000
0301
1000
0100
0010
0001
,
1000
0000
0000
0000
0001
0000
0100
0001
0000
0100
0010
0000
1000
0000
0010
0000
,
0100
0000
0102
0000
0000
0000
0013
0000
0100
0000
1000
0000
0010
0000
0000
0100
,
0000
0010
1000
0100
0101
0100
1000
0000
,
0001
0010
0001
0000
0000
0000
1000
0010
1000
0000
0000
0000
0200
0000
0000
0010
,
0000
0310
0000
0000
0001
0000
0010
0000
1000
0000
0010
0100
0010
0000
0001
0000
,
0100
0120
0000
1030
0001
0010
0100
1000
,
0001
0000
0000
0000
1000
0000
0010
0100
0000
0010
0000
1010
0000
0001
0000
0010
,
0100
0000
1000
0000
0001
0000
0010
0100
0000
0010
0000
0011
0000
1000
0010
0000
,
0100
0000
0001
0000
2000
0000
0000
3200
0000
0000
0320
0000
0000
0000
0000
0032
,
0000
0203
2300
0000
3002
0000
0023
0000
,
2030
0000
0000
0000
3100
0000
0010
0001
0010
0000
0001
0000
0100
0000
0010
1000
,
0010
0000
1000
0000
0001
0100
0001
0000
1000
0100
1000
0000
0020
0000
0100
0000
,
0100
0000
0030
0000
0010
0000
1000
0000
0001
0000
0010
0001
0000
1000
0000
0100
,
1000
0000
0001
0000
0000
0000
0100
0010
1000
0000
0000
0000
0001
0010
0000
0001
,
0010
0000
0100
1000
0000
0100
1000
0000
0001
0100
0000
0001
0100
0000
0010
1000
,
0000
0010
1000
0000
0100
0010
0000
0010
0000
0000
0002
0000
1003
0000
0100
0000
,
0010
0000
0001
1000
0000
0001
0000
1000
0010
0000
0100
0000
0001
0000
0010
0000
,
0100
0000
1000
0001
0000
1000
0000
0001
0020
0000
0000
0000
0130
0000
1000
0000
,
0010
0000
1000
0100
0000
0100
0000
1000
0020
0000
0000
0000
0130
0000
0001
0000
,
0010
0000
0001
0100
0000
0100
0000
0001
0020
0000
0000
0000
0130
0000
1000
0000
,
0010
0000
0100
0001
0000
0001
0000
0010
0200
0000
0000
0000
1300
0000
0000
1001
,
0000
0000
0000
0001
0000
0000
0010
0000
0000
0000
0101
0000
0000
0000
2100
0000
0000
0000
0000
0000
0000
0010
0000
0000
,
0010
3010
1001
0000
0000
0000
0000
0000
;

//--------------- dance-single - forcednature ----------------
#NOTES:
     dance-single:
     forcednature:
     Hard:
     16:
     0,0,0,0,0:
0000
0000
0000
0000
,
0000
0000
0000
0000
,
0000
0000
0000
0000
,
0000
0000
0000
0000
,
0000
0000
0000
0000
,
1000
0000
1000
0000
0100
0000
1000
0001
0000
0010
0000
0100
1000
0000
0000
0000
,
0001
0000
0001
0000
0100
0000
0001
1000
0000
0010
0000
0100
0001
0000
1000
0000
,
0100
0000
0100
0000
0010
0000
0100
1000
0000
0001
0000
0100
0010
0000
1000
0000
,
0000
0001
0010
0000
0100
0010
0000
0100
1000
0000
0001
1000
0010
0000
0220
0000
,
0000
0000
0300
0000
1030
0000
0001
0000
0010
0001
0000
1000
0001
0000
0100
0001
,
0000
0010
0200
0000
0000
0000
1300
0000
0010
0100
0000
0001
0000
0010
0000
1000
,
0000
0010
0100
0010
0100
0000
1000
0000
0010
1000
0000
0001
1000
0000
0100
1000
,
0000
0010
0200
0000
0000
0301
1000
0000
0100
0010
0001
1000
0010
0000
0100
0001
,
1000
0000
0000
0000
0100
0000
0000
0000
0100
0000
0000
0000
1000
0000
0000
0000
0000
0000
0010
0000
0000
0000
0000
0000
0100
0000
0000
0001
0000
0000
0000
0000
0000
1000
0000
0000
0001
0000
0000
0000
0000
0000
0010
0000
0000
0001
0000
0000
,
0000
0100
0020
0000
0000
0000
1030
0000
0001
0010
0000
0001
0000
0100
0000
1000
,
0000
0100
0010
0100
0010
0000
1000
0000
0100
0010
0000
0001
0100
0000
0010
1000
,
0000
0100
0010
0002
0000
0000
0100
0000
0103
0001
0100
0010
1000
0000
0001
1000
,
0100
0010
0001
0000
0100
0010
0000
0010
1000
0000
1000
0001
0000
0001
0010
0000
,
0100
0010
0000
0010
0001
0000
0001
1000
0000
1000
0010
0000
0100
0001
0000
1000
,
0100
0000
0110
0000
0010
0000
0001
1000
0010
0000
0100
0001
0000
0010
0000
0100
,
1000
0000
0010
0000
0100
0000
1000
0100
0000
0001
0100
0000
0001
0010
0001
0010
,
0100
1000
0001
0000
0100
0000
0001
0000
0010
0000
1000
0010
0000
0001
0000
0001
,
0010
0000
0110
0000
0100
0000
1000
0000
0010
0000
0001
0010
0000
1000
0000
1000
,
0010
0000
0110
0000
0100
0000
0001
0000
0010
0000
1000
0010
0000
0001
0000
0001
,
0100
0000
0110
0000
0010
0000
0010
1000
0000
1000
0100
0000
0010
0001
0100
0001
,
1000
0001
0020
0000
0000
0000
0100
0000
0100
0000
0001
0000
0030
0100
1000
0000
,
0001
1000
0000
0100
0020
0000
0000
0000
0031
0000
2000
0000
0000
0000
0000
0000
,
3020
0000
0000
0000
0000
0000
0000
0000
0030
0000
0100
0001
2000
0000
0000
3002
,
0000
0023
0230
2300
3002
0000
0003
0100
,
1000
0000
0100
0000
0001
0000
0010
0000
0100
0000
1000
0000
0020
0000
0000
0100
,
0000
1030
0000
0000
0002
0000
0000
2003
0000
0000
3200
0000
0000
0000
0001
0000
,
0000
0010
0000
0000
2300
0000
0000
0000
3000
0000
0010
1000
0002
0000
0000
0010
,
0000
0000
0103
0000
0002
0000
0000
2003
0000
0000
0000
0000
0000
0000
0000
0000
,
3200
0000
0310
0000
0000
0000
0010
0001
0000
0100
0001
0000
1000
0000
0010
0100
,
0010
0100
0001
0000
2000
0000
3200
0000
0302
0000
0003
0100
0000
0100
0000
1000
,
0100
0000
0000
0000
0010
0000
0001
0000
1000
0000
0001
0100
0020
0000
0000
1000
,
0000
0000
0230
0000
0301
0000
0000
0001
0010
0000
0200
0000
0000
0301
0100
0000
,
1000
0000
0001
0000
0100
0010
0100
0010
2000
0000
0000
0000
3100
0000
0000
0110
,
0000
0000
0010
0000
0001
0100
0000
0010
0000
0100
0001
0000
1000
0100
0000
0010
,
0000
0100
1000
0000
0010
0000
0000
2002
3003
0000
0000
0000
0000
0000
0000
0000
,
1000
0010
0000
0110
0000
0100
0001
0000
1000
0100
0000
0110
0000
0010
0001
0000
,
0100
0000
0000
2002
3003
0000
0000
0000
0000
0000
0000
0000
1000
0000
0100
0010
,
0001
1000
0100
0000
1000
0001
0010
0100
2000
0000
0000
0000
3001
0000
0100
0010
,
1000
0001
0100
0000
0001
1000
0010
0100
0002
0000
0000
0000
0013
0100
0010
0100
,
1000
0100
1000
0000
0010
0100
0010
0100
0001
0100
0001
0000
1000
0100
1000
0100
,
0010
0001
0010
0000
0001
0100
0001
0100
0010
1000
0010
0000
0000
0000
1000
0100
,
0010
0001
1000
0000
0001
0010
0100
1000
0020
0000
0000
0000
0030
0000
1000
0010
,
0100
0001
1000
0000
0001
0100
0010
1000
0200
0000
0000
0000
0310
0001
0010
0001
,
1000
0100
1000
0000
0010
1000
0010
0100
0001
0000
0021
0000
0000
0000
0130
0000
,
0100
0000
0000
1000
0000
0000
0000
0000
0000
1000
0000
0000
0010
0000
0000
0000
0000
0000
0100
0000
0000
0001
0000
0000
1000
0000
0000
0000
0000
0000
1001
0000
0000
0000
0000
0000
0000
0000
0000
0000
0000
0000
1000
0000
0100
0000
0010
0000
,
0001
0000
0000
0000
0001
0100
0010
1000
0010
0000
0100
0001
1000
0010
0000
1000
,
0001
0000
1200
0000
0000
0000
0310
0000
0001
0100
0000
0001
0020
0000
0130
2000
,
0000
3001
0200
0000
0301
0010
0100
1000
0100
0000
0010
0001
1000
0100
0000
1000
,
0001
0000
0201
0000
0000
0000
0310
0000
1000
0100
0000
0010
0200
0000
0310
0002
,
0000
1003
0020
0000
0130
0001
1000
0100
1000
0000
0001
0010
0001
1000
0010
0000
,
0100
0000
1002
0000
0000
0000
0013
0000
0100
1000
0100
0010
0002
0000
0103
0020
,
0000
1030
0200
0000
0310
0000
1001
0000
1001
0000
1000
0001
0020
0000
0000
0000
,
0031
0000
0010
0000
0100
0000
1000
0000
0000
0000
0000
0000
0000
0000
0000
0000
0000
0000
1000
0000
0010
0000
0100
0000
0001
0000
0000
0000
0000
0000
0000
0000
0000
0000
0000
0000
0020
0000
0000
0000
0000
0000
0000
0000
0000
0230
0000
0000
,
0000
2300
0000
0000
3001
0010
0100
1000
0100
0000
0010
0001
1000
0010
0000
0100
,
0001
0000
0021
0000
0000
0000
0130
0000
0010
0001
1000
0001
0200
0000
0310
1000
,
0001
1000
0200
0000
0301
0000
0100
1000
0001
1000
0000
0020
0000
0100
0000
0130
,
0001
0000
1000
0000
0010
0000
0100
0001
1000
0010
1000
0002
0000
0013
0100
1000
,
0100
0010
0001
0000
2000
0000
0000
3200
0000
0000
0320
0000
0001
0000
0000
0230
,
0000
0000
0000
2300
0000
0000
3002
0000
0000
0000
0000
0000
2000
0000
0000
0000
3003
0000
0220
0000
0000
0000
0330
0000
,
2002
0000
0000
0000
0000
0000
0000
0000
3003
0000
0000
0000
0001
0000
0000
0010
0000
0000
0100
0000
0000
1000
0000
0000
0010
0000
0000
0100
0000
0000
0010
0000
0000
0000
0000
0000
1000
0000
0000
0100
0000
0000
0010
0000
0000
0001
0000
0000
,
0100
0000
0000
0010
0000
0000
0100
0000
0000
0000
0000
0000
0001
0000
0100
0000
0001
0000
0100
0000
0000
0000
0000
0000
0010
0000
1000
0000
0010
0000
1000
0000
0000
0000
0000
0000
0001
0000
0000
0000
0000
0000
1001
0000
0000
0000
0000
0000
,
0110
0000
0000
0000
1000
0000
0100
0000
0001
0000
0100
1000
0000
1010
0000
0010
,
0100
0000
0000
0000
0000
0000
1001
0000
0000
0000
0000
0000
0000
0000
0000
0000
0000
0000
0001
0000
0100
0000
0010
0000
1000
0000
0000
0000
0000
0000
0000
0000
0000
0000
0000
0000
1000
0000
0000
0100
0000
0000
0000
0000
0000
0100
0000
0000
,
0001
0000
0100
1000
0000
0010
1000
0000
0001
0100
0000
0100
1000
0000
0100
0001
,
0000
0010
0001
0000
0100
0010
0000
0110
0000
1000
0002
0000
0103
0001
1000
0010
,
1000
0000
0001
0010
0000
1100
0000
1000
0010
0000
0101
0000
0001
0010
0100
0010
,
0001
0000
0000
1000
0000
0000
0010
0000
0000
1000
0000
0000
0200
0000
0000
0000
0000
0000
0320
0000
0000
0000
0000
0000
0031
0000
1000
0000
0001
0000
1000
0000
0000
0000
0000
0000
0010
0000
0000
1000
0000
0000
0001
0000
0000
1000
0000
0000
,
0100
0000
0000
1000
0000
0000
0001
0000
0000
1000
0000
0000
0000
0000
0000
0010
0000
0000
0000
0000
0000
0010
0000
0000
1000
0000
0010
0000
0100
0000
0001
0000
0000
0000
0000
0000
0010
0000
0000
0001
0000
0000
1000
0000
0000
0001
0000
0000
,
0100
0000
0000
0001
0000
0000
1000
0000
0000
0001
0000
0000
0000
0000
0000
0010
0000
0000
0000
0000
0000
0010
0000
0000
0001
0000
0010
0000
0100
0000
1000
0000
0000
0000
0000
0000
0001
0000
0000
0100
0000
0000
0010
0000
0000
0100
0000
0000
,
1000
0000
0000
0100
0000
0000
0010
0000
0000
0100
0000
0000
0000
0000
0000
0001
0000
0000
0000
0000
0000
0001
0000
0000
0010
0000
0100
0000
1000
0000
0001
0000
0000
0000
0000
0000
0100
0000
0000
0001
0000
0000
0000
0000
0000
0011
0000
0000
,
0000
0000
0000
0100
0000
0000
1000
0000
0000
0000
0000
0000
1010
0000
0000
0000
0000
0000
0000
0000
0011
0000
0000
0000
0000
0000
0000
0000
0201
0000
0000
0000
0000
0000
0000
0000
0000
0000
0310
0000
1000
0000
0010
0000
0000
1000
0000
0000
,
0010
0100
0001
0100
1000
0000
0000
0000
0000
0000
0000
0000
0000
0000
0000
0000
;

//--------------- dance-double - forcednature ----------------
#NOTES:
     dance-double:
     forcednature:
     Easy:
     9:
     0,0,0,0,0:
00000000
00000000
00000000
00000000
,
00000000
00000000
00000000
00000000
,
00000000
00000000
00000000
00000000
,
00000000
00000000
00000000
00000000
,
00000000
00000000
00000000
00000000
,
00001000
00010000
00000100
00010000
,
00001000
01000000
00001000
00010000
,
00000010
00010000
00001000
00010000
,
00001000
00100000
00001000
00000000
00011000
00000000
00000000
02000000
,
00000000
03000000
10010000
00000000
10000000
00000000
01000000
00000000
,
00100000
01000000
00000000
00000000
00100000
00000000
00001000
00000000
,
00010000
00000010
00001000
00000010
,
00000100
00000001
00000000
00000000
00001000
00000000
00000100
00000000
,
00010000
00001000
01000000
00010000
,
01000000
00100000
00000000
00000000
10000000
00000000
01000000
00000000
,
00100000
00010000
01000000
00010000
,
00100000
00001000
00000000
00000000
00010000
00000000
00000010
00000000
,
00001000
00000000
00000001
00000000
00000001
00000010
00000000
00000010
,
00000100
00000000
00000100
00001000
00000000
00001000
00000010
00000000
,
00000010
00000100
00000000
00000000
00000001
00000000
00001000
00000001
,
00001000
00000100
00011000
00020000
,
00000000
00000000
00031000
00010000
00001000
00000000
01000000
00000000
,
00010000
00000000
10000000
00010000
10000000
00000000
01000000
00000000
,
00100000
00000000
00010000
10000000
00010000
00000000
01000000
00000000
,
00001000
00000000
00000000
00000000
00010000
00000000
00000000
00000000
00011000
00000000
00000000
00000000
00001000
00000000
00000000
00010000
,
00000000
00000000
00000200
00000000
00000000
00000000
00000000
00000000
00000000
00000000
00000000
00000000
00000300
00000010
00000000
00000000
,
00000010
00000002
00000000
00000003
,
00000200
00000000
00000300
00002000
,
00000000
00023000
00000000
00030000
,
00002000
00000000
00103000
00010000
,
00010000
20000000
00000000
30100000
,
01000000
00200000
00000000
20300000
,
00000000
31000000
00100000
00020000
,
00000000
00000000
00000000
00000000
00030000
00000000
01000000
00000000
00000000
01000000
00000000
00000000
00001000
00000000
00000000
00001000
,
00000000
00011000
00020000
00030000
,
00000100
00001000
00000100
00000010
,
00000001
00001000
00000001
00000000
00000200
00000000
00000300
00000000
,
00000010
00010000
00001000
00022000
,
00033000
00000000
00000000
00000000
01000000
00000000
00000000
00010000
00000000
00000000
00000000
00000000
01000000
00000000
00000000
00010000
,
00000000
00000000
00000000
00000000
00100000
00000000
00000000
00022000
00033000
00000000
00000000
00000000
00000000
00000000
00000000
00000000
,
00000100
00000000
00000000
00001000
00000000
00000000
00000000
00000000
00000100
00000000
00000000
00001000
00000000
00000000
00000000
00000000
,
00000010
00000000
00000000
00022000
00033000
00000000
00000000
00000000
00000000
00000000
00000000
00000000
01000000
00000000
00000000
00000000
,
00010000
01000000
00010000
00000000
01000000
00000000
00001000
00000000
,
00010000
00001000
00010000
00000000
00001000
00000000
00010000
00000100
,
00010000
00000000
00000100
00001000
00000100
00000000
00000010
00000100
,
00000010
00000001
00001000
00000010
,
00010000
00000000
00001000
00010000
00001000
00000000
00100000
00000000
,
00001000
00000000
00010000
00001000
00010000
00000000
00001000
00000000
,
01000000
00010000
00000000
01000000
00000000
00100000
00000000
10000000
,
00000000
10000000
00000000
00000000
01000000
00000000
00000000
01000000
00000000
00000000
00200000
00000000
00000000
00000000
00000000
00000000
,
00310000
00000000
00010000
10000000
00010000
00000000
01000000
00000000
,
00001000
00010000
00000100
00001000
,
00000000
00000000
00000001
00001000
00000001
00000000
00000010
00000000
,
00000100
00001000
00000100
00000010
,
00000000
00000000
00000100
00001000
00000100
00000000
00010000
00000000
,
00001000
01000000
00010000
10000000
,
00000000
00000000
01000000
00100000
01000000
00000000
01000000
00000000
,
10000000
00010000
00000000
00010000
01000000
00000000
00000000
00000000
,
00001000
00000000
00010000
00001000
00010000
00000000
00000100
00000000
,
00001000
00000000
00000100
00000000
00000010
00000000
00000001
00001000
,
00000001
00000000
00000100
00000010
00000100
00000000
00000001
00000000
,
00001000
00000000
00000100
00000010
00000100
00000000
00001000
00000000
,
00000010
00020000
00030000
00022000
,
00033000
00002000
00203000
00320000
,
02030000
00000000
03100000
10000000
00100000
00000000
10000000
01000000
,
10000000
00000000
01000000
00100000
01000000
00000000
00200000
00000000
,
00300000
00000000
00000000
00000000
00001000
00000000
00010000
00000000
00001000
00000000
00000000
00010000
00000000
00001000
00000000
00000000
,
00010000
00000000
00001000
00000000
00000000
00000000
00000000
00000000
00011000
00000000
00000000
00000000
00000100
00000000
00000000
00000100
,
00000000
00000000
00010000
00000000
00000000
00010000
00000000
00000000
00001000
00000000
00000000
00001000
00000000
00000000
01000000
00000000
,
00000000
01000000
00000000
00000000
00010000
00000000
00000000
10000000
00000000
00000000
01000000
00000000
00000000
00000000
00000000
00000000
,
00100000
00000000
00010000
00100000
00010000
00000000
01000000
00000000
,
00001000
00000000
00010000
00001000
00010000
00000000
00000100
00000000
,
00001000
00000000
00000100
00000010
00000001
00000000
00000100
00000000
,
00000010
00000000
00000100
00000010
00001000
00000000
00000100
00000000
,
00001000
00000000
00000000
00000000
00000100
00000000
00010000
00000000
00001000
00000000
00000000
00000000
01000000
00000000
00000000
00010000
,
00000000
00000000
00000000
10000000
00000000
00000000
01000000
00000000
00000000
00000000
01000000
00000000
00000000
00000000
00200000
00000000
00000000
00000000
00000000
00000000
00000000
00000000
00000000
00000000
,
00300000
10010000
00000000
00000000
;

//--------------- dance-double - forcednature ----------------
#NOTES:
     dance-double:
     forcednature:
     Medium:
     14:
     0,0,0,0,0:
00000000
00000000
00000000
00000000
,
00000000
00000000
00000000
00000000
,
00000000
00000000
00000000
00000000
,
00000000
00000000
00000000
00000000
,
00000000
00000000
00000000
00000000
,
00001000
00000000
00010000
00000000
00000100
00000000
00001000
00000000
00000000
00001000
00000000
00000000
00000010
00000000
00000000
00000000
,
00010000
00000000
00001000
00000000
01000000
00000000
00010000
00000000
00000000
00010000
00000000
00000000
00100000
00000000
00000000
00000000
,
00001000
00000000
00010000
00000000
00000010
00000000
00001000
00000000
00000000
00001000
00000000
00000000
00000100
00000000
00010000
00000000
,
00000000
00000000
00001000
00000000
00000000
00001000
00000000
00000000
01000000
00000000
00000000
00010000
00000000
00000000
00210000
00000000
,
00000000
00000000
00000000
00000000
01300000
00000000
10000000
00000000
00000000
01000000
00000000
00000000
00010000
00000000
00000000
00001000
,
00000000
00000000
00021000
00000000
00000000
00000000
00030010
00000000
00000000
00010000
00000000
00000100
00000000
00010000
00000000
00001000
,
00000000
01000000
00000000
00000000
00010000
00000000
10000000
00000000
00000000
00010000
00000000
00000000
00100000
00000000
00000000
01000000
,
00000000
12000000
00000000
03100000
00010000
01000000
00001000
00010000
,
00000000
00000000
00000000
00000000
00000100
00000000
00000000
00000000
00001000
00000000
00000000
00000000
00000100
00000000
00000000
00000000
00000000
00000000
00000010
00000000
00000000
00000000
00000000
00000000
00000000
00000000
00000000
00000001
00000000
00000000
00000000
00000000
00000000
00000000
00000000
00000000
00001000
00000000
00000000
00000000
00000000
00000000
00000000
00000000
00000000
00000001
00000000
00000000
,
00000000
00000000
00000201
00000000
00000000
00000000
00000310
00000000
00000000
00001000
00000000
00000100
00000000
00010000
00000000
00001000
,
00000000
00100000
00000000
00000000
00010000
00000000
01000000
00000000
00000000
00010000
00000000
00000000
10000000
00000000
00000000
01000000
,
00000000
01200000
00000000
00310000
01000000
00001000
00010000
00010000
,
00000100
00000000
00000000
00000000
00001000
00000010
00000000
00001000
00000010
00000000
00010000
00001000
00000000
00010000
00001000
00000000
,
01000000
00010000
00000000
01000000
00010000
00000000
10000000
01000000
00000000
10000000
01000000
00000000
00100000
00010000
00000000
00100000
,
00010000
00000000
02000000
00000000
00000000
00000000
03001000
00000000
00010000
00000000
00000000
00001000
00000000
00010000
00000000
00000000
,
00001000
00000000
00010000
00000000
00000100
00000000
00000000
00000110
00000000
00000000
00000010
00000000
00000000
00000001
00000000
00000000
,
00002000
00000000
00000000
00000000
00003010
00000000
00000100
00000000
00001000
00000000
00000000
00010000
00000000
00001000
00000000
00000000
,
00100000
00000000
00010000
00000000
00100000
00000000
01000000
00000000
00010000
00000000
00000000
00001000
00000000
00010000
00000000
00000000
,
00000010
00000000
00001000
00000000
00000010
00000000
00000100
00000000
00001000
00000000
00000000
00010000
00000000
00001000
00000000
00000000
,
01000000
00000000
00010000
00000000
00100000
00000000
00000000
00100000
01000000
00000000
10000000
00000000
00010000
01000000
00000000
00010000
,
01000000
00000000
00002000
00000000
00000000
00000000
00000000
00000000
00000000
00000000
00000000
00000000
00003000
00010000
00001000
00000000
,
00010000
00001000
00000000
00010000
00002000
00000000
00000000
00000000
00000000
00000000
00023000
00000000
00000000
00000000
00000000
00000000
,
00030200
00000000
00000000
00000000
00000000
00000000
00000000
00000000
00000300
00000000
00000000
00000000
00000010
00000000
00000000
00000001
,
00000000
00001000
00000001
00000100
00002000
00000000
00003000
00010000
,
00100000
00000000
01000000
00000000
00100000
00000000
10000000
00000000
00010000
00000000
10000000
00000000
01000000
00000000
00000000
00010000
,
00000000
00000000
00001000
00000000
00000100
00000000
00000000
00001000
00000000
00000000
00020000
00000000
00000000
00000000
00000010
00000000
,
00000000
00000010
00000000
00000000
00000020
00000000
00000000
00000000
00030030
00000000
00000000
00000000
00000010
00000000
00000000
00000100
,
00000000
00000000
00001000
00000000
00000100
00000000
00000000
00000002
00000000
00000000
00000000
00000000
00000003
00000000
00000000
00000000
,
00000010
00000000
00000100
00000000
00000000
00000000
00010000
00001000
00000000
00010000
00001000
00000000
00100000
01000000
00000000
00100000
,
00000000
00010000
10000000
00100000
01000000
00100000
00010000
00001000
,
00010000
00000000
00000100
00001000
00000100
00000010
00000001
00001000
,
00000010
00000000
00000100
00001000
00010000
00001000
00100000
00010000
,
01000000
00000000
00000000
00000000
00100000
00000000
00100000
00000000
20000000
00000000
00000000
00000000
31000000
00000000
00000000
00010000
,
00000000
00000000
00001000
00000000
00010000
00000100
00000000
00000100
00000000
00000000
00010000
00000000
00001000
01000000
00000000
01000000
,
00000000
00000000
00001000
00000000
00010000
00000010
00000000
00000020
00000030
00000000
00000000
00000000
00000000
00000000
00000000
00000000
,
00010000
00000100
00000000
00000100
00000000
00000000
00000010
00000000
00001000
01000000
00000000
01000000
00000000
00000000
00100000
00000000
,
00010000
00001000
00000000
00022000
00033000
00000000
00000000
00000000
00000000
00000000
00000000
00000000
00001000
00000000
00100000
00000000
,
00010000
00100000
00010000
00000000
01000000
00000000
00001000
00000000
00020000
00000000
00000000
00000000
00030000
00000000
00000010
00000000
,
00001000
00000010
00001000
00000000
00000100
00000000
00010000
00000000
00002000
00000000
00000000
00000000
00003010
00000000
00000100
00000000
,
00000010
00000100
00001000
00000010
00001000
00000010
00000100
00001000
,
00000100
00001000
00010000
01000000
00100000
01000000
00000000
00100000
,
00010000
10000000
00010000
00000000
01000000
00000000
00001000
00000000
00020000
00000000
00000000
00000000
00030000
00000000
00000010
00000000
,
00001000
00000001
00001000
00000000
00000100
00000000
00010000
00000000
00002000
00000000
00000000
00000000
01003000
00000000
00010000
00000000
,
01000000
00100000
00010000
00000100
00010000
00001000
00000000
00010010
,
00000000
00011000
00000000
00000000
00001000
00000000
00001000
01000000
00000000
01000000
00020000
00000000
00000000
00000000
00130000
01000000
,
10000000
00000000
00000000
00000000
01000000
00000000
00010000
00000000
00001000
00000000
00100000
00010000
00100000
00000000
00001000
00000000
,
00010000
00010020
00000000
00000130
00000010
00000001
00000010
00001000
,
00010000
00000000
00000000
00000000
01000000
00000000
00010000
00000000
00100000
00000000
01000000
10000000
01000000
00000000
00010000
00000000
,
00001000
00201000
00000000
00310000
00100000
01000000
00010000
01000000
,
10000000
00000000
00000000
00000000
00100000
00000000
01000000
00100000
00000000
01000000
00010000
00000000
00100000
00000000
00001000
00000000
,
00010000
00000000
00010020
00000000
00000000
00000000
00000130
00000000
00001000
00000000
00000100
00000000
00000001
00000000
00000000
00000010
,
00000000
00001000
00000010
00000110
00001100
00001000
00000010
00000000
,
00001000
00000100
00010000
00000000
00000000
00000000
00001000
01000000
00010000
00000000
00000000
00000000
00200000
00000000
00000000
01000000
,
00000000
01300000
00000000
00000000
00100000
00000000
00001000
00000000
00010000
00000000
00000010
00001000
00000010
00000000
00010000
00000000
,
00001000
02001000
00000000
03010000
00100000
01000000
00010000
00001000
,
00100000
00000000
00000000
00000000
00010000
00000000
01000000
00001000
00000000
00010000
00000000
00010010
00000000
00000010
00000000
00001000
,
00000100
00000000
00000010
00000000
00001000
00000000
00010000
00000100
00000000
00001000
00000000
00001010
00000000
00000010
00000100
00000000
,
00001000
00000000
00010000
00000000
00200000
00000000
00000000
20300000
00000000
00000000
32000000
00000000
00000000
00000000
00000000
03020000
,
00000000
00032000
00003020
00000000
00000032
00000000
00000203
00000000
,
00002300
00000000
00000000
00000000
00013000
00000000
00100000
00010000
00100000
00000000
01000000
00000000
00010000
00000000
01000000
00010000
,
01000000
00000000
00001000
00000000
00010000
00000010
00010000
00000000
00001000
00100000
00001000
00000000
00020000
00000000
00000100
00000000
,
00000100
00000000
00030000
00000000
00010000
00000000
00001000
00000000
00000010
00000000
00000100
00010000
00000000
00001000
00000000
01000000
,
00010000
00000000
00100000
00000000
00000000
00000000
01000000
10000000
00010000
00000000
00000000
00000000
01000000
00010000
00000000
01000000
,
00001000
00000000
00010000
00000100
00000000
00001000
00000100
00000000
00001000
00000010
00000000
00010000
00001000
00000000
00100000
00010000
,
00000000
00100000
01000000
00000000
10000000
00100000
00000000
00100000
00000000
00000000
02000000
00000000
13000000
00000000
01000000
00000000
,
00010000
00000000
00100000
00010000
00000000
01000000
00000000
00010000
00100000
00000000
00001000
00000000
00000010
00000000
00000100
00000000
,
00001000
00000000
00000001
00000100
00000000
00000010
00000000
00000100
00000002
00000000
00000000
00000000
00000013
00000000
00000100
00000000
,
00010000
00000000
00000010
00001000
00000000
00001000
00000000
00000100
00020000
00000000
00000000
00000000
00031000
00000000
01000000
00000000
,
00010000
00000000
00100000
01000000
00000000
01000000
00000000
10000000
00200000
00000000
00000000
00000000
01300000
00000000
00001000
00000000
,
00010000
00000000
00000100
00000010
00000000
00000010
00000000
00000001
00000200
00000000
00000000
00000000
00001300
00000000
00000000
00011000
,
00000000
00000000
00000000
00010000
00000000
00000000
00110000
00000000
00000000
00000000
10100000
00000000
00000000
00000000
12000000
00000000
00000000
00000000
00000000
00000000
00000000
00100000
00000000
00000000
,
00100000
03010000
01010000
00000000
00000000
00000000
00000000
00000000
;

//--------------- dance-double - forcednature ----------------
#NOTES:
     dance-double:
     forcednature:
     Hard:
     17:
     0,0,0,0,0:
00000000
00000000
00000000
00000000
,
00000000
00000000
00000000
00000000
,
00000000
00000000
00000000
00000000
,
00000000
00000000
00000000
00000000
,
00000000
00000000
00000000
00000000
,
00001000
00000000
00001000
00000000
01000000
00000000
00001000
00010000
00000000
00000100
00000000
00001000
00000010
00000000
00000000
00000000
,
00010000
00000000
00010000
00000000
00000100
00000000
00010000
00001000
00000000
01000000
00000000
00010000
00100000
00000000
00000000
00000000
,
00001000
00000000
00001000
00000000
00100000
00000000
00001000
00010000
00000000
00000010
00000000
00001000
00000100
00000000
00000010
00000000
,
00000000
00000001
00000100
00000000
00000100
00001000
00000000
00001000
00010000
00000000
00010000
00100000
01000000
00000000
02002000
00000000
,
00000000
00000000
03000000
00000000
00103000
00000000
01000000
00000000
00100000
00010000
00000000
00100000
00001000
00000000
00010000
00000010
,
00000000
00001000
00000020
00000000
00000000
00000000
00000130
00000000
00000001
00000010
00000000
00000001
00000000
00000100
00000000
00001000
,
00000000
00010000
00001000
00010000
00001000
00000000
00100000
00000000
00010000
00100000
00000000
01000000
10000000
00000000
00010000
01000000
,
00000000
00001000
00020000
00000000
00000000
00030100
00001000
00000000
00000100
00000010
00000001
00001000
00000001
00000000
00000100
00000010
,
00001000
00000000
00000000
00000000
00000100
00000000
00000000
00000000
00000100
00000000
00000000
00000000
00010000
00000000
00000000
00000000
00000000
00000000
00001000
00000000
00000000
00000000
00000000
00000000
01000000
00000000
00000000
00010000
00000000
00000000
00000000
00000000
00000000
10000000
00000000
00000000
00010000
00000000
00000000
00000000
00000000
00000000
00100000
00000000
00000000
00010000
00000000
00000000
,
00000000
01000000
00200000
00000000
00000000
00000000
10300000
00000000
01000000
00100000
00000000
00001000
00000000
00010000
00000000
00000010
,
00000000
00000100
00000001
00000100
00000001
00000000
00000010
00000000
00000100
00010000
00000000
00001000
00010000
00000000
00001000
01000000
,
00000000
00010000
10000000
00200000
00000000
00000000
00010000
00000000
00310000
00100000
01000000
00100000
10000000
00000000
00100000
10000000
,
00010000
01000000
00001000
00000000
00010000
00000100
00000000
00000100
00001000
00000000
00001000
00000010
00000000
00000010
00010000
00000000
,
00001000
01000000
00000000
01000000
00010000
00000000
00010000
00100000
00000000
00100000
00001000
00000000
00010000
00000100
00000000
00001000
,
00000010
00000000
00000110
00000000
00000100
00000000
00000001
00001000
00000100
00000000
00010000
00001000
00000000
01000000
00000000
00001000
,
00010000
00000000
00100000
00000000
01000000
00000000
00010000
00100000
00000000
01000000
00100000
00000000
00001000
00010000
00001000
00010000
,
00000100
00001000
00000001
00000000
00000100
00000000
00001000
00000000
00010000
00000000
00001000
00000100
00000000
00001000
00000000
00010000
,
01000000
00000000
01100000
00000000
01000000
00000000
00010000
00000000
00001000
00000000
00010000
01000000
00000000
00010000
00000000
00001000
,
00000100
00000000
00000110
00000000
00000010
00000000
00001000
00000000
00010000
00000000
01000000
00100000
00000000
10000000
00000000
10000000
,
01000000
00000000
01100000
00000000
00100000
00000000
00100000
00001000
00000000
00001000
00010000
00000000
00000010
00001000
00000100
00001000
,
00000001
00001000
00000020
00000000
00000000
00000000
00000001
00000000
00000001
00000000
00000100
00000000
00000030
00000010
00001000
00000000
,
00001000
00010000
00000000
00010000
02000000
00000000
00000000
00000000
03010000
00000000
20000000
00000000
00000000
00000000
00000000
00000000
,
32000000
00000000
00000000
00000000
00000000
00000000
00000000
00000000
03000000
00000000
00100000
00001000
00020000
00000000
00000000
00030020
,
00000000
00002030
00003200
00000320
00000032
00000000
00000003
00000100
,
00001000
00000000
00010000
00000000
00100000
00000000
01000000
00000000
10000000
00000000
01000000
00000000
00020000
00000000
00000000
00100000
,
00000000
01030000
00000000
00000000
00020000
00000000
00000000
00230000
00000000
00000000
02300000
00000000
00000000
00000000
03020000
00000000
,
00000000
00030200
00000000
00000000
00002300
00000000
00000000
00000000
00003000
00000000
00000001
00000100
00000020
00000000
00000000
00001000
,
00000000
00000000
00010030
00000000
00002000
00000000
00000000
02003000
00000000
00000000
00000000
00000000
00000000
00000000
00000000
00000000
,
03020000
00000000
00130000
00000000
00000000
00000000
01000000
00100000
00000000
00010000
00100000
00000000
00001000
00000000
00010000
00000010
,
00010000
00000010
00001000
00000000
00000200
00000000
00000302
00000000
00000203
00000000
00000300
00000010
00000000
00000010
00000000
00000001
,
00001000
00000000
00000000
00000000
00000010
00000000
00010000
00000000
00001000
00000000
00100000
00010000
20000000
00000000
00000000
00100000
,
00000000
00000000
32000000
00000000
03010000
00000000
00000000
00010000
00001000
00000000
00000020
00000000
00000000
00000031
00000010
00000000
,
00000100
00000000
00010000
00000000
00001000
00100000
00001000
00100000
00020000
00000000
00000000
00000000
01030000
00000000
00000000
01100000
,
00000000
00000000
00100000
00000000
10000000
01000000
00000000
00010000
00000000
00001000
00000100
00000000
00000001
00000100
00000000
00001000
,
00000000
00010000
01000000
00000000
10000000
00000000
00000000
00022000
00033000
00000000
00000000
00000000
00000000
00000000
00000000
00000000
,
00000001
00000100
00000000
00001000
00000000
00010000
00100000
00000000
10000000
01000000
00000000
00010000
00000000
00001000
00000010
00000000
,
00000001
00000000
00000000
00022000
00033000
00000000
00000000
00000000
00000000
00000000
00000000
00000000
00000100
00000000
00001000
00000010
,
00010000
00001000
01000000
00000000
00100000
00001000
00010000
00000100
00002000
00000000
00000000
00000000
00003010
00000000
00001000
00000100
,
00010000
00001000
00100000
00000000
00010000
01000000
00001000
00010000
00000020
00000000
00000000
00000000
00001030
00000100
00001000
00000100
,
00010000
00000100
00010000
00000100
00010000
00001000
00010000
00001000
01000000
00001000
01000000
00001000
01000000
00010000
01000000
00010000
,
10000000
00010000
10000000
00010000
10000000
01000000
10000000
01000000
00100000
01000000
00100000
00000000
00000000
00000000
00010000
01000000
,
00001000
00010000
00000100
00000000
00001000
00000010
00010000
00001000
00200000
00000000
00000000
00000000
00300000
00000000
00010000
00100000
,
00001000
00010000
00000010
00000000
00001000
00000100
00010000
00001000
02000000
00000000
00000000
00000000
03100000
10000000
00100000
10000000
,
01000000
00100000
00010000
00000000
00001000
00000100
00001000
00000100
00000010
00000001
00002000
00000000
00000000
00000000
00003010
00000000
,
00000010
00000000
00000000
00000100
00000000
00000000
00000000
00000000
00000000
00000100
00000000
00000000
00001000
00000000
00000000
00000000
00000000
00000000
00001000
00000000
00000000
00010000
00000000
00000000
01000000
00000000
00000000
00000000
00000000
00000000
01100000
00000000
00000000
00000000
00000000
00000000
00000000
00000000
00000000
00000000
00000000
00000000
10000000
00000000
01000000
00000000
00100000
00000000
,
00010000
00000000
00000000
00000000
01000000
00001000
00010000
00001000
00100000
00000000
01000000
10000000
01000000
00100000
00000000
00001000
,
00010000
00000000
00010200
00000000
00000000
00000000
00000310
00000000
00000100
00001000
00000000
00000001
00000200
00000000
00000310
00020000
,
00000000
00031000
00000020
00000000
00000130
00001000
00000100
00000010
00000001
00000000
00000100
00000001
00000100
00000010
00000000
00010000
,
00001000
00000000
00201000
00000000
00000000
00000000
01300000
00000000
00100000
00010000
00000000
01000000
00200000
00000000
10300000
02000000
,
00000000
03010000
00002000
00000000
00103000
00010000
10000000
00010000
01000000
00000000
00001000
00010000
00000010
00010000
00001000
00000000
,
00000010
00000000
00000210
00000000
00000000
00000000
00010300
00000000
00000100
00001000
00000100
00000010
00000002
00000000
00000103
00002000
,
00000000
00013000
00000020
00000000
00001030
00000000
00010100
00000000
00101000
00000000
00001000
01000000
00020000
00000000
00000000
00000000
,
10030000
00000000
01000000
00000000
00100000
00000000
00010000
00000000
00000000
00000000
00000000
00000000
00000000
00000000
00000000
00000000
00000000
00000000
00001000
00000000
00000100
00000000
00000010
00000000
00000001
00000000
00000000
00000000
00000000
00000000
00000000
00000000
00000000
00000000
00000000
00000000
00000200
00000000
00000000
00000000
00000000
00000000
00000000
00000000
00000000
00002300
00000000
00000000
,
00000000
00023000
00000000
00000000
00130000
01000000
00100000
10000000
00010000
00000000
00100000
01000000
10000000
01000000
00000000
00100000
,
00010000
00000000
01002000
00000000
00000000
00000000
00103000
00000000
00001000
00010000
00000010
00010000
00002000
00000000
00003010
00000100
,
00001000
00000100
00020000
00000000
00031000
00000000
01000000
00010000
00100000
01000000
00000000
21000000
00000000
00010000
00000000
30100000
,
10000000
00000000
01000000
00000000
00010000
00000000
00001000
00010000
00001000
00000010
00000100
00000020
00000000
00000031
00000100
00000010
,
00001000
00000100
00000010
00000000
00002000
00000000
00000000
00023000
00000000
00000000
02030000
00000000
00100000
00000000
00000000
23000000
,
00000000
00000000
00000000
30020000
00000000
00000000
02030000
00000000
00000000
00000000
00000000
00000000
00200000
00000000
00000000
00000000
03300000
00000000
00022000
00000000
00000000
00000000
00033000
00000000
,
00000220
00000000
00000000
00000000
00000000
00000000
00000000
00000000
00000330
00000000
00000000
00000000
00000001
00000000
00000000
00000010
00000000
00000000
00000100
00000000
00000000
00001000
00000000
00000000
00000010
00000000
00000000
00010000
00000000
00000000
00001000
00000000
00000000
00000000
00000000
00000000
10000000
00000000
00000000
01000000
00000000
00000000
00100000
00000000
00000000
00010000
00000000
00000000
,
01000000
00000000
00000000
00001000
00000000
00000000
00010000
00000000
00000000
00000000
00000000
00000000
00000100
00000000
00001000
00000000
00000100
00000000
00010000
00000000
00000000
00000000
00000000
00000000
00001000
00000000
01000000
00000000
00010000
00000000
01000000
00000000
00000000
00000000
00000000
00000000
00100000
00000000
00000000
00000000
00000000
00000000
01100000
00000000
00000000
00000000
00000000
00000000
,
10010000
00000000
00000000
00000000
10000000
00000000
01000000
00000000
00010000
00000000
00001000
00000100
00000000
00000001
00000000
00000010
,
00000100
00000000
00000000
00000000
00000000
00000000
00001001
00000000
00000000
00000000
00000000
00000000
00000000
00000000
00000000
00000000
00000000
00000000
00001000
00000000
00000100
00000000
00000010
00000000
00000001
00000000
00000000
00000000
00000000
00000000
00000000
00000000
00000000
00000000
00000000
00000000
00000100
00000000
00000000
00001000
00000000
00000000
00000000
00000000
00000000
00001000
00000000
00000000
,
00010000
00000000
01000000
00010000
00000000
00010000
00001000
00000000
00000010
00001000
00000000
00010000
00001000
00000000
00100000
00001000
,
00000000
00010000
00001000
00000000
00010000
01000000
00000000
01100000
00000000
00100000
00002000
00000000
00013000
00100000
01000000
00100000
,
10000000
00000000
01000000
00100000
00000000
00101000
00000000
00010000
00001000
00000000
00010010
00000000
00000010
00000100
00001000
00000100
,
00000010
00000000
00000000
00001000
00000000
00000000
00000001
00000000
00000000
00001000
00000000
00000000
00000100
00000000
00000000
00000010
00000000
00000000
00000100
00000000
00000000
00000000
00000000
00000000
00010000
00000000
00001000
00000000
00010000
00000000
00001000
00000000
00000000
00000000
00000000
00000000
01000000
00000000
00000000
00010000
00000000
00000000
00100000
00000000
00000000
00001000
00000000
00000000
,
00010000
00000000
00000000
00000010
00000000
00000000
00001000
00000000
00000000
00000100
00000000
00000000
00000000
00000000
00000000
00000110
00000000
00000000
00000000
00000000
00000000
00000010
00000000
00000000
00000001
00000000
00000010
00000000
00000100
00000000
00001000
00000000
00000000
00000000
00000000
00000000
00000010
00000000
00000000
00010000
00000000
00000000
00001000
00000000
00000000
00010000
00000000
00000000
,
00000100
00000000
00000000
00010000
00000000
00000000
00001000
00000000
00000000
01000000
00000000
00000000
00000000
00000000
00000000
01100000
00000000
00000000
00000000
00000000
00000000
00100000
00000000
00000000
10000000
00000000
01000000
00000000
00100000
00000000
00010000
00000000
00000000
00000000
00000000
00000000
01000000
00000000
00000000
00001000
00000000
00000000
00010000
00000000
00000000
00001000
00000000
00000000
,
00100000
00000000
00000000
01000000
00000000
00000000
00100000
00000000
00000000
00010000
00000000
00000000
00000000
00000000
00000000
01010000
00000000
00000000
00000000
00000000
00000000
01000000
00000000
00000000
00001000
00000000
00010000
00000000
00000100
00000000
00010000
00000000
00000000
00000000
00000000
00000000
00001000
00000000
00000000
00000010
00000000
00000000
00000000
00000000
00000000
00000110
00000000
00000000
,
00000000
00000000
00000000
00000100
00000000
00000000
00001000
00000000
00000000
00000000
00000000
00000000
00001010
00000000
00000000
00000000
00000000
00000000
00000000
00000000
00011000
00000000
00000000
00000000
00000000
00000000
00000000
00000000
02010000
00000000
00000000
00000000
00000000
00000000
00000000
00000000
00000000
00000000
03100000
00000000
10000000
00000000
00100000
00000000
00000000
10000000
00000000
00000000
,
01000000
00100000
00010000
01000000
10000000
00000000
00000000
00000000
00000000
00000000
00000000
00000000
00000000
00000000
00000000
00000000
;
