#VERSION:0.83;
#TITLE:Journey to the Wonderland;
#SUBTITLE:;
#ARTIST:N.P.B.;
#TITLETRANSLIT:;
#SUBTITLETRANSLIT:;
#ARTISTTRANSLIT:;
#GENRE:;
#ORIGIN:;
#TAGS:;
#CREDIT:;
#BANNER:Journey to the Wonderland.png;
#BACKGROUND:Journey to the Wonderland-bg.png;
#PREVIEWVID:;
#JACKET:Journey to the Wonderland-jacket.png;
#CDIMAGE:;
#DISCIMAGE:;
#LYRICSPATH:;
#CDTITLE:;
#MUSIC:Journey to the Wonderland.ogg;
#OFFSET:0.684000;
#SAMPLESTART:6.640000;
#SAMPLELENGTH:12.000000;
#SELECTABLE:YES;
#BPMS:0.000000=130.000000
;
#STOPS:;
#DELAYS:;
#WARPS:;
#TIMESIGNATURES:0.000000=4=4
;
#TICKCOUNTS:0.000000=4
;
#COMBOS:0.000000=1
;
#SPEEDS:0.000000=1.000000=0.000000=0
;
#SCROLLS:0.000000=1.000000
;
#FAKES:;
#LABELS:0.000000=Song Start
;
#BGCHANGES:;
#KEYSOUNDS:;
#ATTACKS:
;

//---------------dance-single - OrangeRight----------------
#NOTEDATA:;
#CHARTNAME:;
#CHARTHASH:322556522;
#STEPSTYPE:dance-single;
#BANNER:;
#DESCRIPTION:OrangeRight;
#CHARTSTYLE:;
#DIFFICULTY:Beginner;
#METER:2;
#METERF:2.000000;
#LASTSECONDHINT:85.623688;
#RADARVALUES:0.114916,0.182809,0.022345,0.089379,0.000000,72.000000,70.000000,2.000000,8.000000,0.000000,0.000000,0.000000,0.000000,0.000000,0.114916,0.182809,0.022345,0.089379,0.000000,72.000000,70.000000,2.000000,8.000000,0.000000,0.000000,0.000000,0.000000,0.000000;
#CREDIT:OrangeRight;
#OFFSET:0.684000;
#BPMS:0.000000=130.000000
;
#STOPS:;
#DELAYS:;
#WARPS:;
#TIMESIGNATURES:0.000000=4=4
;
#TICKCOUNTS:0.000000=4
;
#COMBOS:0.000000=1
;
#SPEEDS:0.000000=0.750000=0.000000=0
,14.000000=1.000000=2.000000=0
,185.000000=0.250000=1.000000=0
;
#SCROLLS:0.000000=1.000000
,184.000000=0.000000
,186.000000=4.000000
;
#FAKES:;
#LABELS:0.000000=Song Start
;
#NOTES:
0000
0000
0000
0000
,
0000
0000
0000
0000
,
0000
0000
0000
0000
,
0000
0000
0000
0000
,
1000
0000
1000
0000
,
0001
0000
0001
0000
,
1000
0000
0100
0000
,
1000
0000
1000
0000
,
0001
0000
0001
0000
,
1000
0000
1000
0000
,
0001
0000
0100
0000
,
0001
0000
0100
0000
,
0001
0000
0000
0000
,
0001
0000
0000
0000
,
1000
0000
1000
0000
,
0001
0000
0001
0000
,
1000
0000
0000
0000
,
1000
0000
0000
0000
,
0001
0000
1000
0000
,
0001
0000
1000
0000
,
0100
0000
0000
0000
,
0100
0000
0000
0000
,
0100
0000
0000
0000
,
1000
0000
0001
0000
,
0100
0000
0000
0000
,
0100
0000
0000
0000
,
0001
0000
0001
0000
,
1000
0000
1000
0000
,
0010
0000
0000
0000
,
0010
0000
0000
0000
,
0100
0000
0000
0000
,
0100
0000
0000
0000
,
0002
0000
0003
0000
,
0200
0000
0300
0000
,
0020
0030
2000
3000
,
0001
0000
0001
0000
,
1000
0000
1000
0000
,
0001
0000
0001
0000
,
1000
0000
0100
0000
,
0010
0000
0001
0000
,
1000
1000
1000
0000
,
0001
0001
0001
0000
,
1000
0000
0001
0000
,
2002
3003
0000
0000
,
2000
3000
0002
0003
,
0100
0000
0000
0000
,
0000
0000
0000
1001
;

//---------------dance-single - OrangeRight----------------
#NOTEDATA:;
#CHARTNAME:;
#CHARTHASH:268512300;
#STEPSTYPE:dance-single;
#BANNER:;
#DESCRIPTION:OrangeRight;
#CHARTSTYLE:;
#DIFFICULTY:Easy;
#METER:5;
#METERF:5.000000;
#LASTSECONDHINT:85.623688;
#RADARVALUES:0.226641,0.313387,0.100552,0.469242,0.000000,142.000000,133.000000,9.000000,42.000000,0.000000,0.000000,0.000000,0.000000,0.000000,0.226641,0.313387,0.100552,0.469242,0.000000,142.000000,133.000000,9.000000,42.000000,0.000000,0.000000,0.000000,0.000000,0.000000;
#CREDIT:OrangeRight;
#OFFSET:0.684000;
#BPMS:0.000000=130.000000
;
#STOPS:;
#DELAYS:;
#WARPS:;
#TIMESIGNATURES:0.000000=4=4
;
#TICKCOUNTS:0.000000=4
;
#COMBOS:0.000000=1
;
#SPEEDS:0.000000=0.500000=0.000000=0
,14.000000=1.000000=2.000000=0
,185.000000=2.000000=1.000000=0
;
#SCROLLS:0.000000=1.000000
,184.000000=0.000000
,186.500000=2.000000
;
#FAKES:;
#LABELS:0.000000=Song Start
;
#NOTES:
0000
0000
0000
0000
,
0000
0000
0000
0000
,
0000
0000
0000
0000
,
0000
0000
0000
0000
,
1000
0001
2000
3000
,
0001
1000
0002
0003
,
1000
0100
0010
0001
,
0100
0010
0200
0300
,
0001
1000
0002
0003
,
1000
0001
2000
3000
,
0001
0100
0100
0010
,
0010
1000
0001
1001
,
2000
3000
0002
0003
,
0100
0010
0100
0000
,
0002
0023
0032
0023
,
0230
2300
3002
1003
,
0002
0003
2000
3000
,
0010
0100
0010
0000
,
1000
0100
0001
0100
,
1000
0001
2000
3000
,
0002
0003
0001
0100
,
0020
0030
0010
1000
,
0200
0300
0100
1000
,
0001
1000
0000
1001
,
2000
3000
1000
0010
,
0200
0300
0100
0001
,
0010
0010
0100
0100
,
1000
0010
0100
0110
,
0020
0030
0200
0300
,
0001
1000
0001
0000
,
0020
0030
0200
0300
,
1000
0001
1000
0000
,
2000
0000
3200
0000
,
0302
0000
0203
0000
,
1300
0010
0001
0010
,
1000
0001
2000
3000
,
0001
0100
0002
0003
,
1000
0100
2000
3000
,
0001
0010
0100
1000
,
0010
0100
0002
0003
,
1000
1000
0200
0300
,
0010
0010
0002
0003
,
0100
0010
1000
0001
,
1001
2002
3003
0110
,
0220
0330
2002
3003
,
1000
0100
0001
0100
,
1000
0000
0000
1001
;

//---------------dance-single - OrangeRight----------------
#NOTEDATA:;
#CHARTNAME:;
#CHARTHASH:2147483647;
#STEPSTYPE:dance-single;
#BANNER:;
#DESCRIPTION:OrangeRight;
#CHARTSTYLE:;
#DIFFICULTY:Medium;
#METER:8;
#METERF:8.000000;
#LASTSECONDHINT:85.623688;
#RADARVALUES:0.402208,0.443965,0.212276,0.256966,0.000000,252.000000,233.000000,19.000000,23.000000,3.000000,0.000000,0.000000,0.000000,0.000000,0.402208,0.443965,0.212276,0.256966,0.000000,252.000000,233.000000,19.000000,23.000000,3.000000,0.000000,0.000000,0.000000,0.000000;
#CREDIT:OrangeRight;
#OFFSET:0.684000;
#BPMS:0.000000=130.000000
;
#STOPS:;
#DELAYS:;
#WARPS:;
#TIMESIGNATURES:0.000000=4=4
;
#TICKCOUNTS:0.000000=4
;
#COMBOS:0.000000=1
;
#SPEEDS:0.000000=0.500000=0.000000=0
,14.000000=1.000000=2.000000=0
,18.000000=0.500000=1.000000=0
,19.000000=1.000000=1.000000=0
,22.000000=0.500000=1.000000=0
,23.000000=1.000000=1.000000=0
,30.000000=0.500000=1.000000=0
,31.000000=1.000000=1.000000=0
,34.000000=0.500000=1.000000=0
,35.000000=1.000000=1.000000=0
,38.000000=0.500000=1.000000=0
,39.000000=1.000000=1.000000=0
,46.000000=2.000000=1.000000=0
,47.000000=0.750000=1.000000=0
,56.000000=1.000000=0.500000=0
,56.500000=0.750000=0.500000=0
,57.000000=1.000000=0.500000=0
,57.500000=0.750000=0.500000=0
,58.000000=1.000000=0.500000=0
,58.500000=0.750000=0.500000=0
,59.000000=1.000000=0.500000=0
,59.500000=0.750000=0.500000=0
,60.000000=1.000000=0.500000=0
,60.500000=0.750000=0.500000=0
,61.000000=1.000000=0.500000=0
,61.500000=0.750000=0.500000=0
,62.000000=1.000000=1.000000=0
,63.000000=0.750000=1.000000=0
,71.000000=1.000000=1.000000=0
,80.000000=0.750000=1.000000=0
,81.000000=1.000000=0.500000=0
,81.500000=0.750000=1.000000=0
,82.500000=1.000000=0.500000=0
,83.000000=1.500000=0.500000=0
,83.500000=1.000000=0.500000=0
,84.000000=0.750000=1.000000=0
,85.000000=1.000000=0.500000=0
,85.500000=0.750000=1.000000=0
,86.500000=1.000000=0.500000=0
,87.000000=1.500000=0.500000=0
,87.500000=1.000000=0.500000=0
,88.000000=0.750000=1.000000=0
,89.000000=1.000000=0.500000=0
,89.500000=0.750000=1.000000=0
,90.500000=1.000000=0.500000=0
,91.000000=1.500000=0.500000=0
,91.500000=1.000000=0.500000=0
,92.000000=1.200000=0.000000=0
,92.500000=1.400000=0.000000=0
,93.000000=1.600000=0.000000=0
,93.500000=1.800000=0.000000=0
,94.000000=2.000000=1.000000=0
,95.000000=1.000000=1.000000=0
,96.000000=0.750000=1.000000=0
,97.000000=1.000000=0.500000=0
,97.500000=0.750000=1.000000=0
,98.500000=1.000000=0.500000=0
,99.000000=1.500000=0.500000=0
,99.500000=1.000000=0.500000=0
,100.000000=0.750000=1.000000=0
,101.000000=1.000000=0.500000=0
,101.500000=0.750000=1.000000=0
,102.500000=1.000000=0.500000=0
,103.000000=1.500000=0.500000=0
,103.500000=1.000000=0.500000=0
,104.000000=1.000000=1.000000=0
,110.000000=2.000000=1.000000=0
,111.000000=0.750000=1.000000=0
,118.000000=0.650000=1.000000=0
,128.000000=0.900000=2.000000=0
,130.000000=0.700000=2.000000=0
,132.000000=0.900000=2.000000=0
,134.000000=0.700000=2.000000=0
,136.000000=1.000000=5.000000=0
,146.000000=0.500000=1.000000=0
,147.000000=1.000000=1.000000=0
,150.000000=0.500000=1.000000=0
,151.000000=1.000000=1.000000=0
,158.000000=0.500000=1.000000=0
,159.000000=1.000000=1.000000=0
,162.000000=0.500000=1.000000=0
,163.000000=1.000000=1.000000=0
,166.000000=0.500000=1.000000=0
,167.000000=1.000000=1.000000=0
,172.000000=1.500000=0.000000=0
,172.250000=1.000000=0.750000=0
,173.000000=1.500000=0.000000=0
,173.250000=1.000000=1.750000=0
,175.000000=2.000000=0.000000=0
,175.250000=1.000000=0.750000=0
,176.000000=3.000000=0.000000=0
,176.250000=1.000000=1.000000=0
,178.000000=3.000000=0.000000=0
,178.250000=1.000000=1.000000=0
,185.000000=2.000000=1.000000=0
;
#SCROLLS:0.000000=1.000000
,93.500000=0.333000
,95.000000=1.000000
,184.000000=0.000000
,186.500000=2.000000
;
#FAKES:;
#LABELS:0.000000=Song Start
;
#ATTACKS: TIME=6.690: LEN=13.846: MODS=*50 25% Beat: TIME=32.537: LEN=2.767: MODS=*50 50% Beat: TIME=47.306: LEN=3.231: MODS=*50 50% Beat: TIME=41.767: LEN=0.250: MODS=*50 -10% Mini: TIME=41.998: LEN=0.250: MODS=*50 -20% Mini: TIME=42.229: LEN=0.250: MODS=*50 -30% Mini: TIME=42.460: LEN=0.250: MODS=*50 -50% Mini: TIME=42.690: LEN=5.000: MODS=0% Mini: TIME=58.383: LEN=5.000: MODS=50% Drunk: TIME=65.767: LEN=12.923: MODS=*50 Beat: TIME=78.690: LEN=5.000: MODS=*50 200% Beat: TIME=81.921: LEN=5.000: MODS=*5 0% Beat:
;
#NOTES:
0000
0000
0000
0000
,
0000
0000
0000
0000
,
0000
0000
0000
0000
,
0000
0000
0000
0000
,
1000
0100
1000
0100
1000
0000
0001
0000
,
0100
0001
0100
0001
1000
0000
0001
0000
,
0010
0001
0010
0001
0100
0010
0100
0010
,
1000
0100
0010
0001
1000
0000
1001
0000
,
0001
0010
0001
0010
0001
0000
1000
0000
,
0010
1000
0010
1000
0001
0000
1000
0000
,
0001
0010
1000
0000
1000
0010
0001
0000
,
1000
0010
0100
0001
1000
0000
1001
0000
,
1000
1000
1000
0000
0001
0001
0000
0100
,
0010
0000
1000
0001
1000
0000
0000
0000
,
0020
0230
0320
2030
,
3200
0320
0031
1001
,
0001
0001
0001
0000
1000
1000
0000
0010
,
0100
0000
0001
1000
0001
0000
1001
0000
,
0001
0011
1000
1010
,
0110
0000
1001
0000
1000
0001
1000
0000
,
0010
0000
1000
0100
0000
1000
0010
0M00
,
0010
0000
0001
0100
0000
0001
0010
0M00
,
0010
0000
1000
0100
0000
1000
0010
0000
,
1000
0001
1000
0100
0000
0000
1100
0000
,
0100
0000
1000
0010
0000
1000
0100
00M0
,
0100
0000
0001
0010
0000
0001
0100
0000
,
0001
0100
1000
0000
1000
0100
0001
0000
,
1000
0100
0010
0001
1000
0000
1001
0000
,
1000
1000
1000
0000
0001
0001
0000
1000
,
0001
0000
0010
0100
0020
0000
0030
0000
,
0001
0001
0001
0000
1000
1000
0000
0010
,
0100
0000
0010
1000
0010
0000
1000
0000
,
0002
0023
0230
2300
,
3020
0230
0302
2003
,
3010
1000
0010
1000
0001
0010
0001
0010
,
0200
0000
2300
0000
3001
1000
0001
0000
,
1000
0010
1000
0010
0100
0000
0001
0000
,
0010
0100
0010
0100
1000
0000
0001
0000
,
0100
0001
0100
0001
1000
0100
1000
0100
,
0010
0001
1000
0010
0100
0000
0110
0000
,
0010
1000
0100
1000
0010
0000
0110
0000
,
0100
0001
0010
0001
1000
0000
1001
0000
,
1000
0001
0010
0100
1000
0001
0100
0010
,
0110
2002
3003
0110
,
2002
3003
0220
0330
,
0100
0010
1000
0001
0010
0100
1000
0001
,
1000
0000
0000
1001
;

//---------------dance-single - OrangeRight----------------
#NOTEDATA:;
#CHARTNAME:;
#CHARTHASH:2147483647;
#STEPSTYPE:dance-single;
#BANNER:;
#DESCRIPTION:OrangeRight;
#CHARTSTYLE:;
#DIFFICULTY:Hard;
#METER:11;
#METERF:11.000000;
#LASTSECONDHINT:85.623695;
#RADARVALUES:0.501164,0.708751,0.212276,0.558622,0.134069,314.000000,295.000000,19.000000,50.000000,2.000000,0.000000,0.000000,0.000000,0.000000,0.501164,0.708751,0.212276,0.558622,0.134069,314.000000,295.000000,19.000000,50.000000,2.000000,0.000000,0.000000,0.000000,0.000000;
#CREDIT:OrangeRight;
#OFFSET:0.684000;
#BPMS:0.000000=130.000000
;
#STOPS:;
#DELAYS:;
#WARPS:186.125000=16.000000
;
#TIMESIGNATURES:0.000000=4=4
;
#TICKCOUNTS:0.000000=4
;
#COMBOS:0.000000=1
;
#SPEEDS:0.000000=0.300000=0.000000=0
,14.500000=0.400000=0.000000=0
,14.750000=0.500000=0.000000=0
,15.000000=0.600000=0.000000=0
,15.250000=0.700000=0.000000=0
,15.500000=0.800000=0.000000=0
,15.750000=0.900000=0.000000=0
,16.000000=1.000000=0.000000=0
,18.000000=0.200000=1.000000=0
,19.000000=1.000000=1.000000=0
,22.000000=0.200000=1.000000=0
,23.000000=1.000000=1.000000=0
,30.000000=0.200000=1.000000=0
,31.000000=1.000000=1.000000=0
,34.000000=0.200000=1.000000=0
,35.000000=1.000000=1.000000=0
,38.000000=0.200000=1.000000=0
,39.000000=1.000000=1.000000=0
,46.000000=2.000000=1.000000=0
,47.000000=0.750000=1.000000=0
,56.000000=0.900000=0.500000=0
,56.500000=0.700000=0.500000=0
,57.000000=0.900000=0.500000=0
,57.500000=0.700000=0.500000=0
,58.000000=0.800000=0.500000=0
,58.500000=0.600000=0.500000=0
,59.000000=0.800000=0.500000=0
,59.500000=0.600000=0.500000=0
,60.000000=0.700000=0.500000=0
,60.500000=0.500000=0.500000=0
,61.000000=0.700000=0.500000=0
,61.500000=0.500000=0.500000=0
,62.000000=1.000000=0.500000=0
,63.000000=0.800000=0.500000=0
,71.000000=1.000000=1.000000=0
,72.000000=1.200000=0.500000=0
,72.500000=1.000000=0.500000=0
,73.000000=1.200000=0.500000=0
,73.500000=1.000000=0.500000=0
,74.000000=1.200000=0.500000=0
,74.500000=1.000000=0.500000=0
,75.000000=1.200000=0.500000=0
,75.500000=1.000000=0.500000=0
,76.000000=1.200000=0.500000=0
,76.500000=1.000000=0.500000=0
,77.000000=1.200000=0.500000=0
,77.500000=1.000000=0.500000=0
,80.000000=0.800000=1.000000=0
,81.000000=1.000000=0.500000=0
,81.500000=0.800000=1.000000=0
,82.500000=1.000000=0.500000=0
,83.000000=0.800000=0.500000=0
,83.500000=1.000000=0.500000=0
,84.000000=0.800000=1.000000=0
,85.000000=1.000000=0.500000=0
,85.500000=0.800000=1.000000=0
,86.500000=1.000000=0.500000=0
,87.000000=0.800000=0.500000=0
,87.500000=1.000000=0.500000=0
,88.000000=0.800000=1.000000=0
,89.000000=1.000000=0.500000=0
,89.500000=0.800000=1.000000=0
,90.500000=1.000000=0.500000=0
,91.000000=0.800000=0.500000=0
,91.500000=1.000000=0.500000=0
,96.000000=1.200000=1.000000=0
,97.000000=1.000000=0.500000=0
,97.500000=1.200000=1.000000=0
,98.500000=1.000000=0.500000=0
,99.000000=1.200000=0.500000=0
,99.500000=1.000000=0.500000=0
,100.000000=1.200000=1.000000=0
,101.000000=1.000000=0.500000=0
,101.500000=1.200000=1.000000=0
,102.500000=1.000000=0.500000=0
,103.000000=1.200000=0.500000=0
,103.500000=1.000000=0.500000=0
,104.000000=1.200000=0.500000=0
,104.500000=1.000000=0.500000=0
,106.000000=0.800000=0.500000=0
,106.500000=1.000000=0.500000=0
,108.000000=1.250000=0.250000=0
,108.500000=1.000000=0.250000=0
,109.000000=0.750000=0.250000=0
,109.500000=1.000000=0.250000=0
,110.000000=2.000000=1.000000=0
,111.000000=0.750000=1.000000=0
,118.000000=0.650000=2.000000=0
,126.000000=0.800000=1.000000=0
,128.000000=0.500000=2.000000=0
,130.000000=0.800000=2.000000=0
,132.000000=0.500000=2.000000=0
,134.000000=0.800000=2.000000=0
,136.000000=0.500000=1.000000=0
,137.000000=0.800000=1.000000=0
,138.000000=0.500000=1.000000=0
,139.000000=0.800000=1.000000=0
,140.000000=0.900000=1.000000=0
,141.000000=1.000000=1.000000=0
,142.000000=1.100000=1.000000=0
,143.000000=1.000000=1.000000=0
,146.000000=0.200000=1.000000=0
,147.000000=1.000000=1.000000=0
,150.000000=0.200000=1.000000=0
,151.000000=1.000000=1.000000=0
,158.000000=0.200000=1.000000=0
,159.000000=1.000000=1.000000=0
,160.000000=0.800000=0.250000=0
,160.250000=1.000000=0.250000=0
,160.500000=0.800000=0.250000=0
,160.750000=1.000000=0.250000=0
,162.000000=1.200000=0.250000=0
,162.250000=1.000000=0.250000=0
,162.500000=1.200000=0.250000=0
,162.750000=1.000000=0.250000=0
,164.000000=0.800000=0.250000=0
,164.250000=1.000000=0.250000=0
,164.500000=0.800000=0.250000=0
,164.750000=1.000000=0.250000=0
,166.000000=1.200000=0.250000=0
,166.250000=1.000000=0.250000=0
,166.500000=1.200000=0.250000=0
,166.750000=1.000000=0.250000=0
,172.000000=1.500000=0.000000=0
,172.250000=1.000000=0.750000=0
,173.000000=1.500000=0.000000=0
,173.250000=1.000000=1.750000=0
,175.000000=2.000000=0.000000=0
,175.250000=1.000000=0.750000=0
,176.000000=3.000000=0.000000=0
,176.250000=1.000000=1.000000=0
,178.000000=4.000000=0.000000=0
,178.250000=1.000000=1.000000=0
,185.000000=1.250000=0.000000=0
,185.250000=1.500000=0.000000=0
,185.500000=1.750000=0.000000=0
,185.750000=2.000000=0.000000=0
,186.000000=0.010000=0.000000=0
,202.000000=2.000000=0.500000=0
;
#SCROLLS:0.000000=1.000000
,93.500000=0.333000
,95.000000=1.000000
,202.000000=0.000000
,202.500000=2.000000
;
#FAKES:;
#LABELS:0.000000=Song Start
;
#ATTACKS: TIME=65.766998:LEN=13.000000:MODS=*50 50% Beat: TIME=78.690002:LEN=3.000000:MODS=*50 400% Beat: TIME=6.690000:LEN=14.307000:MODS=*50 25% Beat: TIME=65.766998:LEN=13.000000:MODS=*50 50% Beat: TIME=78.690002:LEN=3.000000:MODS=*50 400% Beat: TIME=6.690000:LEN=14.307000:MODS=*50 25% Beat: TIME=65.766998:LEN=13.000000:MODS=*50 50% Beat: TIME=78.690002:LEN=3.000000:MODS=*50 200% Beat: TIME=6.690000:LEN=14.307000:MODS=*50 50% Beat: TIME=58.382999:LEN=5.000000:MODS=Drunk: TIME=81.920998:LEN=5.000000:MODS=*10 0% Beat: TIME=41.766998:LEN=0.250000:MODS=*50 -25% Mini: TIME=41.998001:LEN=0.250000:MODS=*50 -50% Mini: TIME=42.229000:LEN=0.250000:MODS=*50 -75% Mini: TIME=42.459999:LEN=0.250000:MODS=*50 -100% Mini: TIME=42.689999:LEN=5.000000:MODS=*2 0% Mini:
;
#NOTES:
// measure 0
0000
0000
0000
0000
,  // measure 1
0000
0000
0000
0000
,  // measure 2
0000
0000
0000
0000
,  // measure 3
0000
0000
0000
0000
,  // measure 4
1000
1000
0001
0100
0010
0000
1001
0000
,  // measure 5
0001
0001
1000
0100
0010
0000
1001
0000
,  // measure 6
1000
0000
0001
1000
0001
0000
0100
0000
0001
0000
0010
0000
1000
0000
0010
0000
,  // measure 7
0100
0010
0001
1000
0010
0000
1001
0000
,  // measure 8
1000
1000
0001
0010
0100
0000
1001
0000
,  // measure 9
0001
0001
1000
0010
0100
0000
1001
0000
,  // measure 10
1000
0000
0010
0000
0001
0000
0000
0010
1000
0000
0100
0000
0001
0000
0000
0100
,  // measure 11
1000
0001
0100
0010
0110
0000
1001
0000
,  // measure 12
1000
0000
1000
0000
1000
0000
0000
1000
0001
0000
0001
0000
0000
0000
0001
0000
,  // measure 13
0010
0010
0100
0100
1000
0000
0000
0010
,  // measure 14
2000
3020
2030
3020
0230
0302
0203
0302
,  // measure 15
2003
3200
0302
0203
2300
0000
3001
0000
,  // measure 16
0001
0000
0001
0000
0001
0000
0000
0001
1000
0000
1000
0000
0000
0000
1000
0000
,  // measure 17
0100
0000
1000
0001
1000
0000
0010
0000
0200
0000
0000
0000
0301
0000
0100
0000
,  // measure 18
1000
0100
0010
0100
0001
0010
0100
0010
,  // measure 19
1000
0000
0010
0000
0001
0000
0100
0000
0010
0000
1000
0001
1000
0000
0000
0000
,  // measure 20
2000
0000
3100
2000
0000
3010
2000
0001
,  // measure 21
3002
0000
0103
0002
0000
0013
0001
1000
,  // measure 22
0020
0000
0130
0020
0000
1030
0001
1000
,  // measure 23
0001
0010
0100
1000
0000
0000
1001
0000
,  // measure 24
0001
0010
1000
1000
0010
0001
0100
0010
,  // measure 25
1000
0100
0001
0001
0100
1000
0010
0100
,  // measure 26
0001
0000
0010
0000
1000
0000
0000
0010
0001
0000
0100
0000
1000
0000
0000
0100
,  // measure 27
0010
1000
0001
0010
0011
0000
1100
0000
,  // measure 28
0100
0000
0100
0000
0100
0000
0000
0100
0010
0000
0010
0000
0000
0000
0010
0000
,  // measure 29
0001
1000
0010
0001
0020
0000
0030
0000
,  // measure 30
1000
0000
1000
0000
1000
0000
0000
1000
0001
0000
0001
0000
0000
0000
0001
0000
,  // measure 31
0010
0100
0001
0100
2000
0000
3001
0000
,  // measure 32
2000
3020
0032
0023
0230
0000
0302
0000
,  // measure 33
0023
2030
3020
0032
0203
0000
0320
0000
,  // measure 34
2030
3020
0032
0023
2030
3200
0302
0203
,  // measure 35
2300
0000
0000
0000
3001
0000
0000
0001
0100
0000
0001
1000
0001
0000
0000
0000
,  // measure 36
0010
0010
0001
0100
1000
0000
0110
0000
,  // measure 37
0010
0010
1000
0100
0001
0000
0110
0000
,  // measure 38
0010
0000
0001
1000
0001
0000
0100
0000
0010
0000
1000
0000
0100
0000
0001
0000
,  // measure 39
0100
0010
0100
1000
0100
0000
1001
0000
,  // measure 40
1000
0010
1000
0010
1000
0000
0001
0000
0100
0001
0100
0001
0100
0000
0001
0000
,  // measure 41
1000
0100
1000
0100
0010
0000
0001
0000
0100
0010
0100
0010
1000
0000
0001
0000
,  // measure 42
1000
0010
0001
0010
1000
0100
0001
0100
,  // measure 43
1100
2020
3030
0011
,  // measure 44
0202
0303
2002
3003
,  // measure 45
1000
1000
0001
0001
0010
0100
1000
0010
,  // measure 46
0100
0000
0000
0000
0010
0100
0010
0100
M01M
0000
0000
0000
0000
0000
0000
0000
,  // measure 47
0000
0000
0000
0000
,  // measure 48
0000
0000
0000
0000
,  // measure 49
0000
0000
0000
0000
,  // measure 50
0000
0000
0000
1001
;

//---------------dance-single - OrangeRight----------------
#NOTEDATA:;
#CHARTNAME:;
#CHARTHASH:2056086773;
#STEPSTYPE:dance-single;
#BANNER:;
#DESCRIPTION:OrangeRight;
#CHARTSTYLE:;
#DIFFICULTY:Challenge;
#METER:14;
#METERF:14.000000;
#LASTSECONDHINT:85.623695;
#RADARVALUES:0.675134,0.918933,0.726208,0.391035,0.245794,423.000000,358.000000,65.000000,35.000000,2.000000,0.000000,0.000000,0.000000,28.000000,0.675134,0.918933,0.726208,0.391035,0.245794,423.000000,358.000000,65.000000,35.000000,2.000000,0.000000,0.000000,0.000000,28.000000;
#CREDIT:OrangeRight;
#OFFSET:0.684000;
#BPMS:0.000000=130.000000
;
#STOPS:;
#DELAYS:;
#WARPS:46.125000=16.000000
,126.125000=16.000000
,218.125000=16.000000
;
#TIMESIGNATURES:0.000000=4=4
;
#TICKCOUNTS:0.000000=4
;
#COMBOS:0.000000=1
;
#SPEEDS:0.000000=0.500000=0.000000=0
,14.000000=1.000000=2.000000=0
,18.000000=1.200000=0.500000=0
,18.500000=1.000000=0.500000=0
,19.000000=1.200000=0.500000=0
,19.500000=1.000000=0.500000=0
,22.000000=1.200000=0.500000=0
,22.500000=1.000000=0.500000=0
,23.000000=1.200000=0.500000=0
,23.500000=1.000000=0.500000=0
,30.000000=1.200000=0.500000=0
,30.500000=1.000000=0.500000=0
,31.000000=1.200000=0.500000=0
,31.500000=1.000000=0.500000=0
,34.000000=1.200000=0.500000=0
,34.500000=1.000000=0.500000=0
,35.000000=1.200000=0.500000=0
,35.500000=1.000000=0.500000=0
,38.000000=1.200000=0.500000=0
,38.500000=1.000000=0.500000=0
,39.000000=1.200000=0.500000=0
,39.500000=1.000000=0.500000=0
,46.000000=1.000000=0.000000=0
,62.000000=1.000000=0.500000=0
,63.000000=0.800000=1.000000=0
,72.000000=0.900000=0.500000=0
,72.500000=0.700000=0.500000=0
,73.000000=0.900000=0.500000=0
,73.500000=0.700000=0.500000=0
,74.000000=0.800000=0.500000=0
,74.500000=0.600000=0.500000=0
,75.000000=0.800000=0.500000=0
,75.500000=0.600000=0.500000=0
,76.000000=0.700000=0.500000=0
,76.500000=0.500000=0.500000=0
,77.000000=0.700000=0.500000=0
,77.500000=0.500000=0.500000=0
,78.000000=0.800000=2.000000=0
,87.000000=1.000000=1.000000=0
,88.000000=1.200000=0.500000=0
,88.500000=1.000000=0.500000=0
,89.000000=1.200000=0.500000=0
,89.500000=1.000000=0.500000=0
,90.000000=1.200000=0.500000=0
,90.500000=1.000000=0.500000=0
,91.000000=1.200000=0.500000=0
,91.500000=1.000000=0.500000=0
,92.000000=1.500000=2.000000=0
,94.000000=1.000000=1.000000=0
,96.000000=0.800000=1.000000=0
,97.000000=1.000000=0.500000=0
,97.500000=0.800000=1.000000=0
,98.500000=1.000000=0.500000=0
,99.000000=0.800000=0.500000=0
,99.500000=1.000000=0.500000=0
,100.000000=0.800000=1.000000=0
,101.000000=1.000000=0.500000=0
,101.500000=0.800000=1.000000=0
,102.500000=1.000000=0.500000=0
,103.000000=0.800000=0.500000=0
,103.500000=1.000000=0.500000=0
,104.000000=0.800000=1.000000=0
,105.000000=1.000000=0.500000=0
,105.500000=0.800000=1.000000=0
,106.500000=1.000000=0.500000=0
,107.000000=0.800000=0.500000=0
,107.500000=1.000000=0.500000=0
,112.000000=1.200000=1.000000=0
,113.000000=1.000000=0.500000=0
,113.500000=1.200000=1.000000=0
,114.500000=1.000000=0.500000=0
,115.000000=1.200000=0.500000=0
,115.500000=1.000000=0.500000=0
,116.000000=1.200000=1.000000=0
,117.000000=1.000000=0.500000=0
,117.500000=1.200000=1.000000=0
,118.500000=1.000000=0.500000=0
,119.000000=1.200000=0.500000=0
,119.500000=1.000000=0.500000=0
,120.000000=1.200000=0.500000=0
,120.500000=1.000000=0.500000=0
,122.000000=0.800000=0.500000=0
,122.500000=1.000000=0.500000=0
,124.000000=1.500000=0.250000=0
,124.500000=1.000000=0.250000=0
,125.000000=0.500000=0.250000=0
,125.500000=1.000000=0.250000=0
,126.000000=1.000000=0.000000=0
,142.000000=1.000000=0.500000=0
,143.000000=0.800000=1.000000=0
,151.000000=0.700000=1.000000=0
,160.000000=0.500000=2.000000=0
,162.000000=0.800000=2.000000=0
,164.000000=0.500000=2.000000=0
,166.000000=0.800000=2.000000=0
,168.000000=0.500000=1.000000=0
,169.000000=0.800000=1.000000=0
,170.000000=0.500000=1.000000=0
,171.000000=0.800000=1.000000=0
,172.000000=0.900000=1.000000=0
,173.000000=1.000000=1.000000=0
,174.000000=1.100000=1.000000=0
,175.000000=1.000000=1.000000=0
,178.000000=1.200000=0.500000=0
,178.500000=1.000000=0.500000=0
,179.000000=1.200000=0.500000=0
,179.500000=1.000000=0.500000=0
,182.000000=1.200000=0.500000=0
,182.500000=1.000000=0.500000=0
,183.000000=1.200000=0.500000=0
,183.500000=1.000000=0.500000=0
,190.000000=1.200000=0.500000=0
,190.500000=1.000000=0.500000=0
,191.000000=1.200000=0.500000=0
,191.500000=1.000000=0.500000=0
,192.000000=0.800000=0.250000=0
,192.250000=1.000000=0.250000=0
,192.500000=0.800000=0.250000=0
,192.750000=1.000000=0.250000=0
,194.000000=1.200000=0.250000=0
,194.250000=1.000000=0.250000=0
,194.500000=1.200000=0.250000=0
,194.750000=1.000000=0.250000=0
,195.000000=1.200000=0.500000=0
,195.500000=1.000000=0.500000=0
,196.000000=0.800000=0.250000=0
,196.250000=1.000000=0.250000=0
,196.500000=0.800000=0.250000=0
,196.750000=1.000000=0.250000=0
,198.000000=1.200000=0.250000=0
,198.250000=1.000000=0.250000=0
,198.500000=1.200000=0.250000=0
,198.750000=1.000000=0.250000=0
,199.000000=1.200000=0.500000=0
,199.500000=1.000000=0.500000=0
,217.000000=1.250000=0.000000=0
,217.250000=1.500000=0.000000=0
,217.500000=1.750000=0.000000=0
,217.750000=2.000000=0.000000=0
,218.000000=0.010000=0.000000=0
,234.000000=2.000000=0.250000=0
;
#SCROLLS:0.000000=1.000000
,62.000000=0.000000
,62.500000=2.000000
,63.000000=1.000000
,109.500000=0.333000
,111.000000=1.000000
,142.000000=0.000000
,142.500000=2.000000
,143.000000=1.000000
,234.000000=0.000000
,234.500000=2.000000
;
#FAKES:;
#LABELS:0.000000=Song Start
;
#ATTACKS: TIME=65.767: LEN=13.000: MODS=*50 50% Beat: TIME=78.690: LEN=3.000: MODS=*50 400% Beat: TIME=6.690: LEN=14.307: MODS=*50 25% Beat: TIME=65.767: LEN=13.000: MODS=*50 50% Beat: TIME=78.690: LEN=3.000: MODS=*50 400% Beat: TIME=6.690: LEN=14.307: MODS=*50 25% Beat: TIME=65.767: LEN=13.000: MODS=*50 50% Beat: TIME=78.690: LEN=3.000: MODS=*50 200% Beat: TIME=6.690: LEN=14.307: MODS=*50 50% Beat: TIME=58.383: LEN=5.000: MODS=Drunk: TIME=81.921: LEN=5.000: MODS=*10 0% Beat: TIME=41.767: LEN=0.250: MODS=*50 -25% Mini: TIME=41.998: LEN=0.250: MODS=*50 -50% Mini: TIME=42.229: LEN=0.250: MODS=*50 -75% Mini: TIME=42.460: LEN=0.250: MODS=*50 -100% Mini: TIME=42.690: LEN=5.000: MODS=*2 0% Mini: TIME=20.537: LEN=5.000: MODS=*50 90% Sudden: TIME=20.767: LEN=5.000: MODS=*1.5 0% Sudden: TIME=50.075: LEN=5.000: MODS=*50 90% Sudden: TIME=50.306: LEN=5.000: MODS=*1.5 0% Sudden:
;
#NOTES:
0000
0000
0000
0000
,
0000
0000
0000
0000
,
0000
0000
0000
0000
,
0000
0000
0000
0000
0000
0000
0000
0000
0000
0000
1000
0001
0100
0010
1000
0100
,
1000
1000
0010
0100
0001
1001
0010
1001
,
0001
0001
0010
0100
1000
1001
0100
1001
,
1000
0000
0100
1000
0001
0000
0010
0000
1000
0000
0010
0000
0001
0000
0100
0000
,
0010
1000
0100
0010
0100
1100
0010
0101
,
0001
0001
0100
0010
1000
1001
0100
1001
,
1000
1000
0100
0010
0001
1001
0010
1001
,
0001
0000
0100
0000
1000
0000
0100
0010
1000
0000
0100
0000
0001
0000
0100
0010
,
0001
0101
0100
0110
1010
0000
0M0M
0000
,
0M00
0000
000M
0000
00M0
0000
0000
00M0
0M00
0000
M000
0000
0000
0000
00M0
0000
,
000M
000M
00M0
00M0
M000
0000
0000
0000
,
0000
0000
0000
0000
,
0000
0000
0000
0101
,
0100
0000
0001
0000
0010
0000
0000
0010
0100
0000
2000
0000
0000
0000
3010
0000
,
0001
0000
0001
0000
0010
0000
0010
0000
1000
0000
0001
0010
0001
1000
0010
1000
,
0200
2300
3200
0320
0230
0302
0203
0320
,
0230
0000
2300
0000
3020
0000
0230
0000
0301
1000
0001
1000
0010
0100
0010
0100
,
0010
0000
1000
0000
0100
0000
0000
0100
0010
0000
0002
0000
0000
0000
0103
0000
,
0001
0000
0010
1000
0010
0000
0001
0000
0100
0000
0000
0000
0110
0000
0010
0000
,
1010
1000
1100
0100
0110
0010
0011
0001
,
1000
0010
0100
0001
1000
0100
0010
0001
0100
0000
0010
0100
0010
0000
0000
0000
,
1010
1000
0100
0110
0010
0001
0101
0100
,
0101
0001
0010
0110
0100
1000
1100
0100
,
1100
1000
0001
0101
0001
1000
1100
1000
,
1010
0011
0101
1100
0000
0000
1001
0000
,
1010
0010
0100
0101
0001
0010
0110
0100
,
1100
1000
0010
0110
0100
0001
1001
0001
,
1000
0000
0010
0000
0001
0000
0010
0100
0001
0000
0010
0000
1000
0000
0010
0100
,
1000
1001
0001
0101
0110
0000
M00M
0000
,
M000
0000
00M0
0000
000M
0000
0000
000M
00M0
0000
M000
0000
0000
0000
000M
0000
,
00M0
M000
00M0
000M
0M00
0000
0000
0000
,
0000
0000
0000
0000
,
0000
0000
0000
1001
,
1000
0000
0010
0000
0001
0000
0000
0001
0010
0000
2000
0000
0000
0000
3001
0000
,
0010
0000
1000
0000
0010
0000
0001
0000
0100
0000
0010
1000
0020
0000
0000
0000
,
1030
0000
0100
0000
0001
0000
0000
0001
0100
0000
1000
0000
0000
0000
1000
0000
,
0010
0001
0010
1000
0100
0000
1100
0000
,
2000
3020
0230
0320
0032
0000
0023
0000
,
2030
3200
0320
0230
0302
0000
0203
0000
,
2300
3020
0032
0023
0230
0320
2030
3100
,
1100
0000
0000
0000
1010
0000
0000
0010
0100
0000
0001
0100
0001
0000
0000
0000
,
0001
1000
0100
0001
0100
1100
0010
1100
,
1000
0001
0100
1000
0100
0101
0010
0101
,
0001
0000
1000
0100
1000
0000
0010
0000
0100
0000
0001
0010
0001
0000
0100
0000
,
1000
0100
0010
0100
0001
0101
0010
1100
,
1000
0001
0010
0100
1000
0000
0010
0000
1000
0010
0100
0001
0010
0000
0011
0000
,
0010
0001
0100
0010
0100
0000
0001
0000
1000
0100
0010
0100
1000
0000
1100
0000
,
1000
1010
0010
0110
0100
0101
0001
1001
,
0011
0010
0110
0100
1100
1000
1001
0001
,
0101
0000
0001
1000
0001
0000
1000
0010
1000
0000
0001
0000
1001
0000
0000
0000
,
1000
0100
0001
0100
1000
0010
0001
0010
,
1000
0000
0000
0000
1000
0001
1000
0001
1MM0
0000
0000
0000
0000
0000
0000
0000
,
0000
0000
0000
0000
,
0000
0000
0000
0000
,
0000
0000
0000
0000
,
0000
0000
0000
0110
;
