#VERSION:0.83;
#TITLE:ジャガー人間の受難;
#SUBTITLE:;
#ARTIST:工藤吉三(ベイシスケイプ);
#TITLETRANSLIT:Jaguar ningen no junan;
#SUBTITLETRANSLIT:;
#ARTISTTRANSLIT:Yoshimi Kudo;
#GENRE:;
#CREDIT:;
#MUSIC:Jaguar ningen no junan.ogg;
#BANNER:;
#BACKGROUND:;
#CDTITLE:;
#SAMPLESTART:85.256;
#SAMPLELENGTH:15.000;
#SELECTABLE:YES;
#OFFSET:-0.182;
#BPMS:0.000=134.000
,226.000=201.000
;
#STOPS:;
#SPEEDS:0.000=1.000=0.000=0;
#SCROLLS:0.000=1.000;
#TICKCOUNTS:0.000=4;
#TIMESIGNATURES:0.000=4=4,
8.000=7=4,
11.500=14=4,
15.000=7=4,
18.500=14=4,
22.000=7=4,
25.500=14=4,
29.000=7=4,
32.500=14=4,
36.000=7=4,
39.500=14=4,
43.000=7=4,
46.500=14=4,
50.000=7=4,
53.500=14=4,
57.000=7=4,
60.500=14=4,
64.000=3=4,
226.000=5=4,
241.000=3=4,
247.000=5=4,
262.000=3=4,
268.000=4=4
;
#LABELS:0.000=Song Start;
#COMBOS:0.000=1;
#ORIGIN:;
#PREVIEWVID:;
#JACKET:;
#CDIMAGE:;
#DISCIMAGE:;
#BGCHANGES:;
#FGCHANGES:;

//--------------- dance-single - ----------------
#NOTEDATA:;
#STEPSTYPE:dance-single;
#DESCRIPTION:;
#DIFFICULTY:Beginner;
#METER:6;
#RADARVALUES:0,0,0,0,0;
#NOTES:
0000
0000
0000
0000
,
0000
0000
0000
0000
,
1000
0000
0000
0000
0000
0000
0000
0010
,
0000
0000
0000
0100
,
0000
0000
0000
0000
0000
0001
0000
0000
,
0000
0000
0001
0000
,
0000
0000
0000
0010
0000
0000
0000
0000
,
0000
0100
0000
0000
,
0000
1000
0000
0000
0000
0000
0000
0000
,
1000
0000
1000
0010
,
0000
0100
0000
0010
0000
0000
1000
0000
,
0000
0000
0100
0000
0010
0000
0000
0001
,
0000
0010
0000
0000
0001
0000
0000
0000
,
0001
0000
0100
0000
0000
0010
0000
1000
,
0000
0001
0000
0001
,
1000
0000
0000
0000
0000
1000
0000
0001
,
0000
0000
0010
0010
,
0000
0100
0100
0000
,
0010
0010
0000
0000
,
0001
0100
0001
0001
,
0100
0010
1000
1000
,
1000
0000
0002
0000
0003
2000
0000
0000
,
0000
0000
0000
3000
0000
0000
1000
0000
,
1000
0100
1000
0100
,
0000
1000
1000
0010
,
0100
0100
0000
0010
,
0010
1000
0010
1000
,
0000
0001
0001
0010
,
0010
0001
0100
0010
,
0010
0010
0100
0100
,
0000
0001
0001
0001
,
0001
1000
0000
0001
,
0001
0010
0100
0010
,
0100
0010
0010
0001
,
1000
0000
0000
0001
0000
0000
1000
0000
,
0100
0000
2000
0000
,
0010
3100
0000
0000
,
0002
0000
0010
1003
,
0000
0000
2000
0000
,
0100
3001
0000
0000
,
0002
0000
0010
0103
,
0100
0010
2000
0000
,
3010
0001
0000
0001
,
0002
0000
0013
1000
,
0000
0001
0001
2000
,
0000
3000
0010
0010
,
1000
1000
1000
0001
,
0010
0001
0020
0000
,
0000
0000
0230
0000
,
0320
0000
0031
0001
,
0100
0010
2000
0000
,
0000
3002
0000
0000
,
0203
0000
0000
0320
,
0000
0000
1030
1000
,
0100
1000
0100
0010
,
0001
0001
0010
0001
,
1000
1000
2002
0000
,
0000
3003
0000
0220
,
0000
0000
0330
0000
,
2002
0000
0000
3003
,
0000
0010
0000
0000
,
0010
0000
0000
0100
,
0100
0100
0100
0000
,
0001
0001
0001
0001
,
0000
1000
1000
1000
,
1000
0000
0100
0100
,
0100
0000
0010
0010
,
0010
0000
0001
0000
,
1000
0000
1000
0000
1000
0000
0000
1001
;

//--------------- dance-single - ----------------
#NOTEDATA:;
#STEPSTYPE:dance-single;
#DESCRIPTION:;
#DIFFICULTY:Easy;
#METER:9;
#RADARVALUES:0,0,0,0,0;
#NOTES:
0000
0000
0000
0000
,
0000
0000
0000
0000
,
1000
0000
0000
0010
0000
0000
0000
0100
0000
0000
0001
0000
0000
0000
0010
0000
,
0000
0001
0000
0000
0000
1000
0000
0000
0010
0000
0000
0000
0100
0000
0000
0100
,
0000
0000
0000
0010
0000
0000
1000
0000
0000
0000
0001
0000
0000
0010
0000
0000
,
0000
0100
0000
0000
1000
0000
0000
0000
0001
0000
0000
0010
0000
0000
0000
0100
,
0000
0000
1000
0000
0000
0000
0010
0000
0000
1000
0000
0000
0000
0001
0000
0000
,
0010
0000
0000
0000
0100
0000
0000
0100
0000
0000
0000
0010
0000
0000
0001
0000
,
0000
0000
1000
0000
0000
0010
0000
0000
0000
0100
0000
0000
0001
0000
0000
0000
,
1000
0200
0000
1300
0010
0100
0001
1000
,
0200
0000
0310
0001
2000
0000
3001
0200
,
0000
0301
0010
0100
1000
0001
0200
0000
,
0310
1000
0001
1000
0100
0020
0000
0130
,
1000
0001
0100
0001
0020
0000
0130
0010
,
0002
0000
0000
0000
1003
0000
0000
0010
0000
0000
1000
0000
0010
0000
0100
0000
,
0001
0000
1000
0000
0000
0100
0000
0000
1000
0000
0100
0000
0010
0000
0001
0000
,
2000
0000
3010
0200
,
0000
0301
0002
0000
,
0013
0000
0100
1000
0010
0000
0100
0001
,
0010
0010
0000
0001
1000
1000
0010
0010
,
0000
1000
0001
0001
0100
0100
0000
0001
,
1000
1000
0100
0010
0001
1000
0100
0020
,
0000
0000
0000
0030
0000
0000
0001
1000
,
0010
0100
0000
0100
0010
0000
1000
0000
,
0001
0000
1000
0001
0010
0100
0000
0100
,
0010
0000
0001
0001
1000
1000
0010
0100
,
0001
1000
0000
1000
0010
0000
0100
0000
,
0001
0010
0100
0010
,
0100
1000
0100
0010
0001
0000
1000
0010
,
0100
0002
0000
1003
0100
0010
0002
0000
,
0000
0000
0013
0100
1000
0020
0000
0000
,
0130
0001
0100
0010
2000
0000
3002
0000
,
0000
0000
0103
0010
0200
0000
0000
0320
,
0000
0000
0000
2030
0000
0000
3100
0010
,
0100
0000
0000
0100
0000
0000
0100
0000
0010
0000
0020
0000
0000
0000
0000
0000
,
0030
0000
0002
0010
,
0100
2003
0100
0010
,
3002
0100
0010
1003
,
0100
0000
0010
0001
2000
0000
0100
0000
,
0001
3002
0100
1000
,
2003
0010
3001
0101
,
1010
0000
1000
0100
0020
0000
0001
0000
,
0100
0230
0001
0010
,
2300
0010
0001
3100
,
1100
0000
0010
0001
1000
0000
2002
0000
,
3003
0000
0000
0001
0100
0010
1000
0001
,
0100
0101
1010
1000
,
0100
0000
0010
0000
0001
0010
0100
1000
,
0001
0100
0010
0000
0200
0000
0320
0000
,
1030
0100
0010
0001
1000
0010
0200
0000
,
0320
2030
3002
0100
,
1000
0023
0100
0001
,
0230
0001
0010
2300
,
0000
0000
3000
0000
1000
0010
0100
0010
,
1000
0000
0001
0100
0010
0100
0001
0000
,
1000
0100
0010
0001
1000
0000
0001
0000
,
0101
1100
2002
0000
,
0000
0000
3003
0220
,
0000
0000
0000
0330
,
2002
0000
0000
0000
,
3003
1000
0010
0100
,
0001
0010
0010
0100
,
0000
0100
0000
0000
0100
0000
1000
0000
,
0010
0000
0000
0010
0000
0000
0100
0000
,
0001
0000
0010
0000
0000
0010
0000
0000
,
0001
0100
0010
0010
,
0100
0100
0010
0010
,
1000
0000
0100
0000
0000
0100
0000
0010
,
0001
0000
0001
0000
0110
0000
0000
2002
,
0000
3003
0000
0000
;

//--------------- dance-single - ----------------
#NOTEDATA:;
#STEPSTYPE:dance-single;
#DESCRIPTION:;
#DIFFICULTY:Medium;
#METER:14;
#RADARVALUES:0,0,0,0,0;
#NOTES:
0000
0000
0000
0000
,
0000
0000
0000
0000
,
1000
0100
0000
1000
0000
0100
0000
0010
0001
0000
0010
0000
0001
0000
0100
0001
,
0000
0100
0000
0010
1000
0010
0000
1000
0100
0000
0010
0000
0001
0100
0000
0001
,
0000
0100
0000
0010
1000
0000
0010
0000
1000
0000
0100
1000
0000
0100
0000
0010
,
0001
0010
0000
0001
0100
0000
0010
0000
1000
0001
0000
0100
0000
0001
0000
1000
,
0100
0000
0010
0000
0001
0000
1000
0010
0000
1000
0000
0001
0010
0001
0000
0100
,
0010
0000
1000
0000
0100
0001
0000
0100
0000
1000
0100
1000
0000
0010
0100
0000
,
0001
0000
0100
1000
0000
0100
0000
0001
0100
0001
0000
0010
0100
0000
1000
0000
,
0001
0100
0000
0010
0000
0001
0010
0000
0010
0000
0100
0000
0100
0000
1000
0010
,
0000
0100
0000
1000
0100
0000
0100
0000
2002
0000
3003
0000
1000
0010
0000
0100
,
0000
1000
0100
0000
0100
0000
0010
0000
0010
0000
0001
0100
0000
0010
0000
0001
,
0010
0000
0010
0000
0100
0000
1001
0000
1000
0010
0000
0001
0000
0010
1000
0000
,
0001
0000
0001
0000
0011
0000
1000
0100
0000
0001
0000
0100
1000
0000
1010
0000
,
0202
0000
0303
0000
1000
0100
0000
0010
0000
1000
0010
0100
0001
0000
0101
0000
,
1010
0000
0001
0010
0000
0100
0000
0001
0100
0010
1000
0000
0010
0000
0110
0000
,
2001
0000
0000
0000
0100
0001
3020
0000
,
0000
0000
1000
0001
0230
0000
0000
0000
,
0001
0000
0010
0000
0301
0010
0001
0000
1000
0010
1000
0000
0001
0100
0001
0000
,
1000
0000
0100
0002
0000
0103
1000
0000
1100
0000
0011
0000
1000
0000
0010
0002
,
0000
0013
1000
0000
1010
0000
0101
0000
0001
0000
0010
0200
0000
0310
0001
0000
,
0101
0000
1100
0000
1000
0010
0100
0001
1000
0000
0010
0000
0100
0000
0020
0000
,
0000
0000
0000
0000
0000
0000
0030
0000
0000
0000
0000
0000
1000
0100
0000
1000
,
0100
0000
1000
0010
0000
0100
0020
0000
0000
1030
0100
0000
0010
0001
0000
0100
,
0010
0000
0000
0000
0100
0000
0000
0000
0010
0000
0000
0000
0100
0000
0000
0001
0000
0000
0000
0000
0000
0010
0000
0000
0001
0000
0000
0000
0000
0000
1000
0000
0000
0100
0000
0000
0000
0000
0000
1000
0000
0000
0020
0000
0000
0000
0000
0000
,
0000
1030
0100
1000
0200
0000
0010
0000
2300
0000
0010
0000
3001
0100
0000
0001
,
0100
0000
0001
0010
0000
0100
0020
0000
0000
0031
0100
0000
0010
1000
0000
0100
,
0010
0000
0000
0000
0100
0000
0000
0000
0010
0000
0000
0000
0100
0000
0000
1000
0000
0000
0000
0000
0000
0010
0000
0000
1000
0000
0000
0000
0000
0000
0001
0000
0000
0100
0000
0000
0000
0000
0000
0001
0000
0000
0020
0000
0000
0000
0000
0000
,
0031
0100
0010
0000
1000
0000
0100
0000
1100
0000
0011
0000
0001
0100
0001
0000
,
0100
0000
0020
0000
0000
0000
1030
0100
1000
0000
0100
0000
2000
0000
0010
0000
,
0100
0000
0010
0000
3001
0100
0001
0000
0010
0000
0200
0000
0000
0000
1000
0000
,
0010
0000
1300
0000
0010
0000
0100
0000
0002
0000
0000
0000
0013
0100
0010
0000
,
0100
0000
1000
0000
0010
0000
0100
0000
0001
0100
0010
0000
1000
0000
0001
0010
,
0100
0000
1000
0000
0100
1000
0100
0000
1000
0000
0010
0000
0100
0000
0001
0000
,
0010
0001
0010
0001
0000
0100
0010
0000
1010
0000
0202
0000
0000
0000
0000
0000
,
0303
1000
0010
0100
0002
0010
1000
0010
,
0100
0000
2003
0100
0010
0100
3001
0100
,
0020
0000
1000
0000
0100
0000
0001
0000
0100
0000
0000
0000
2030
0000
3001
0100
,
0020
0000
1030
0001
0200
0000
0310
1000
0002
0000
0010
0000
2003
0000
3020
0000
,
0000
0100
2030
0100
0001
0000
3010
0100
,
0200
0001
0010
0301
1000
0100
0010
0100
,
2000
0000
0000
0000
3001
0010
0001
0000
0200
0000
0010
0000
1000
0000
0000
0000
,
0001
0010
0302
0010
2003
0100
3200
2300
,
3010
0020
0000
0100
0230
0000
0320
0000
0000
0000
1030
0000
0001
0010
0200
0000
,
1300
0001
0020
0000
0130
1000
0001
0000
0020
0000
0000
0000
0032
0000
0000
0000
,
0000
0000
0003
1000
0010
0100
0001
1000
,
0100
0000
0100
0000
0010
0000
0010
0000
0100
0000
0100
0000
1000
0010
2000
0000
,
3001
0010
0002
0000
1003
0100
2000
0000
3001
0000
0100
0010
0000
0100
0001
0000
,
2000
0100
3002
0203
0320
1000
0100
2030
,
3002
0000
1003
0100
0000
0100
1000
0000
0001
0000
0100
0000
0010
0010
0000
0100
,
0100
0000
0001
0000
0010
0000
0011
0000
2200
0000
3300
0000
0001
0100
0001
0000
,
1000
0100
0010
0001
1000
0000
0000
1000
0000
0000
0001
0000
0100
0000
0001
0000
,
0020
0000
0130
1000
0002
0000
0103
0010
0200
0000
0301
1000
0200
0000
0000
0000
,
0020
0000
0300
0000
0032
0100
2003
3200
,
0010
2300
0010
0001
3200
0320
0032
0100
,
0010
0203
0010
1000
0010
0001
0320
0000
,
1030
0000
0001
0000
1000
0000
0001
0000
1000
0000
0001
0000
1000
0000
0000
0000
0000
0000
1000
0000
0000
0100
0000
0000
,
0000
0010
0001
0010
0001
0000
1000
0000
,
1000
0010
0000
0100
0001
0100
0010
1000
,
0001
0000
0010
0100
0000
0100
0010
0000
,
1001
0000
0000
1000
0000
0010
0000
0001
0000
0010
0000
1000
,
0000
0000
0001
0000
0000
0000
0101
0000
0000
0000
0101
0000
0000
0000
0101
0000
0000
0000
0001
0000
0000
1000
0000
0000
,
0100
0020
0000
0130
1000
0001
0100
0010
,
1000
0010
0100
0002
0000
0103
0010
1000
,
0001
0010
0001
0100
0010
0200
0000
0310
,
1000
0001
0010
0100
1000
1000
2000
0000
,
0001
0001
3002
0000
0010
0010
0023
0000
,
0032
0000
0100
0203
0000
1000
0000
0001
,
0302
0000
0010
0000
1000
0103
0000
0220
,
0000
0330
0000
0000
;

//--------------- dance-single - ----------------
#NOTEDATA:;
#STEPSTYPE:dance-single;
#DESCRIPTION:;
#DIFFICULTY:Hard;
#METER:16;
#RADARVALUES:0,0,0,0,0;
#NOTES:
0000
0000
0000
0000
,
0000
0000
0000
0000
,
1000
0010
0100
0010
0000
0100
0000
0001
0010
0100
0010
0000
0100
0000
1000
0010
,
0100
0010
0000
0100
0000
0001
0010
0001
0100
0010
1000
0100
1000
0001
0100
0001
,
0000
0010
0000
0001
1000
0100
1000
0000
0010
0000
1000
0001
0100
0001
0000
0010
,
0000
0000
0000
0001
0000
0000
0100
0000
0000
0010
0000
0000
1000
0000
0001
0000
1000
0000
0001
0000
0000
0010
0000
0000
0100
0000
0000
1000
0000
0000
0001
0000
0000
0100
0000
0000
0000
0000
0000
0010
0000
0000
0000
0000
0000
0100
0000
0000
,
0001
1000
0100
0000
0010
0000
0100
1000
0001
0100
0000
0010
0000
0100
0001
1000
,
0100
0010
0001
1000
0010
1000
0010
0100
0000
0001
0000
0100
0010
1000
0001
0100
,
0010
1000
0001
0010
0001
0010
0000
0100
0000
1000
0100
0010
0001
1000
0100
0010
,
0001
0001
0100
0010
0000
0001
0010
0100
1000
0000
1100
0000
0011
0000
1000
1000
,
0010
0100
0000
1000
0100
0010
0001
0000
2002
0000
3003
0000
1000
1000
0100
0010
,
0000
1000
0010
0100
0001
0000
0101
0000
1010
0000
0001
0001
0010
0100
0000
0001
,
0100
0010
1000
0010
1000
0001
0100
0010
1000
0001
0001
0100
0000
1000
0100
1000
,
0001
0000
0011
0000
1100
0000
1000
0001
0001
0010
0000
1000
0010
1000
0001
0000
,
2002
0000
3003
0000
0001
0001
0100
0010
0000
0001
0001
0100
0010
0000
0110
0000
,
1001
0000
1000
1000
0100
0010
0000
1000
1000
0100
0010
0001
0010
0100
1000
0010
,
0100
0001
0100
0002
0000
0103
0010
1000
0100
0000
0100
0000
0010
0001
0010
0002
,
0000
0013
0100
1000
0010
0000
0010
0000
0100
0001
0100
0002
0000
0103
0010
1000
,
0100
0000
0100
0000
1000
0010
1000
0010
0100
0010
0100
0010
0100
0001
0100
0001
,
1000
0010
1000
0200
0000
1300
0010
0100
0001
0000
0101
0000
0001
0010
0001
0200
,
0000
0301
0010
0100
1000
0000
1100
0000
1000
0010
1000
0020
0000
0130
0001
0100
,
0001
0000
0000
0000
0000
0000
1001
0000
0000
0000
0000
0000
1000
0000
0000
0010
0000
0000
0100
0000
0000
0001
0000
0000
0010
0000
0000
0100
0000
0000
1000
0000
0001
0000
1000
0000
0001
0000
1000
0000
0001
0000
0200
0000
0000
0000
0000
0000
,
0000
0000
0000
0000
0000
0000
0300
0000
0000
0000
0000
0000
0001
0000
1000
0100
,
1000
0000
0001
0100
0001
0000
0010
0000
0001
0100
0010
1000
0100
0010
0001
0010
,
0100
0000
0000
0000
1000
0000
0000
0000
0001
0000
0000
0000
0100
0000
0000
0000
0000
0000
0001
0000
0000
0010
0000
0000
0001
0000
0000
0000
0000
0000
1000
0000
0000
0010
0000
0000
1000
0000
0000
0000
0000
0000
0100
0000
0000
0000
0000
0000
,
1000
0000
0000
0010
0000
0000
0100
0000
0000
0001
0000
0000
1000
0000
0100
0000
1000
0000
0100
0000
0000
0000
0000
0000
0010
0000
0001
0000
0010
0000
0001
0000
0000
0000
0000
0000
1000
0000
0000
0000
0000
0000
0001
0000
0000
0100
0000
0000
,
0001
0000
1000
0100
1000
0000
0010
0000
1000
0100
0010
0001
0100
0010
1000
0010
,
0100
0000
0000
0000
0001
0000
0000
0000
1000
0000
0000
0000
0100
0000
0000
1000
0000
0000
0000
0000
0000
0010
0000
0000
0010
0000
0000
0000
0000
0000
0100
0000
0000
0001
0000
0000
0000
0000
0000
0010
0000
0000
0010
0000
0000
0000
0000
0000
,
0001
0100
0010
1000
0010
1000
0100
0010
0001
1000
0010
0000
1000
0100
1000
0100
,
0010
0001
2000
0000
0100
0000
3001
0100
0010
0000
1010
0000
0101
0000
0001
0010
,
0100
1000
0100
0010
0001
0100
0001
0100
0010
1000
0002
0000
0010
0000
1003
0100
,
1000
0010
0100
0001
0010
0001
0100
0010
0200
0000
0000
0000
0310
1000
0010
1000
,
0010
1000
0010
1000
0100
0010
0001
1000
0100
0010
0100
0010
0100
0010
0100
1000
,
0100
1000
0100
1000
0001
0100
0001
0010
0100
0010
0100
1000
0010
1000
0100
0010
,
0001
0000
0000
0100
0000
0000
1000
0000
0000
0100
0000
0000
0001
0000
0000
0010
0000
0000
0100
0000
0000
0000
0000
0000
0110
0000
0000
0000
0000
0000
1001
0000
0000
0000
0000
0000
1000
0000
0010
0000
0100
0000
0001
0000
1000
0000
0100
0000
,
0010
0000
0000
0000
0000
0000
0000
0000
0001
0100
0010
0100
0002
0000
0000
0000
,
0010
0000
1000
0000
0103
0010
1000
0010
0200
0000
0000
0000
0001
0000
0010
0000
,
0301
1000
0001
1000
0020
0000
0000
0000
1000
0000
0100
0000
1030
0100
1000
0100
,
0010
0001
0010
0001
1000
0000
0010
0000
0100
0001
0100
0010
2000
0000
0000
0000
,
0010
0000
0001
0000
3100
0010
0100
0010
0200
0000
0000
0000
1000
0000
0010
0000
,
1300
0010
1000
0001
0020
0000
0000
0000
0001
0000
0100
0000
0031
0000
1000
0000
,
0002
0000
0000
0000
1003
0100
0010
0001
1000
0010
1000
0001
0200
0000
0000
0000
,
0001
0000
0010
0000
0301
0010
0001
0010
0001
0000
0100
0000
0010
0000
0100
0000
,
0010
1000
0000
0001
0010
0000
0200
0000
0000
0000
0310
0000
0001
0100
0010
0000
,
1000
0100
0010
0000
0001
0100
0010
1000
0001
0000
0000
0000
0101
0000
1000
0000
,
0100
0000
0010
0000
0100
0000
0000
0000
0000
0010
0000
0000
0001
0000
0000
1000
0000
0000
0010
0000
0000
0200
0000
0000
,
0001
0000
0010
0000
1000
0000
0010
0000
0001
0000
0310
0000
1000
0010
0100
0010
,
1000
0001
0010
0100
0010
0001
0100
0010
1000
0100
1000
0100
0010
0001
0010
0001
,
0100
0000
1001
0000
0010
1000
0001
0010
0200
0000
0000
0000
0001
0000
0010
0000
,
1300
0010
1000
0010
0100
0001
0010
0100
0010
0000
1001
0000
0001
0001
0000
1000
,
1000
0000
1010
0000
0110
0000
0110
0000
0102
0000
0000
0000
1003
0010
0100
0010
,
1000
0010
0100
0010
1000
0000
0000
1100
0000
0000
1000
0100
0010
0100
1000
0001
,
0100
0000
0010
0100
0001
0010
0001
0100
1000
0100
0001
0010
0200
0000
0000
0000
,
0020
0000
0000
0000
0300
0000
0000
0000
0031
0000
0100
0001
0100
0000
0010
0100
,
0010
0000
0100
1000
0100
0000
0010
1000
0100
0000
0010
0100
0010
0000
0100
0001
,
0100
0000
0010
0001
0100
0000
0010
1000
0100
0000
0010
0000
0200
0000
0000
0000
,
1300
0000
0010
0000
1000
0000
0001
0000
0010
0000
0001
0000
2000
0000
0000
0000
0000
0000
3001
0000
0000
0201
0000
0000
,
0000
0310
1000
0001
0100
0010
2000
0000
,
3001
0000
0000
0012
0000
0000
0000
0000
0000
0103
0000
0000
0010
0000
1000
0000
0010
0000
0100
0000
0000
0001
0000
0000
,
0020
0000
0130
2100
0000
3100
0010
0010
,
0001
0000
0000
0100
0000
0000
0010
0000
1000
0000
0010
0000
1000
0000
0000
0000
1000
0000
0001
0000
0010
0000
0001
0000
,
0010
0000
0000
0000
0010
0000
0001
0000
0100
0000
0010
0000
1000
0000
0001
0000
0100
0000
0010
0000
0000
1000
0000
0000
,
0010
0000
1000
0000
0001
0000
0010
0000
0001
0000
1000
0000
0100
0010
0100
0000
,
1000
0010
0100
0010
1000
0100
0010
0001
,
0100
0010
0100
0001
1000
0001
0010
0001
,
0100
0000
0010
0000
1000
0000
0100
0000
0010
0001
0010
0100
2000
0000
0000
0000
,
3001
0100
0010
1000
0002
0000
0000
0000
1003
0100
0010
0001
1000
0000
0000
0000
,
1001
0000
0001
0011
0000
0101
0000
1000
,
1100
0000
1010
0000
0001
0110
0000
2002
,
0000
3003
0000
0000
;

//--------------- dance-single - ----------------
#NOTEDATA:;
#STEPSTYPE:dance-single;
#DESCRIPTION:;
#DIFFICULTY:Challenge;
#METER:18;
#RADARVALUES:0.122035,0.486423,0,0,0,103,103,0,0,0,0,0,0,0,0.122035,0.486423,0,0,0,103,103,0,0,0,0,0,0,0;
#CHARTNAME:;
#CHARTSTYLE:;
#CREDIT:;
#NOTES:
0000
0000
0000
0000
,
0000
0000
0000
0000
,
1000
0010
0100
0000
0010
0000
0100
0001
0000
1000
0000
0010
0000
1000
0100
0010
,
0001
0000
0000
0000
0000
0000
0010
0000
0000
0000
0000
0000
0100
0000
0000
1000
0000
0000
0001
0000
0000
0100
0000
0000
0010
0000
0000
0100
0000
0000
0001
0000
1000
0000
0001
0000
1000
0000
0000
0010
0000
0000
0100
0000
0000
0000
0000
0000
,
0010
0000
1000
0100
0000
0001
0000
0100
0000
1000
0001
0100
0010
0000
0100
0000
,
1000
0000
0000
0100
0000
0000
0001
0000
0000
0010
0000
0000
0100
0000
1000
0000
0100
0000
1000
0000
0010
0000
0100
0000
0001
0000
0000
0010
0000
0000
0100
0000
0000
0000
0000
0000
0010
0000
0000
0000
0000
0000
0100
0000
0000
1000
0000
0000
,
0000
0001
0000
0100
0000
0001
0010
0100
1000
0000
0010
0000
0100
0001
1000
0100
,
0010
0000
0000
0001
0000
0000
1000
0000
0001
0000
1000
0000
0001
0000
0000
0100
0000
0000
0010
0000
0000
0100
0000
0000
0001
0000
0000
0000
0000
0000
1000
0000
0000
0100
0000
0000
0000
0000
0000
0100
0000
0000
0000
0000
0000
0010
0000
0000
,
0000
0000
0000
0001
0000
0000
1000
0000
0010
0000
1000
0000
0010
0000
1000
0000
0010
0000
0100
0000
0001
0000
1000
0000
0100
0000
0010
0000
0001
0000
0010
0000
0001
0000
1000
0000
0100
0000
0010
0000
0001
0000
1000
0000
0010
0000
0100
0000
,
0001
0001
0010
0100
0000
0001
0100
0010
1000
0000
0001
1000
0001
0000
1000
1000
,
0100
0010
0000
1000
0010
0100
0001
0000
2002
0000
3003
0000
0001
0001
0010
0100
,
0000
0001
0100
0010
1000
0000
0001
1000
0001
0000
1000
1000
0100
0010
0000
1000
,
0010
0000
0000
0100
0000
0000
0001
0000
0000
1000
0000
0000
0001
0000
0100
0000
0001
0000
0100
0000
0010
0000
1000
0000
0001
0000
0000
0001
0000
0000
0100
0000
0000
0010
0000
0000
0000
0000
0000
0001
0000
0000
0001
0000
0000
0100
0000
0000
,
0010
0000
0001
0010
0100
0000
1000
1000
0010
0100
0000
1000
1000
0010
0100
0000
,
2002
0000
0000
0000
3003
0000
0000
0000
1000
0010
1000
0000
0001
0000
0100
0000
0000
0000
0001
0010
0001
0000
1000
0000
0100
0000
0000
0000
0110
0000
0000
0000
,
1001
0000
0000
0000
0000
0000
0000
0000
0000
0000
0000
0000
0001
0000
0000
0010
0000
0000
0001
0000
0000
0000
0000
0000
1000
0000
0000
0000
0000
0000
0100
0000
0000
0000
0000
0000
0000
0000
0000
0000
0000
0000
1000
0000
0000
0010
0000
0000
1000
0000
0000
0000
0000
0000
0001
0000
0000
0000
0000
0000
0100
0000
0000
0000
0000
0000
0010
0000
0000
0000
0000
0000
1000
0000
0000
0000
0010
0000
0000
0000
0100
0000
0000
0000
0001
0000
0000
0000
0000
0000
1000
0000
0000
0000
0000
0000
,
0200
0000
0000
0000
0000
0310
0001
0010
0200
0000
0000
0000
2300
0000
0000
0000
,
0000
0000
0000
3001
0000
0000
0100
0000
0000
0001
0000
0000
0100
0000
0000
0000
0000
0000
0010
0000
0000
0000
0000
0000
0200
0000
0000
0000
0000
0000
0000
0000
0000
0000
0000
0000
0000
0000
0000
0301
0000
0000
1000
0000
0100
0000
0010
0000
,
0001
0000
1000
0000
0100
0000
0010
0000
0000
0001
0000
0000
0100
0000
0000
0001
0000
0000
0010
0000
0000
0001
0000
0000
1000
0000
0000
0100
0000
0000
1000
0000
0000
0010
0000
0000
1000
0000
0000
0001
0000
0000
0100
0000
0000
0001
0000
0000
,
0010
0100
0010
2000
0000
3010
0100
0010
0001
0000
0011
0000
0001
0100
0010
0200
,
0000
0310
0001
0010
1000
0000
1010
0000
1000
0100
0010
2000
0000
3001
0100
0010
,
0001
0000
0000
0000
0000
0000
0011
0000
0000
0000
0000
0000
0001
0000
0000
0010
0000
0000
0100
0000
0000
1000
0000
0000
0001
0000
0000
0100
0000
0000
0010
0000
1000
0000
0010
0000
1000
0000
0010
0000
1000
0000
0200
0000
0000
0000
0000
0000
,
0000
0000
0000
0000
0000
0000
0300
0000
0000
0000
0000
0000
0010
0010
0001
0100
,
0010
0000
0100
0001
1000
0000
1100
0000
0001
0010
0001
0100
0001
0000
1000
0000
,
0010
0000
0000
0000
1000
0000
0000
0000
0100
0000
0000
0000
0010
0000
0000
0010
0000
0000
0100
0000
0000
1000
0000
0000
0001
0000
0000
0000
0000
0000
0100
0000
0000
0010
0000
0000
0100
0000
0000
0000
0000
0000
1001
0000
0000
0000
0000
0000
,
0001
0000
0000
0010
0000
0000
0100
0000
0000
1000
0000
0000
0001
0000
1000
0000
0001
0000
1000
0000
0010
0000
0100
0000
0001
0000
0010
0000
0100
0000
1000
0000
0001
0000
0100
0000
0010
0000
0000
0010
0000
0000
1000
0000
0000
0100
0000
0000
,
0010
0000
0100
1000
0001
0000
0101
0000
1000
0010
1000
0100
1000
0000
0001
0000
,
0010
0000
0000
0000
0001
0000
0000
0000
0100
0000
0000
0000
0010
0000
0000
2000
0000
0000
0000
0000
0000
3100
0000
0000
0020
0000
0000
0000
0000
0000
0031
0000
0000
0200
0000
0000
0000
0000
0000
0301
0000
0000
0020
0000
0000
0000
0000
0000
,
0031
0100
0001
0100
0001
0010
0001
0010
0100
1000
0001
0000
1000
0100
1000
0010
,
1000
0100
1000
0010
0100
0001
0010
0001
0100
0001
0010
0001
0100
0010
1000
0010
,
0100
0001
0100
0010
1000
0100
0010
0001
0010
0001
1000
0010
0100
0001
1000
0010
,
0100
0001
0100
0001
1000
0010
1000
0100
0010
0001
1000
0100
0010
0001
0010
0001
,
0010
0100
1000
0010
0100
0001
0100
0010
1000
0100
0010
0100
0001
0100
1000
0010
,
0100
0010
0001
0010
1000
0100
1000
0010
0100
0001
0100
0010
1000
0001
0010
0100
,
1000
0000
0001
0000
1000
0000
0001
0000
0000
0100
0000
0000
0010
0000
0000
1000
0000
0000
0001
0000
0000
0000
0000
0000
0101
0000
0000
0000
0000
0000
1010
0000
0000
0000
0000
0000
1000
0000
0100
0000
0010
0000
0001
0000
1000
0000
0100
0000
,
0010
0000
0100
0000
0100
0000
0100
0000
1000
0010
0001
0010
2000
0000
0000
0000
,
0100
0000
0001
0000
3010
0100
0001
0100
0020
0000
0000
0000
0001
0000
1000
0000
,
0130
0001
1000
0100
0020
0000
0000
0000
0001
0000
0100
0000
0031
0100
0010
1000
,
0001
0100
0010
1000
0010
0100
0001
1000
0100
0010
0001
1000
0002
0000
0203
0000
,
0000
0000
0010
0000
0301
0010
0100
0010
0002
0000
0000
0000
1000
0000
0100
0000
,
1003
0010
0100
0010
2000
0000
0000
0000
0100
0000
0010
0000
3001
0100
0001
0100
,
0010
0000
0000
1000
0000
0000
0010
0000
0000
1000
0000
0000
0001
0000
0010
0000
0001
0000
0010
0000
0001
0000
0010
0000
0001
0000
0000
1000
0000
0000
0100
0000
0000
1000
0000
0000
0002
0000
0000
0000
0000
0000
0000
0000
0000
0000
0000
0000
,
1000
0000
0010
0000
1003
0010
0100
0010
2000
0000
0100
0000
3002
0000
0203
0000
,
0310
1000
0000
0001
0010
0000
0200
0000
0000
0000
0010
0000
1300
0010
0100
0001
,
0100
0010
1000
0001
0100
0010
1000
0001
0020
0000
0000
0000
0130
0000
0010
0000
,
0001
0000
1000
0000
1001
0000
0000
0000
0000
1000
0000
0000
0011
0000
0000
0100
0000
0000
0011
0000
0000
1000
0000
0000
,
0200
0000
0000
0000
0000
0000
0010
0000
0000
0000
0000
0000
0001
0000
0000
0000
0000
0000
0010
0000
0000
0000
0000
0000
1000
0000
0000
0000
0000
0000
0310
0000
0000
0000
0000
0000
0001
0000
0010
0000
0001
0000
0010
0000
0000
0100
0000
0000
,
1000
0000
0100
0000
1000
0000
0100
0000
0000
0010
0000
0000
0001
0000
0100
0000
0001
0000
0100
0000
0000
0010
0000
0000
0100
0000
0000
0001
0000
0000
0010
0000
0000
0100
0000
0000
0010
0000
0000
0001
0000
0000
1000
0000
0000
0100
0000
0000
,
1000
0000
1001
0000
0001
0100
0010
1000
0002
0000
0000
0000
1000
0000
0010
0000
,
1003
0010
1000
0010
0100
0001
1000
0100
0010
0000
0110
0000
0001
0010
0000
0010
,
0100
0000
1000
0000
1001
0000
0001
0000
1000
0010
0100
0001
0100
0010
1000
0001
,
0100
0010
1000
0001
1000
0100
0010
0001
1000
0100
0010
0001
1000
0100
0010
0001
,
0010
0000
0000
0100
0000
0000
1000
0000
0000
0001
0000
0000
0100
0000
0000
0010
0000
0000
1000
0000
0000
0001
0000
0000
1000
0000
0001
0000
1000
0000
0001
0000
1000
0000
0001
0000
2000
0000
0000
0000
0000
0000
0000
0000
0000
0000
0000
0000
,
0002
0000
0000
0000
3000
0000
0000
0000
1003
0100
1000
0100
1000
0010
0001
0010
,
0001
0010
1000
0001
0100
1000
0100
1000
0100
0001
1000
0010
1000
0010
0001
0010
,
1000
0001
0010
1000
0010
1000
0010
0001
0100
1000
0001
0010
2000
0000
0000
0000
,
3001
0010
0100
1000
1000
1000
0220
0000
0000
0000
0000
0000
,
0000
0000
0000
0000
,
0000
0000
0000
0000
,
0330
0000
0000
0000
0000
0000
0000
0000
0000
0001
1000
0001
,
1000
0000
0000
0001
0000
0000
0010
0000
0100
0000
0010
0000
0001
0000
1000
0000
0001
0000
0100
0000
0010
0000
0100
0000
,
0001
0000
1000
0000
0001
0000
0010
0000
0100
0000
1000
0000
0100
0000
0010
0000
0001
0000
1000
0000
0000
0010
0000
0000
,
1000
0000
0001
0000
0100
0000
0001
0000
0010
0000
0100
0000
1000
0001
0100
0001
,
1000
0100
0010
0001
0010
0100
1000
0010
,
1000
0001
0100
0000
0001
0000
0010
0000
0001
0000
1000
0000
0010
0000
1000
0000
,
0100
0000
0010
0000
0001
0010
0100
1000
0001
0100
0001
0100
0001
0010
0001
0010
,
0100
1000
0100
1000
0010
1000
0010
1000
0001
0010
0100
1000
0001
0100
0010
1000
,
0001
0000
1001
0110
0000
1001
0000
0110
,
1001
0000
1001
0000
0110
1001
0000
0220
,
0000
0330
0000
0000
;

//--------------- dance-double - ----------------
#NOTEDATA:;
#STEPSTYPE:dance-double;
#DESCRIPTION:;
#DIFFICULTY:Easy;
#METER:9;
#RADARVALUES:0,0,0,0,0;
#NOTES:
00000000
00000000
00000000
00000000
,
00000000
00000000
00000000
00000000
,
10000000
00000000
00000000
01000000
00000000
00000000
00000000
00100000
00000000
00000000
00010000
00000000
00000000
00000000
01000000
00000000
,
00000000
00010000
00000000
00000000
00000000
00100000
00000000
00000000
00001000
00000000
00000000
00000000
00010000
00000000
00000000
00010000
,
00000000
00000000
00000000
00000100
00000000
00000000
00001000
00000000
00000000
00000000
00000010
00000000
00000000
00000100
00000000
00000000
,
00000000
00000001
00000000
00000000
00001000
00000000
00000000
00000000
00000001
00000000
00000000
00000010
00000000
00000000
00000000
00000100
,
00000000
00000000
00001000
00000000
00000000
00000000
00000010
00000000
00000000
00001000
00000000
00000000
00000000
00000100
00000000
00000000
,
00010000
00000000
00000000
00000000
00001000
00000000
00000000
00001000
00000000
00000000
00000000
00100000
00000000
00000000
00010000
00000000
,
00000000
00000000
01000000
00000000
00000000
00100000
00000000
00000000
00000000
10000000
00000000
00000000
00010000
00000000
00000000
00000000
,
10000000
00200000
00000000
01300000
00010000
01000000
00010000
00100000
,
02000000
00000000
03100000
00001000
00020000
00000000
00030100
00002000
,
00000000
00003010
00000100
00000010
00000100
00000001
00000020
00000000
,
00000031
00000100
00000010
00001000
00000100
00002000
00000000
00003010
,
00001000
00000100
00010000
00001000
00020000
00000000
00031000
00100000
,
00020000
00000000
00000000
00000000
01030000
00000000
00000000
00100000
00000000
00000000
01000000
00000000
00100000
00000000
10000000
00000000
,
00010000
00000000
00100000
00000000
00000000
01000000
00000000
00000000
00100000
00000000
01000000
00000000
10000000
00000000
00010000
00000000
,
00200000
00000000
00001000
00302000
,
00000000
00010000
00023000
00000000
,
00000100
00000000
00030100
00001000
00000010
00000000
00000100
00000001
,
00000010
00000010
00000000
00000001
00001000
00001000
00000010
00000010
,
00000000
00000100
00000010
00000010
00001000
00001000
00000000
00000001
,
00000010
00000010
00000100
00001000
00000100
00010000
00001000
00200000
,
00000000
00000000
00000000
00300000
00000000
00000000
00010000
10000000
,
00100000
01000000
00000000
01000000
00100000
00000000
10000000
00000000
,
00010000
00000000
00100000
00010000
01000000
00100000
00000000
00100000
,
01000000
00000000
00010000
00010000
00100000
00100000
00001000
00010000
,
00000100
00000010
00000000
00000010
00000100
00000000
00001000
00000000
,
00000010
00000000
00000100
00000001
00000100
00000020
00000000
00001030
,
00000100
00000000
00000010
00000000
00000001
00000000
00000001
00000100
,
00000010
00002000
00000000
00003100
00010000
00001000
00200000
00000000
,
00000000
00000000
00310000
01000000
00100000
20000000
00000000
00000000
,
00000000
30010000
00100000
00010000
02000000
00000000
03200000
00000000
,
00000000
00000000
10300000
01000000
20000000
00000000
00000000
32000000
,
00000000
00000000
00000000
03020000
00000000
00000000
00031000
00010000
,
00001000
00000000
00000000
00001000
00000000
00000000
00001000
00000000
00000100
00000000
00000002
00000000
00000000
00000000
00000000
00000000
,
00000003
00000000
00000002
00000010
,
00000100
00002003
00000100
00000010
,
00003002
00000100
00000010
00001003
,
00000100
00010000
00002000
00010000
,
00100000
02003000
00010000
00100000
,
03020000
00100000
10030000
11000000
,
00110000
00000000
00010000
10000000
00200000
00000000
10000000
00000000
,
01000000
02300000
00010000
00100000
,
03002000
00000000
00000000
00023000
00000000
00000000
00030100
00000000
,
00000100
00000000
00001000
00000010
00000200
00000000
00000320
00000000
,
00000000
00000000
00000030
00001000
00000010
00000100
00000001
00001000
,
00000100
00000100
00000010
00000001
,
00000010
00000000
00000100
00000000
00001000
00000100
00001000
00000000
,
00000100
00000000
00010000
00001000
00200000
00000000
00310000
01000000
,
00200000
00000000
10300000
00000000
01000000
10000000
02000000
00000000
,
03200000
00000000
00320000
00000000
01030000
00000000
10000000
01000000
,
00100000
00000000
01000000
00000000
00010000
00100000
01000000
00000000
,
00100000
00000000
10000000
00100000
01000000
00000000
00020000
00000000
,
00230000
00000000
00302000
00000000
00013000
00000100
00001000
00000000
,
00000010
00000000
00000100
00000001
00000010
00000000
00000100
00000000
,
00000001
00000100
00000010
00001000
00000100
00000000
00010000
00000000
,
00010000
00001000
00022000
00000000
,
00000000
00033000
00000000
02200000
,
00000000
00000000
03300000
00000000
,
20020000
00000000
00000000
30030000
,
00000000
10000000
00100000
01000000
,
00010000
01000000
00010000
00100000
,
00000000
00100000
00000000
00000000
00001000
00000000
00010000
00000000
,
00000100
00000000
00000000
00000100
00000000
00000000
00001000
00000000
,
00000010
00000000
00000100
00000000
00000000
00000100
00000000
00000000
,
00000001
00000010
00000001
00000001
,
00000100
00000100
00000010
00000010
,
00001000
00000000
00001000
00000000
00000000
00000100
00000000
00000100
,
00000000
00000000
00010000
00000000
00001000
00000000
00000000
00022000
,
00000000
00033000
00000000
00000000
;

//--------------- dance-double - ----------------
#NOTEDATA:;
#STEPSTYPE:dance-double;
#DESCRIPTION:;
#DIFFICULTY:Medium;
#METER:14;
#RADARVALUES:0,0,0,0,0;
#NOTES:
00000000
00000000
00000000
00000000
,
00000000
00000000
00000000
00000000
,
10000000
00100000
00000000
10000000
00000000
00100000
00000000
01000000
00010000
00000000
01000000
00000000
00010000
00000000
00100000
00001000
,
00000000
00100000
00000000
00001000
00010000
00001000
00000000
00010000
00000100
00000000
00001000
00000000
00000001
00000010
00000000
00000001
,
00000000
00000010
00000000
00000100
00001000
00000000
00000100
00000000
00001000
00000000
00000010
00010000
00000000
00000010
00000000
00010000
,
00001000
00010000
00000000
00001000
01000000
00000000
00010000
00000000
10000000
00100000
00000000
01000000
00000000
00100000
00000000
10000000
,
00010000
00000000
00100000
00000000
00010000
00000000
10000000
01000000
00000000
00010000
00000000
00001000
00010000
00001000
00000000
00000010
,
00000001
00000000
00001000
00000000
00000001
00000100
00000000
00000001
00000000
00000100
00001000
00000100
00000000
00001000
00010000
00000000
,
00001000
00000000
00010000
00100000
00000000
10000000
00000000
00100000
10000000
00100000
00000000
10000000
01000000
00000000
00100000
00000000
,
00010000
00000000
01000000
00100000
00000000
00010000
00100000
00010000
00100000
00000000
01000000
00000000
01000000
00000000
10000000
00000000
,
00100000
01000000
00000000
10000000
01000000
10000000
01000000
00000000
20020000
00000000
30030000
00000000
00100000
00000000
00010000
01000000
,
00000000
00001000
00010000
00001000
00010000
00000000
00000010
00000000
00001000
00000000
00000100
00000000
00010000
00001000
00000000
00010000
,
00001000
00010000
00002000
00000000
00023000
00000000
00030020
00000000
00001030
00000000
00000100
00000010
00000000
00001000
00000010
00001000
,
00000010
00000000
00000100
00000000
00000100
00000000
00000001
00000000
00000010
00000100
00000000
00000001
00000100
00000001
00000100
00000000
,
00002002
00000000
00003003
00000000
00000010
00000000
00010000
00001000
00000000
00010000
00100000
00010000
00100000
00000000
01000000
00000000
,
00100000
00000000
00001000
00000000
00001000
00010000
00000000
00001000
00000010
00001000
00000010
00000000
00000100
00000000
00000010
00000000
,
00020000
00000000
00000000
00000000
00000100
00001000
00030020
00000000
,
00000000
00000000
00001000
00000100
00020030
00000000
00000000
00000000
,
00001000
00100000
00031000
01000000
00010000
00100000
01000000
10000000
,
00010000
00000000
01000000
20000000
00000000
31000000
00010000
00000000
00100000
00000000
01000000
00000000
10000000
00000000
01000000
00020000
,
00000000
00031000
00000100
00000000
00000001
00000000
00001000
00000000
00000010
00000000
00000100
00000002
00000000
00001003
00000100
00000000
,
00000010
00000000
00000001
00000000
00000100
00000001
00000100
00000000
00000010
00000000
00010000
00000000
00000100
00000000
00002000
00000000
,
00000000
00000000
00000000
00000000
00000000
00000000
00003000
00000000
00000000
00000000
00000000
00000000
00000001
00000010
00000000
00000001
,
00000100
00000000
00000010
00010000
00000000
00001000
00200000
00000000
00000000
00310000
01000000
00000000
00001000
00010000
00000000
00001000
,
01000000
00000000
00000000
00000000
00100000
00000000
00000000
00000000
10000000
00000000
00000000
00000000
00010000
00000000
00000000
00100000
00000000
00000000
00000000
00000000
00000000
01000000
00000000
00000000
10000000
00000000
00000000
00000000
00000000
00000000
01000000
00000000
00000000
00100000
00000000
00000000
00000000
00000000
00000000
00001000
00000000
00000000
00020000
00000000
00000000
00000000
00000000
00000000
,
00000000
00030010
00001000
00000010
00001000
00000100
00010000
00000000
00001000
00100000
00010000
00000000
10000000
00100000
00000000
10000000
,
01000000
00000000
00100000
00001000
00000000
00010000
00000020
00000000
00000000
00001030
00000100
00000000
00010000
00001000
00000000
00010000
,
00000100
00000000
00000000
00000000
00000010
00000000
00000000
00000000
00000001
00000000
00000000
00000000
00001000
00000000
00000000
00000010
00000000
00000000
00000000
00000000
00000000
00001000
00000000
00000000
00000100
00000000
00000000
00000000
00000000
00000000
00010000
00000000
00000000
00001000
00000000
00000000
00000000
00000000
00000000
00100000
00000000
00000000
00010000
00000000
00000000
00000000
00000000
00000000
,
01000000
00100000
01000000
00000000
00100000
00000000
10000000
00000000
00010000
00000000
00100000
00000000
00001000
00010000
00002000
00000000
,
01000000
00010000
00100000
00010000
02003000
03200000
20300000
01000000
,
00010000
00000000
31000000
00000000
00100000
01000000
00200000
00000000
00302000
00000000
00023000
00000000
00030200
00000000
00002300
00000000
,
00003020
00000000
00000100
00000000
00000001
00000000
00000100
00000000
00002030
00000000
00000000
00000000
00003001
00000010
00000001
00000000
,
00000100
00000000
00000010
00000000
00001000
00000000
00000100
00000000
00000010
00001000
00000010
00000000
00001000
00000000
00010000
00001000
,
00010000
00000000
00100000
00000000
10000000
00010000
01000000
00000000
00010000
00000000
10000000
00000000
01000000
10000000
00010000
00000000
,
00100000
00001000
00000000
00010000
00000100
00000000
00001000
00000000
00001010
00000000
00000202
00000000
00000000
00000000
00000000
00000000
,
00000303
00000010
00001000
00000100
00020000
00001000
00000100
00001000
,
00030020
00000100
00001000
00000230
00000302
00000010
00002003
00003020
,
00020030
00000000
00001000
00000000
00000100
00000000
00032000
00000000
00203000
00000000
00010000
00000000
00302000
00000000
01003000
00010000
,
20000000
00000000
30100000
01000000
00020000
00000000
20030000
00000000
32000000
00000000
00100000
00000000
00010000
00000000
00100000
00000000
,
23000000
30020000
00230000
00001000
00010000
00001000
00302000
00023000
,
00030020
00000100
00001000
00000100
00002030
00003002
00000013
00000100
,
00000020
00000000
00000000
00000000
00000031
00001000
00000001
00000000
00000200
00000000
00000001
00000000
00000320
00000000
00002030
00000000
,
00000100
00000001
00003200
00020300
00001000
00000100
00031000
00100000
,
00020000
00000000
01000000
00000000
20030000
00000000
32000000
00000000
00000000
00000000
03100000
00000000
00020000
00000000
10030000
00100000
,
02000000
00000000
03001000
00100000
00020000
00000000
00130000
00001000
00020000
00000000
00000000
00000000
00032000
00000000
00000000
00000000
,
00000000
00000000
00003000
00001000
00010000
00000100
00001000
00000010
,
00002000
00000000
00003002
00000000
00000023
00000000
00000230
00000000
00002300
00000000
00000000
00000000
00003001
00000010
00000002
00000000
,
00001003
00000100
00002000
00000000
00003010
00000100
00000020
00000000
00002030
00000000
00003100
00010000
00000000
00001000
00010000
00000000
,
00002000
00000000
02003000
00000000
03010000
00100000
01000000
10000000
00020000
00000000
00000000
00000000
01030000
00000000
00100000
00000000
,
10000000
00000000
00010000
00100000
00000000
01000000
00100000
00000000
00020000
00000000
02030000
00000000
03001000
00002000
00000000
00010000
,
00023000
00000000
00031000
00000000
00011000
00000000
00010000
00000000
00000200
00000000
00000000
00000000
00001300
00000010
00001000
00000000
,
00000001
00000100
00000001
00000100
00000001
00000000
00000000
00000100
00000000
00000000
00000010
00000000
00001000
00000000
00000100
00000000
,
00010000
00000000
00001000
00000000
00100000
00000000
00010000
00000000
01000000
00100000
01000000
00100000
02000000
00000000
00000000
00000000
,
00200000
00000000
03000000
00000000
20300000
01000000
00010000
30200000
,
01000000
20300000
30020000
00230000
00001000
00010000
00302000
00023000
,
00030200
00001000
00000010
00001000
00010000
00001000
00000320
00000000
,
00000031
00000000
00001000
00000000
00000001
00000000
00001000
00000000
00000001
00000000
00001000
00000000
00000001
00000000
00000000
00000100
00000000
00000000
00000010
00000000
00000000
00020000
00000000
00000000
,
00000000
00001000
00031000
00000000
00011000
00000000
00001000
00100000
,
00010000
02000000
00000000
03100000
10000000
00010000
00100000
00000000
,
00100000
00001000
00010000
00002000
00000000
00010000
00013000
00000000
,
00011000
00000000
00000000
00010000
00000000
00000100
00000000
00001000
00000000
00000010
00000000
00000100
,
00000000
00000001
00000000
00001000
00000000
00001000
00000000
00001000
00000000
00000002
00000000
00000000
,
00000013
00000200
00000000
00000310
00000001
00001000
00000010
00000100
,
00000020
00000000
00001030
00000200
00000000
00010300
00001000
00100000
,
00010000
01000000
00200000
00000000
10300000
00020000
00000000
01030000
,
00100000
10000000
00010000
00000000
00100000
00001000
00200000
00000000
,
00301000
00010000
00002000
00000000
00013000
00000100
00020000
00000000
,
00032000
00000000
01000000
01000000
00000000
00100000
00000000
00010000
,
00023000
00000000
00000100
00000000
00001000
00031000
00000000
00022000
,
00000000
00033000
00000000
00000000
;

//--------------- dance-double - ----------------
#NOTEDATA:;
#STEPSTYPE:dance-double;
#DESCRIPTION:;
#DIFFICULTY:Hard;
#METER:17;
#RADARVALUES:0,0,0,0,0;
#NOTES:
00000000
00000000
00000000
00000000
,
00000000
00000000
00000000
00000000
,
10000000
00010000
01000000
00010000
00000000
00100000
00000000
00010000
10000000
01000000
10000000
00000000
00100000
00000000
01000000
00010000
,
10000000
00010000
00000000
00100000
00000000
00010000
00100000
00010000
01000000
00001000
00010000
00000100
00001000
00000010
00000100
00000010
,
00000000
00001000
00000000
00000001
00000010
00000100
00000010
00000000
00000001
00000000
00001000
00000010
00000100
00000010
00000000
00001000
,
00000000
00000000
00000000
00000001
00000000
00000000
00000100
00000000
00000000
00000010
00000000
00000000
00010000
00000000
00001000
00000000
00010000
00000000
00001000
00000000
00000000
00100000
00000000
00000000
00010000
00000000
00000000
01000000
00000000
00000000
10000000
00000000
00000000
01000000
00000000
00000000
00000000
00000000
00000000
00100000
00000000
00000000
00000000
00000000
00000000
10000000
00000000
00000000
,
01000000
00010000
01000000
00000000
00100000
00000000
00001000
00010000
00001000
00000100
00000000
00001000
00000000
00010000
00100000
00010000
,
00100000
10000000
01000000
00100000
00001000
00010000
00001000
00000010
00000000
00000001
00000000
00000100
00000001
00000010
00000100
00001000
,
00000100
00000000
00010000
00001000
00010000
00100000
00000000
10000000
00000000
01000000
10000000
00100000
01000000
00010000
00100000
01000000
,
10000000
00010000
00010000
01000000
00000000
10000000
01000000
00100000
00010000
00000000
00110000
00000000
11000000
00000000
10000000
00010000
,
00010000
01000000
00000000
10000000
01000000
00010000
00001000
00000000
00022000
00000000
00033000
00000000
00010000
00010000
00000010
00000100
,
00000000
00001000
00000010
00000100
00000001
00000000
00000101
00000000
00001010
00000000
00001000
00001000
00000100
00000010
00000000
00001000
,
00000010
00000100
00000001
00000010
00001000
00010000
00001000
00000100
00000001
00000001
00000010
00000100
00000000
00000001
00000100
00000010
,
00010000
00000000
00011000
00000000
00110000
00000000
10000000
10000000
00100000
01000000
00000000
10000000
01000000
00010000
00001000
00000000
,
00022000
00000000
00033000
00000000
00010000
00010000
00001000
00000100
00000000
00000001
00000010
00001000
00010000
00000000
00001000
00000000
,
00011000
00000000
00001000
00001000
00010000
00100000
00000000
10000000
00100000
00010000
00001000
00010000
00001000
00010000
01000000
10000000
,
00100000
01000000
00010000
02000000
00000000
03100000
10000000
00010000
00100000
00000000
00100000
00000000
01000000
00100000
00001000
00020000
,
00000000
00030100
00001000
00000010
00000100
00000000
00000100
00000000
00000001
00000100
00000010
00002000
00000000
00003100
00000010
00000001
,
00000100
00000000
00000100
00000000
00000010
00001000
00000100
00001000
00000100
00010000
00001000
00100000
00010000
01000000
00100000
01000000
,
00010000
00100000
00010000
00200000
00000000
01300000
10000000
00010000
01000000
00000000
01100000
00000000
10000000
00100000
01000000
00002000
,
00000000
00013000
00000100
00001000
00000010
00000000
00001010
00000000
00000100
00000001
00000100
00000002
00000000
00001003
00000100
00001000
,
00000100
00000000
00001001
00000000
00000001
00000100
00001000
00010000
00100000
10000000
00010000
00000000
00100000
00000000
00002000
00000000
,
00000000
00000000
00000000
00000000
00000000
00000000
00003000
00000000
00000000
00000000
00000000
00000000
00010000
00000000
00001000
00010000
,
00001000
00000000
00010000
00100000
00010000
00000000
00100000
00000000
01000000
00010000
00100000
01000000
00100000
00010000
01000000
00010000
,
00100000
00000000
00000000
00000000
00001000
00000000
00000000
00000000
00010000
00000000
00000000
00000000
00001000
00000000
00000000
00000000
00000000
00000000
00010000
00000000
00000000
00001000
00000000
00000000
00010000
00000000
00000000
00000000
00000000
00000000
00001000
00000000
00000000
00000100
00000000
00000000
00001000
00000000
00000000
00000000
00000000
00000000
00000100
00000000
00000000
00000000
00000000
00000000
,
00000010
00000000
00000000
00001000
00000000
00000000
00000010
00000000
00000000
00000100
00000000
00000000
00000010
00000000
00001000
00000000
00000010
00000000
00001000
00000000
00000000
00000000
00000000
00000000
00000100
00000000
00010000
00000000
00000100
00000000
00010000
00000000
00000000
00000000
00000000
00000000
00001000
00000000
00000000
00000000
00000000
00000000
00010000
00000000
00000000
00001000
00000000
00000000
,
00010000
00000000
00001000
00000010
00001000
00000000
00000010
00000000
00000100
00001000
00000010
00000100
00000010
00001000
00000100
00001000
,
00000010
00000000
00000000
00000000
00010000
00000000
00000000
00000000
00001000
00000000
00000000
00000000
00010000
00000000
00000000
00010000
00000000
00000000
00000000
00000000
00000000
00001000
00000000
00000000
00001000
00000000
00000000
00000000
00000000
00000000
01000000
00000000
00000000
01000000
00000000
00000000
00000000
00000000
00000000
00100000
00000000
00000000
00100000
00000000
00000000
00000000
00000000
00000000
,
10000000
00100000
10000000
00100000
01000000
00010000
01000000
00010000
00100000
00010000
01000000
00010000
10000000
01000000
00010000
00000000
,
00001000
00000000
00020000
00000000
00001000
00000000
00030100
00001000
00000100
00000000
00001100
00000000
00000011
00000000
00000001
00000100
,
00000010
00001000
00000001
00000100
00000001
00000010
00000001
00000000
00001000
00000000
00000200
00000000
00000010
00000000
00001300
00000010
,
00000100
00000000
00000001
00000010
00000100
00000000
00001000
00000010
00000200
00000000
00000000
00000000
00001300
00010000
00001000
00010000
,
00001000
00100000
00010000
01000000
00100000
00000000
10000000
00000000
00010000
00100000
01000000
10000000
00010000
00000000
10000000
00100000
,
01000000
00010000
10000000
00000000
01000000
10000000
00100000
10000000
00100000
01000000
00010000
00100000
00001000
00100000
00001000
00010000
,
00000100
00001000
00000010
00000001
00000010
00001000
00000100
00000010
00000001
00000000
00001001
00000000
00000001
00000100
00001000
00010000
,
00001000
00000000
00000000
00000000
00000000
00000000
00000000
00000000
00010000
00001000
00100000
00001000
00020000
00000000
00000000
00000000
,
00001000
00000000
00000100
00000000
00031000
00100000
01000000
00100000
00020000
00000000
00000000
00000000
01000000
00000000
00100000
00000000
,
10030000
00100000
01000000
00100000
20000000
00000000
00000000
00000000
00010000
00000000
01000000
00000000
30100000
01000000
00100000
01000000
,
00010000
00100000
00001000
00010000
00000100
00001000
00000100
00001000
00000010
00000100
00000001
00000100
00000020
00000000
00000000
00000000
,
00001000
00000000
00000100
00000000
00001030
00000100
00000010
00000001
00002000
00000000
00000000
00000000
00000001
00000000
00000010
00000000
,
00003001
00000100
00000001
00000100
00000020
00000000
00000000
00000000
00001000
00000000
00000100
00000000
00010030
00000000
00001000
00000000
,
00020000
00000000
00000000
00000000
00031000
01000000
00100000
10000000
00010000
00100000
00010000
10000000
02000000
00000000
00000000
00000000
,
00010000
00000000
00100000
00000000
13000000
00010000
10000000
00010000
10000000
00000000
00100000
00000000
00010000
00000000
00001000
00000000
,
00010000
00001000
00000000
00001000
00010000
00000000
00000200
00000000
00000000
00000000
00000010
00000000
00001300
00000010
00001000
00000010
,
00000100
00000001
00000100
00000001
00001000
00000100
00000010
00000001
00001000
00000000
00000000
00000000
00000101
00000000
00001000
00000000
,
00000100
00000000
00010000
00000000
00001000
00000000
00000000
00000000
00000000
00100000
00000000
00000000
00010000
00000000
00000000
10000000
00000000
00000000
00100000
00000000
00000000
02000000
00000000
00000000
,
00100000
00000000
00010000
00000000
00001000
00000000
00010000
00000000
00100000
00000000
00010000
00000000
03001000
00010000
00002000
00000000
,
00013000
00000100
00020000
00000000
00030010
00001000
00000010
00000100
00000001
00000010
00000001
00000010
00000100
00010000
00001000
00010000
,
00001000
00000000
00000100
00000000
00000001
00000010
00001000
00010000
00002000
00000000
00000000
00000000
00010000
00000000
00100000
00000000
,
00013000
00001000
00010000
00001000
01000000
00010000
00100000
01000000
10000000
00000000
00100000
00000000
01000000
01000000
00000000
00100000
,
10000000
00000000
01000000
00000000
00100000
00000000
00001000
00000000
00020000
00000000
00000000
00000000
00030100
00001000
00000010
00010000
,
00001000
00010000
00000100
00001000
00000010
00000000
00000000
00001010
00000000
00000000
00000100
00000010
00001000
00000010
00001000
00010000
,
02000000
00000000
03100000
10000000
00100000
10000000
01000000
00100000
00010000
00001000
00000100
00000010
00000002
00000000
00000000
00000000
,
00002000
00000000
00000000
00000000
00000003
00000000
00000000
00000000
00003001
00000000
00000100
00000001
00000010
00000000
00000100
00000010
,
00001000
00000000
00000010
00000001
00000100
00000000
00001000
00010000
00100000
00000000
01000000
00010000
00100000
00000000
01000000
00010000
,
00001000
00000000
00010000
00100000
10000000
00000000
10000000
01000000
00010000
00000000
00001000
00000000
00000010
00000000
00000000
00000000
,
00000001
00000000
00001000
00000000
00000001
00000000
00000100
00000000
00000010
00000000
00000100
00000000
00000010
00000000
00000000
00001000
00000000
00000000
00000010
00000000
00000000
00002000
00000000
00000000
,
00000000
00003100
00001000
00000010
00000100
00000001
00001000
00000100
,
00001000
00000200
00000000
00000310
00000001
00000010
00000100
00001000
,
00010000
00100000
00010000
00200000
00000000
01300000
00100000
00010000
,
01000000
00000000
00000000
00100000
00000000
00000000
10000000
00000000
00100000
00000000
10000000
00000000
00100000
00000000
00000000
00000000
01000000
00000000
00010000
00000000
00100000
00000000
00010000
00000000
,
00100000
00000000
00000000
00000000
01000000
00000000
10000000
00000000
00010000
00000000
10000000
00000000
00010000
00000000
10000000
00000000
00010000
00000000
10000000
00000000
00000000
00100000
00000000
00000000
,
10000000
00100000
01000000
00010000
00100000
00010000
00001000
00000100
,
00001000
00000010
00001000
00000010
00000001
00001000
00000100
00000001
,
00000010
00000001
00000010
00000100
00000010
00000001
00001000
00000100
,
00001000
00000000
00010000
00000000
00100000
00000000
00010000
00000000
01000000
00100000
10000000
00010000
00200000
00000000
00000000
00000000
,
01300000
10000000
01000000
00100000
00002000
00000000
00000000
00000000
00013000
00000100
00001000
00000010
00000200
00000000
00000000
00000000
,
00000301
00000000
00000001
00000011
00000000
00000101
00000000
00001000
,
00001100
00000000
00011000
00000000
00010000
00110000
00000000
20020000
,
00000000
30030000
00000000
00000000
;

//--------------- dance-double - ----------------
#NOTEDATA:;
#STEPSTYPE:dance-double;
#DESCRIPTION:;
#DIFFICULTY:Challenge;
#METER:18;
#RADARVALUES:0,0,0,0,0;
#NOTES:
00000000
00000000
00000000
00000000
,
00000000
00000000
00000000
00000000
,
10000000
00010000
01000000
00010000
10000000
00000000
01000000
00010000
00000000
00001000
00000000
00010000
00000000
00100000
00010000
00001000
,
00010000
00000000
00000000
00001000
00000000
00000000
00000100
00000000
00000000
00000000
00000000
00000000
00000001
00000000
00000000
00000010
00000000
00000000
00000100
00000000
00000000
00001000
00000000
00000000
00010000
00000000
00000000
00100000
00000000
00000000
00010000
00000000
10000000
00000000
00010000
00000000
10000000
00000000
00000000
00100000
00000000
00000000
01000000
00000000
00000000
00010000
00000000
00000000
,
00100000
00000000
01000000
00100000
00000000
00010000
00000000
00000010
00000000
00000001
00000010
00000001
00000010
00000000
00000100
00000000
,
00010000
00000000
00000000
00001000
00000000
00000000
00010000
00000000
00000000
00001000
00000000
00000000
01000000
00000000
00010000
00000000
01000000
00000000
00010000
00000000
00100000
00000000
01000000
00000000
10000000
00000000
00000000
00100000
00000000
00000000
10000000
00000000
00000000
00010000
00000000
00000000
00100000
00000000
00000000
00000000
00000000
00000000
01000000
00000000
00000000
00010000
00000000
00000000
,
00000000
00001000
00000000
00000100
00000000
00000010
00001000
00000010
00001000
00010000
01000000
00000000
00010000
00100000
01000000
10000000
,
01000000
00000000
00000000
10000000
00000000
00000000
00010000
00000000
00100000
00000000
00001000
00000000
00010000
00000000
00000000
00000100
00000000
00000000
00000010
00000000
00000000
00000001
00000000
00000000
00000010
00000000
00000000
00000000
00000000
00000000
00000001
00000000
00000000
00000010
00000000
00000000
00000000
00000000
00000000
00000001
00000000
00000000
00000000
00000000
00000000
00000100
00000000
00000000
,
00000000
00000000
00000000
00000010
00000000
00000000
00010000
00000000
00001000
00000000
00010000
00000000
00001000
00000000
00010000
00000000
00001000
00000000
00100000
00000000
00010000
00000000
10000000
00000000
01000000
00000000
10000000
00000000
01000000
00000000
00100000
00000000
00010000
00000000
00100000
00000000
00001000
00000000
00010000
00000000
00001000
00000000
00010000
00000000
00000100
00000000
00001000
00000000
,
00000001
00000001
00001000
00000100
00000000
00000001
00000100
00000010
00001000
00000000
00011000
00000000
00110000
00000000
10000000
10000000
,
01000000
00100000
00000000
10000000
00100000
01000000
00001000
00000000
00022000
00000000
00033000
00000000
00010000
00010000
00000010
00000100
,
00000000
00001000
00000100
00000010
00000001
00000000
00000011
00000000
00001100
00000000
00001000
00001000
00000010
00000100
00000000
00001000
,
00000100
00000000
00000000
00000010
00000000
00000000
00000001
00000000
00000000
00000100
00000000
00000000
00000010
00000000
00001000
00000000
00000010
00000000
00001000
00000000
00000000
00000100
00000000
00000000
00010000
00000000
00000000
00001000
00000000
00000000
00001000
00000000
00000000
00100000
00000000
00000000
00000000
00000000
00000000
10000000
00000000
00000000
00100000
00000000
00000000
01000000
00000000
00000000
,
00010000
00000000
00011000
00000000
00001010
00000000
00000001
00000001
00000100
00000010
00000000
00000001
00000010
00000100
00001000
00000000
,
00002002
00000000
00000000
00000000
00003003
00000000
00000000
00000000
00000001
00000010
00000001
00000000
00001000
00000000
00000100
00000000
00000000
00000000
00001000
00000010
00001000
00000000
00000001
00000000
00000100
00000000
00000000
00000000
00001010
00000000
00000000
00000000
,
00011000
00000000
00000000
00000000
00010000
00100000
00010000
00000000
10000000
00000000
01000000
00000000
00000000
00000000
10000000
00100000
10000000
00000000
00010000
00000000
01000000
00000000
00010000
00000000
00100000
00000000
01000000
00000000
10000000
00000000
01000000
00000000
,
00020000
00000000
00000000
00000000
00000000
00031000
00000100
00001000
00000100
00000000
00000010
00000000
00020000
00000000
00000000
00000000
,
00000000
00000000
00000000
00031000
00000000
00000000
00010000
00000000
00000000
00100000
00000000
00000000
10000000
00000000
00000000
00000000
00000000
00000000
01000000
00000000
00000000
00000000
00000000
00000000
00020000
00000000
00000000
00000000
00000000
00000000
00000000
00000000
00000000
00000000
00000000
00000000
00000000
00000000
00000000
00031000
00000000
00000000
00010000
00000000
00001000
00000000
00010000
00000000
,
00000100
00000000
00001000
00000000
00000100
00000000
00001000
00000000
00000001
00000000
00000100
00000000
00000010
00000000
00000000
00001000
00000000
00000000
00000010
00000000
00000000
00000100
00000000
00000000
00000001
00000000
00000000
00000010
00000000
00000000
00000100
00000000
00000000
00010000
00000000
00000000
00001000
00000000
00000000
00010000
00000000
00000000
00000100
00000000
00000000
00001000
00000000
00000000
,
00000001
00000010
00001000
00020000
00000000
00031000
00000100
00000001
00000100
00000000
00001010
00000000
00000010
00000100
00001000
00020000
,
00000000
00031000
00010000
00100000
10000000
00000000
10100000
00000000
01000000
00010000
00100000
02000000
00000000
03100000
00010000
00001000
,
00000100
00000000
00000000
00000000
00000000
00000000
00001100
00000000
00000000
00000000
00000000
00000000
00001000
00000000
00000000
00000010
00000000
00000000
00001000
00000000
00000000
00000100
00000000
00000000
00010000
00000000
00000000
00001000
00000000
00000000
00100000
00000000
00010000
00000000
00100000
00000000
00010000
00000000
01000000
00000000
00100000
00000000
20000000
00000000
00000000
00000000
00000000
00000000
,
00000000
00000000
00000000
00000000
00000000
00000000
30000000
00000000
00000000
00000000
00000000
00000000
00100000
00100000
10000000
01000000
,
00100000
00000000
00010000
01000000
00100000
00000000
10010000
00000000
10000000
01000000
00100000
00010000
00100000
00010000
00001000
00000100
,
00000010
00000000
00000000
00000000
00001000
00000000
00000000
00000000
00100000
00000000
00000000
00000000
00010000
00000000
00000000
00010000
00000000
00000000
01000000
00000000
00000000
00100000
00000000
00000000
10000000
00000000
00000000
00000000
00000000
00000000
00010000
00000000
00000000
00100000
00000000
00000000
00001000
00000000
00000000
00000000
00000000
00000000
00011000
00000000
00000000
00000000
00000000
00000000
,
00010000
00000000
00000000
00000100
00000000
00000000
00001000
00000000
00000000
00000010
00000000
00000000
00000100
00000000
00000001
00000000
00000100
00000000
00000001
00000000
00000100
00000000
00000010
00000000
00001000
00000000
00000010
00000000
00001000
00000000
00000001
00000000
00000000
00000000
00000000
00000000
00000100
00000000
00000000
00000100
00000000
00000000
00000001
00000000
00000000
00000010
00000000
00000000
,
00000100
00000000
00001000
00000010
00000100
00000000
00001001
00000000
00000001
00000010
00000100
00001000
00000100
00001000
00010000
00100000
,
01000000
00000000
00000000
00000000
00010000
00000000
00000000
00000000
00000100
00000000
00000000
00000000
00001000
00000000
00000000
00002000
00000000
00000000
00000000
00000000
00000000
00000100
00000000
00000000
00003002
00000000
00000000
00000000
00000000
00000000
00000010
00000000
00000000
00000203
00000000
00000000
00000000
00000000
00000000
00000010
00000000
00000000
00000310
00000000
00000000
00000000
00000000
00000000
,
00001000
00000010
00000100
00000010
00000100
00000001
00000100
00000010
00001000
00010000
01000000
00100000
10000000
01000000
10000000
01000000
,
00010000
00001000
00020000
00000000
00000100
00000000
00031000
00000010
00000001
00000000
00000101
00000000
00001010
00000000
00001000
00000100
,
00010000
00000010
00001000
00000100
00001000
00000010
00001000
00010000
01000000
00010000
02000000
00000000
00100000
00000000
03010000
00100000
,
01000000
00000000
10000000
00100000
01000000
00100000
01000000
00010000
20000000
00000000
00000000
00000000
31000000
00100000
01000000
00100000
,
01000000
10000000
00100000
01000000
00010000
00100000
00001000
00010000
00000100
00001000
00000100
00001000
00000010
00000100
00000001
00000010
,
00000001
00000010
00000001
00000100
00000010
00001000
00000100
00000010
00001000
00010000
01000000
00100000
00001000
00010000
00100000
01000000
,
00010000
00000000
10000000
00000000
00010000
00000000
10000000
00000000
00000000
01000000
00000000
00000000
00100000
00000000
00000000
00000000
00000000
00000000
00110000
00000000
00000000
00000000
00000000
00000000
00011000
00000000
00000000
00000000
00000000
00000000
00001010
00000000
00000000
00000000
00000000
00000000
00001000
00000000
00000100
00000000
00000010
00000000
00000001
00000000
00001000
00000000
00000010
00000000
,
00000100
00000000
00000000
00000000
00000000
00000000
00000000
00000000
00000001
00000010
00000001
00000100
00000020
00000000
00000000
00000000
,
00000001
00000000
00000100
00000000
00001030
00000100
00010000
00001000
00020000
00000000
00000000
00000000
00001000
00000000
00000100
00000000
,
00031000
00010000
01000000
10000000
00200000
00000000
00000000
00000000
10000000
00000000
01000000
00000000
10300000
00100000
01000000
00010000
,
00100000
00010000
00100000
01000000
00100000
00010000
00001000
00000100
00000010
00000000
00000001
00000100
00000002
00000000
00000000
00000000
,
00000010
00000000
00001000
00000000
00000103
00000010
00010000
00001000
00020000
00000000
00000000
00000000
00000100
00000000
00001000
00000000
,
00030010
00001000
00000001
00001000
00000200
00000000
00000000
00000000
00010000
00000000
00001000
00000000
00010300
00001000
00010000
00001000
,
01000000
00000000
00000000
00010000
00000000
00000000
01000000
00000000
00000000
00010000
00000000
00000000
10000000
00000000
01000000
00000000
10000000
00000000
00100000
00000000
01000000
00000000
00010000
00000000
00100000
00000000
00000000
00010000
00000000
00000000
10000000
00000000
00000000
00010000
00000000
00000000
02000000
00000000
00000000
00000000
00000000
00000000
00000000
00000000
00000000
00000000
00000000
00000000
,
10000000
00000000
00010000
00000000
03100000
10000000
00010000
10000000
01000000
00000000
00010000
00000000
00001000
00000000
00000100
00000000
,
00000010
00001000
00000000
00000001
00000010
00000000
00000200
00000000
00000000
00000000
00000310
00000000
00000001
00000100
00000001
00000100
,
00000010
00001000
00000010
00001000
00010000
01000000
00100000
10000000
00020000
00000000
00000000
00000000
00130000
00000000
00001000
00000000
,
00010000
00000000
00010000
00000000
00011000
00000000
00000000
00000000
00000000
00011000
00000000
00000000
00001000
00000000
00000000
01010000
00000000
00000000
10000000
00000000
00000000
01010000
00000000
00000000
,
00002000
00000000
00000000
00100000
00000000
00000000
00010000
00000000
00000000
01000000
00000000
00000000
00010000
00000000
00000000
00100000
00000000
00000000
00013000
00001000
00010000
00001000
00010000
00000100
,
00001000
00000000
00000100
00000000
00000010
00000000
00000001
00000000
00000010
00000000
00000001
00000000
00000100
00000000
00000010
00000000
00001000
00000000
00000010
00000000
00001000
00000000
00000001
00000000
00000100
00000000
00000000
00000010
00000000
00000000
00000100
00000000
00000000
00000010
00000000
00000000
00000100
00000000
00000000
00001000
00000000
00000000
00010000
00000000
00000000
00001000
00000000
00000000
,
00010000
00001000
00000100
00000001
00000010
00000100
00010000
00001000
00200000
00000000
00000000
00000000
00010000
00000000
01000000
00000000
,
00310000
01000000
00010000
01000000
00100000
10000000
01000000
00010000
00001000
00000100
00000001
00000100
00000001
00000011
00000000
00001000
,
00001010
00000000
00000101
00000000
00010100
00000000
00011000
00000000
00001000
00100000
00010000
01000000
00100000
00010000
00100000
01000000
,
00001000
00100000
01000000
00010000
00001000
00000100
00000010
00001000
00000100
00000010
00000100
00001000
00000010
00010000
00001000
00000100
,
00000010
00001000
00000100
00000010
00001000
00010000
01000000
00100000
00001000
00010000
00001000
00000100
00000020
00000000
00000000
00000000
,
00000200
00000000
00000000
00000000
00000030
00000000
00000000
00000000
00000301
00000010
00000100
00001000
00000100
00000010
00000001
00000100
,
00000010
00000001
00000010
00000100
00001000
00010000
00100000
01000000
00010000
00100000
01000000
10000000
01000000
00100000
00010000
10000000
,
00100000
00010000
00001000
00000010
00000001
00000100
00001000
00010000
00001000
00010000
00100000
10000000
00010000
00000000
00000000
00000000
,
00100000
00001000
00010000
00011000
00001000
00010000
00022000
00000000
00000000
00000000
00000000
00000000
,
00000000
00000000
00000000
00000000
,
00000000
00000000
00000000
00000000
,
00033000
00000000
00000000
00000000
00000000
00000000
00000000
00000000
00000000
10000000
00100000
01000000
,
00010000
00000000
00000000
10000000
00000000
00000000
01000000
00000000
10000000
00000000
01000000
00000000
10000000
00000000
00100000
00000000
01000000
00000000
00010000
00000000
00100000
00000000
00001000
00000000
,
00100000
00000000
00001000
00000000
00010000
00000000
00000100
00000000
00001000
00000000
00000010
00000000
00000100
00000000
00000001
00000000
00000010
00000000
00000001
00000000
00000000
00000100
00000000
00000000
,
00000001
00000000
00000100
00000000
00000010
00000000
00010000
00000000
00000100
00000000
00001000
00000000
00000100
00000010
00000100
00000010
,
00000100
00010000
00001000
01000000
00010000
10000000
01000000
00100000
,
00010000
10000000
00010000
00000000
01000000
00000000
00100000
00000000
10000000
00000000
00010000
00000000
00100000
00000000
00001000
00000000
,
00010000
00000000
00000010
00000000
00001000
00000000
00000001
00000000
00000100
00000010
00010000
00000000
00000100
00001000
00000010
00000000
,
00000100
00000001
00001000
00000000
00000100
00010000
00001000
00000000
00100000
00001000
01000000
00000000
00010000
00100000
01000000
10000000
,
00010000
00000000
00110000
10100000
00000000
10010000
00000000
11000000
,
01010000
00000000
00011000
00000000
00001100
00000101
00000000
00002002
,
00000000
00003003
00000000
00000000
;
