#VERSION:0.83;
#TITLE:It's a World Before You;
#SUBTITLE:;
#ARTIST:Kaidi Tatham feat. Dego;
#TITLETRANSLIT:;
#SUBTITLETRANSLIT:;
#ARTISTTRANSLIT:;
#GENRE:;
#ORIGIN:;
#TAGS:;
#CREDIT:;
#BANNER:It's a World Before You-bn.png;
#BACKGROUND:It's a World Before You-bg.png;
#PREVIEWVID:;
#JACKET:It's a World Before You-jk.png;
#CDIMAGE:;
#DISCIMAGE:;
#LYRICSPATH:;
#CDTITLE:;
#MUSIC:It's a World Before You.ogg;
#OFFSET:0.005000;
#SAMPLESTART:54.187912;
#SAMPLELENGTH:15.479000;
#SELECTABLE:YES;
#BPMS:0.000000=124.000000
;
#STOPS:;
#DELAYS:;
#WARPS:;
#TIMESIGNATURES:0.000000=1=4
,1.000000=4=4
;
#TICKCOUNTS:0.000000=4
;
#COMBOS:0.000000=1
;
#SPEEDS:0.000000=1.000000=0.000000=0
;
#SCROLLS:0.000000=1.000000
;
#LABELS:0.000000=Song Start
;
#BGCHANGES:;
#KEYSOUNDS:;
#ATTACKS:
;

//---------------dance-double - ----------------
#NOTEDATA:;
#CHARTNAME:;
#CHARTHASH:812150641;
#STEPSTYPE:dance-double;
#BANNER:;
#DESCRIPTION:;
#CHARTSTYLE:;
#DIFFICULTY:Easy;
#METER:5;
#METERF:5.000000;
#LASTSECONDHINT:124.349846;
#RADARVALUES:0.184538,0.229130,0.063399,0.174349,0.000000,163.000000,155.000000,8.000000,22.000000,0.000000,0.000000,0.000000,0.000000,0.000000,0.184538,0.229130,0.063399,0.174349,0.000000,163.000000,155.000000,8.000000,22.000000,0.000000,0.000000,0.000000,0.000000,0.000000;
#CREDIT:Embrace;
#NOTES:
00000000
00000000
00000000
00000000
,
00000000
00000000
00000000
00000000
,
00000000
00000000
00000000
00000000
,
00000000
00000000
00000000
00000000
,
00000000
00000002
00000000
00000000
,
00000000
00000000
00000000
00001003
,
00000000
00011000
00000000
00001000
,
00100000
01000000
00000000
10000000
,
00000000
00100000
00000000
01000000
,
00001000
00010000
00000000
00000100
,
00000000
00000010
00000000
00000001
,
00000100
00000010
00000000
00001000
,
00000100
00000010
00000000
00001000
,
00010000
00001000
00000000
01000000
,
00100000
01100000
00000000
00010000
,
10000000
01000000
00100000
00010000
,
00000000
10000000
00010000
10000000
,
01000000
00100000
00000000
00001000
,
00000000
00010000
00001000
00001000
,
00010000
00000000
00010010
00000000
,
00001001
00000000
00001000
00000100
,
00000010
00000100
00010000
00002000
,
00000000
00003000
00000000
01000000
,
00100000
01000000
00000000
00010000
,
00000000
10000000
01000000
00100000
,
00000000
00001000
00010000
00001000
,
00000100
00000001
00000000
00000010
,
00000000
00000001
00001000
00000010
,
00000000
00020000
00030000
00001000
,
00000000
00011000
00000000
00000000
00010000
00000000
00001000
00000000
,
00000000
00100000
01000000
10000000
,
01000000
00100000
00001000
00010000
,
00000000
00000020
00000030
00000200
,
00000300
00000002
00000000
00000013
,
00000000
00000200
00000000
00000300
,
00000000
00010000
00001000
00010000
,
00000000
00002000
00003000
00200000
,
00300000
02000000
00000000
03000000
,
00000000
10000000
00100000
01000000
,
00000000
00001000
00001000
00001000
,
00000000
00011000
00010000
00000100
,
00000000
00000010
00000001
00001000
,
00000000
00000200
00000300
00000020
,
00000030
00000001
00000100
00000010
,
00000000
00010000
00001000
00100000
,
00000000
02000000
03000000
20000000
,
30000000
10010000
00010000
01000000
,
00000000
00001000
00100000
00001000
,
00000000
00020000
00030000
00000200
,
00000300
00000010
00000001
00000010
,
00000000
00000001
00000100
00000010
,
00000000
00020000
00030000
00002000
,
00003000
01000000
00000000
00100000
,
10000000
01000000
00000000
00100000
,
00000000
00001000
01000000
00010000
,
00000000
00100000
00000000
00001000
,
00010000
00000100
00000000
00000010
,
00000000
00000002
00000003
00000200
,
00000300
00000010
00000000
00010000
,
00000100
00010000
00000000
00001000
,
00000000
01000000
00000000
00100000
,
00000000
10000000
00000000
01000000
,
00100000
00001000
00000000
00010000
,
00000000
00000010
00000000
00000100
,
00002002
00003003
00000000
00000000
;

//---------------dance-double - ----------------
#NOTEDATA:;
#CHARTNAME:;
#CHARTHASH:260838542;
#STEPSTYPE:dance-double;
#BANNER:;
#DESCRIPTION:;
#CHARTSTYLE:;
#DIFFICULTY:Hard;
#METER:13;
#METERF:13.000000;
#LASTSECONDHINT:124.349846;
#RADARVALUES:0.470968,0.534636,0.110949,0.229823,0.530971,416.000000,402.000000,14.000000,29.000000,0.000000,0.000000,0.000000,0.000000,0.000000,0.470968,0.534636,0.110949,0.229823,0.530971,416.000000,402.000000,14.000000,29.000000,0.000000,0.000000,0.000000,0.000000,0.000000;
#CREDIT:Embrace;
#NOTES:
00000000
00000000
00000000
00000000
,
00000000
00000000
00000000
00000000
,
00000000
00000000
00000000
00000000
,
00000000
00000000
00000000
00000000
,
00000000
20000000
00000000
00000000
,
00000000
00000000
00000000
00000000
00000000
00000000
30010000
01000000
,
00100000
00000000
00010000
00001000
00010000
00000000
00000000
00000100
00000000
00000100
00001000
00000000
00000001
00000000
00000010
00000000
,
00000001
00000000
00000100
00000000
00000010
00000000
00000000
00010000
00000000
00010000
00000000
00000000
00001000
00000000
00000000
00100000
,
00000000
00100000
00000000
00000000
01000000
00000000
00000000
10000000
00000000
10000000
00100000
00000000
01000000
00000000
00010000
00000000
,
00100000
00000000
00001000
00000000
00010000
00000000
00000000
00000100
00000000
00000100
00000000
00000000
00000010
00000000
00000000
00000001
,
00000000
00000001
00000000
00000011
00000000
00000001
00001000
00000001
00000000
00000000
00000100
00000000
00001000
00000000
00010000
00000000
,
00000010
00000000
00001000
00000000
00000000
00000100
00001000
00000100
00000000
00000000
00000000
00010000
00000000
00001000
00010000
00001000
,
02000000
00000000
00000000
03100000
00000000
10000000
00010000
10000000
00000000
00000000
01000000
00000000
00010000
00000000
00001000
00000000
,
00100000
00000000
00010000
00000000
00000000
01000000
00100000
01000000
00000000
00000000
00000000
00000000
00001000
00000000
00000000
00000000
,
00000010
00000100
00000000
00000011
00000000
00000000
00000000
00000000
00001000
00000000
00000100
00000000
00000010
00000000
00001000
00010000
,
00000000
00000000
00000000
01000000
00000000
02000000
00000000
00000000
23000000
00000000
00100000
00000000
30200000
00000000
00000000
00000000
,
01300000
00000000
00000000
00000000
00001000
00100000
00000000
00000000
00000010
00010000
00000000
00000000
00001000
00000000
00000010
00000000
,
00000001
00000000
00001000
00000010
00002000
00000000
00000000
00000000
00003001
00000000
00000000
00000000
00000100
00000000
00000000
00000100
,
00000000
00000000
00000000
00001010
00000000
00010010
00000000
00000000
00000010
00010000
00000000
00001000
00000000
00000000
00100000
00010000
,
10000000
00000000
00000000
00000000
01000000
00000000
00000000
00100000
00001000
00010000
00001000
00100000
00000000
00000000
00000000
00001000
,
00010000
00000010
00010000
00001000
00000000
00000000
00000000
00000000
00010000
00000000
00000000
00000000
00000100
00000000
00000010
00000000
,
00000001
00000000
00000100
00000000
00000001
00001000
00000001
00001000
00000100
00000000
00000000
00000000
00020200
00000000
00000000
00000000
,
00000300
00000000
00000000
00031000
00000000
00000000
00000000
00000000
00100000
00000000
00000000
00010000
10000000
00000000
00100000
01000000
,
00000000
00100000
10000000
01000000
00000000
01100000
00000000
00000000
00100000
00000000
00000000
00000000
00002000
00000000
00000000
00000000
,
00023000
00000000
00000000
00130000
10000000
00000000
01000000
00000000
10000000
00000000
00010000
00000000
00100000
00000000
02000000
00000000
,
00000000
00000000
03000000
00000000
00010000
00001000
00010000
00000000
00000010
00001000
00000010
00000000
00000100
00000001
00000100
00000000
,
00001000
00010000
00000000
00101000
00000000
00000000
00000000
00000000
00001000
00010000
00000000
02001000
00000000
00000000
00000000
00000000
,
03100000
00000000
00010000
00000000
00001000
00000000
00000010
00000001
00000000
00000100
00000000
00000001
00000000
00000010
00000000
00000000
,
00000100
00010000
00000000
00101000
00000000
00000000
00001000
00000000
00010000
00000000
00001000
00000100
00000020
00000000
00000000
00001030
,
00000000
00000000
00000000
00000000
00000000
00000000
00001001
00000000
00000000
00000000
00000000
00000000
00000000
00000000
00000000
00000000
00000001
00000000
00000000
00000000
00000010
00000000
00000000
00000000
00000100
00000000
00000000
00000000
00010000
00000000
00000000
00000000
00001000
00000000
00000000
00000000
01000000
00000000
00000000
00000000
00000000
00000000
00000000
00000000
00000000
01010000
00000000
00000000
,
00000000
01000000
00000000
20010000
00000000
00000000
00000000
00000000
31000000
00000000
00010000
00000000
00002000
00000000
00000000
00000000
,
00003200
00000000
00000000
00000000
00000301
00000000
00000010
00000001
00000010
00000000
00000001
00000000
00000100
00000010
00001000
00000000
,
00000100
00000000
00000000
00000000
00010000
00000000
00001000
00100000
00010000
00000000
01000000
00010000
10000000
00000000
00000000
01000000
,
00100000
00000000
00001000
00000000
00020000
00000000
00000000
00000000
00000000
00000000
00000000
00000000
00030100
00000020
00000000
00000000
,
00000030
00000002
00000000
00000013
,
00001000
00000000
00010000
00000010
00000000
00001000
00000000
00000000
00000100
00000000
00000000
00000000
00010000
00000000
00001000
00000000
,
00010000
00000000
00000000
00000000
02000000
00000000
00000000
13000000
00000000
00100000
00000000
00000000
02000000
00000000
00000000
00000000
,
03010000
20000000
00000000
31000000
,
00010000
00000000
00001000
00100000
00000000
00000000
00000000
00000000
00010000
00000000
00000000
00000000
01000000
00000000
00001000
00000000
,
00010000
00000000
00000100
00000000
00000010
00000000
00000000
00000000
00000010
00000000
00000000
00000000
00000001
00001000
00000001
00000100
,
00000000
00000100
00000000
00000000
00001010
00000000
00000010
00000000
00010000
00000000
00001000
00100000
02000000
00000000
00000000
00000000
,
13000000
00000000
00100000
01000000
00000000
00001000
00000000
00000000
00010000
00000000
01000000
00000000
00100000
00000000
00001000
00000000
,
00010000
00000000
00010000
00000000
00001000
00000000
00000000
00000100
00000000
00000001
00000000
00000001
00000020
00000000
00000000
00000000
,
00000130
00000000
00000000
00000000
00000010
00000000
00000001
00000000
00000100
00000000
00000010
00010000
00002000
00000000
00000000
00000000
,
01003000
00000000
00010000
00100000
00000000
00000000
01000000
00000000
10000000
00000000
00100000
00000000
00010000
00000000
00001000
00000000
,
01000000
00000000
00010000
00000000
00100000
00000000
00000000
00001000
00000000
00000010
00000000
00000010
00000200
00000000
00000000
00000000
,
00010300
00000000
00000000
00000000
00001000
00000000
00100000
00000000
01000000
00000000
00010000
00001000
00100000
00000000
00000000
00000000
,
00010000
00000000
00100000
00010000
00000000
01000000
00000000
00000000
00100000
00000000
10000000
00000000
01000000
00000000
00010000
00000000
,
00001000
00000000
00001000
00000000
00010000
00000000
00000000
00100000
00000000
10000000
00000000
10000000
00020000
00000000
00000000
00000000
,
00130000
00000000
00000000
00000000
00001000
00000000
00000010
00000000
00000100
00000000
00001000
00000001
00000100
00000000
00000000
00000000
,
00001000
00000000
00010000
00000010
00000000
00000000
00001000
00000000
00000100
00000000
00000010
00000000
00000001
00000000
00000100
00000000
,
00000010
00000000
00000010
00000000
00010000
00000000
00000000
00001000
00000000
00000100
00000000
00000100
00000002
00000000
00000000
00000000
,
00000013
00000000
00000000
00000000
00001000
00000000
00000000
00000000
00010000
00000000
01000000
10000000
01000000
00000000
00000000
00000000
,
00101000
00000000
00001000
00010000
00000000
01000000
00000000
00100000
00000000
00001000
00000000
00000010
00000000
00000000
00000000
00000001
,
00000100
00000000
00000100
00000000
00000010
00000000
00000000
00010000
00000000
00001000
00000000
00000000
00100000
00000000
00000000
00000000
,
01000000
00000000
00000000
00000000
10000000
00000000
00000000
00000000
00010000
00000000
00100000
01000000
00100000
00000000
00000000
00000000
,
01000000
00000000
10000000
00100000
00000000
00000000
00000000
00000000
00010000
00001000
00010000
00001000
00000000
00000000
00000000
00000000
,
01000000
00000000
00000000
00000000
00001000
00000000
00000000
00000000
00000100
00000000
00000000
00000000
00000001
00000000
00000000
00000001
,
00000010
00000000
00000000
00000000
00001000
00000000
00000000
00010000
00000000
00000000
00000100
00000010
00000100
00000000
00000000
00000000
,
00010000
00000000
01000000
10000000
00000000
01000000
00000000
00000000
00010000
00000000
00001000
00000000
00100000
00000000
00000000
00000000
,
00010000
00000000
00000000
00000000
01000000
00000000
00000000
00000000
00001000
00000000
00000000
00000000
00000100
00000000
00000000
00000100
,
00000001
00000000
00000010
00000000
00000100
00000000
00010000
00001000
,
01000000
00000000
00010000
00100000
00000000
00000000
00000000
00000000
01000000
00000000
10000000
00000000
00100000
00000000
00000000
00000000
,
00010000
00000000
00000000
00000000
00001000
00000000
00010000
00000000
01000000
00000000
00000000
00000000
10000000
00000000
00000000
10000000
,
00200000
00300000
00000000
00000000
;

//---------------dance-double - ----------------
#NOTEDATA:;
#CHARTNAME:;
#CHARTHASH:4069870757;
#STEPSTYPE:dance-double;
#BANNER:;
#DESCRIPTION:;
#CHARTSTYLE:;
#DIFFICULTY:Medium;
#METER:8;
#METERF:8.000000;
#LASTSECONDHINT:124.349846;
#RADARVALUES:0.335112,0.381883,0.047550,0.253598,0.122836,296.000000,290.000000,6.000000,32.000000,0.000000,0.000000,0.000000,0.000000,0.000000,0.335112,0.381883,0.047550,0.253598,0.122836,296.000000,290.000000,6.000000,32.000000,0.000000,0.000000,0.000000,0.000000,0.000000;
#CREDIT:Embrace;
#NOTES:
00000000
00000000
00000000
00000000
,
00000000
00000000
00000000
00000000
,
00000000
00000000
00000000
00000000
,
00000000
00000000
00000000
00000000
,
00000000
20000000
00000000
00000000
,
30000000
00000000
00010000
00000000
00010000
00000000
00100000
00001000
,
00100000
00001000
00020000
00000000
00030010
00000000
00000100
00000001
,
00000100
00000010
00010000
00001000
,
00010000
00000000
00001000
00000000
00100000
00000000
01000000
10000000
,
01000000
00100000
00001000
00010000
,
00001000
00000000
00000000
00100000
00010000
00000000
01000000
00100000
,
01000000
00000000
00000000
00100000
10000000
00000000
00010000
00000000
,
00100000
00000000
01000000
00100000
00001000
00000000
00010000
00000100
,
00020000
00000000
00030000
00000010
00001000
00000000
00000100
00000000
,
00000010
00000000
00000000
00000110
00000000
00000000
00000000
00000000
00000001
00000000
00000000
00000000
00001000
00000000
00000001
00000000
,
00000100
00000000
00000010
00000010
00010000
00000000
00002000
00000000
,
01003000
00010000
00100000
02000000
,
13000000
00200000
10300000
02000000
,
03100000
00000000
00000000
00001000
00000000
00010000
00000000
00000000
00001000
00000000
00000000
00000000
00100000
00000000
01000000
00000000
,
10000000
00000000
00100000
00000000
01000000
00001000
00010000
00000000
,
00001000
00010000
00000100
00000000
00000010
00000000
00000002
00000000
,
00001003
00000000
00000010
00000010
00000100
00000000
00000002
00000000
,
00000000
00000000
00000000
00000013
00000000
00000000
00000000
00000000
00000100
00000000
00000000
00000000
00010000
00000000
00001000
00000000
,
00100000
00000000
00000000
00010000
00000000
10000000
00000000
00000000
00100000
00000000
00000000
00000000
02000000
00000000
00000000
00000000
,
03010000
00100000
01000000
10000000
,
00100000
00000000
01000000
00001000
00010000
00000000
00001000
00010000
,
00000100
00000000
00000000
00001100
00000000
00000000
00000000
00000000
00001000
00000000
00000000
00000000
00000002
00000000
00000000
00000000
,
00000103
00000020
00002030
00003100
,
00000010
00000000
00000000
00000011
00000000
00000000
00000000
00000000
00000001
00000000
00001000
00000000
00000100
00000000
00000000
00010000
,
00000000
00000000
00000000
00000000
00000000
00000000
00011000
00000000
00000000
00000000
00000000
00000000
00000000
00000000
00000000
00000000
00000000
00000000
00000000
00000000
00001000
00000000
00000000
00000000
01000000
00000000
00000000
00000000
00000000
00000000
00000000
00000000
01000000
00000000
00000000
00000000
00010000
00000000
00000000
00000000
00000000
00000000
00000000
00000000
00000000
00100000
00000000
00000000
,
00000000
00000000
00000000
00110000
00000000
00000000
00000000
00000000
00010000
00000000
10000000
00000000
00100000
00000000
00000000
00000000
,
01000000
00000000
00100000
10000000
00010000
00000000
00100000
00001000
,
00010000
00000000
00000100
00001000
00000100
00001000
00000020
00000000
,
00000130
00000000
00000000
00000000
00000002
00000000
00000000
00000000
00000000
00000000
00000000
00000000
00000013
00000100
00000000
00000000
,
00000000
00002000
00000000
00000000
,
00003010
00000000
00010000
00000000
00001000
00100000
00010000
00000000
,
00100000
00000000
01000000
00000000
10000000
00000000
00000000
01000000
00000000
00100000
00000000
00000000
00020000
00000000
00000000
00000000
,
01030000
00200000
00000000
00000000
,
10300000
00000000
00010000
00000000
00100000
00001000
00010000
00000000
,
00000010
00000000
00000100
00000000
00000001
00000000
00000000
00000000
00000001
00000000
00000000
00000000
00000001
00000000
00000000
00001000
,
00000000
00001000
00000000
00000000
00002100
00000000
00000000
00000000
00000100
00000000
00000000
00000000
00000100
00000000
00000000
00000000
,
00003100
00010000
00001000
01000000
00100000
00000000
20000000
00000000
,
31000000
00000000
00100000
00000000
00001000
00000000
00000000
00010000
00000000
00000100
00000000
00000000
00002000
00000000
00000000
00000000
,
00003001
00000200
00000010
00000010
,
00000310
00010000
00001000
00000000
00100000
00010000
10000000
00000000
,
00100000
00000000
01000000
00000000
00001000
00000000
00000000
00010000
00000000
00001000
00000000
00000000
00200000
00000000
00000000
00000000
,
01300000
20000000
00100000
00100000
,
30100000
01000000
00001000
00010000
00000100
00000000
00000010
00000001
,
00001000
00000000
00000000
00000000
00000010
00000000
00000000
00010000
00000000
00001000
00000000
00000000
02000000
00000000
00000000
00000000
,
03100000
20000000
00010000
00010000
,
30010000
00100000
01000000
00000000
00100000
00001000
00010000
00000010
,
00000100
00000000
00000000
00000000
00000001
00000000
00000000
00000010
00000000
00000001
00000000
00000000
00002000
00000000
00000000
00000000
,
00003010
00000200
00000301
00000010
,
00000100
00010000
00001000
01000000
00100000
00000000
10000000
00000000
,
00010000
00000000
00100000
00000000
00001000
00000000
00000000
00010000
00000000
00000100
00000000
00000000
00002000
00000000
00000000
00000000
,
00003001
00000200
00000301
00000010
,
00000100
00010000
00001000
00000000
00100000
00010000
00100000
00000000
,
01000000
00000000
00000000
00000000
20000000
00000000
00000000
00000000
30010000
00000000
00000000
00000000
01000000
00000000
00000000
01000000
,
00000000
00100000
10000000
00010000
,
00100000
00001000
00010000
00000100
00000010
00000000
00000001
00000000
,
00000100
00000000
00000000
00000000
00000010
00000000
00000000
00000000
00010000
00000000
00000000
00000000
00001000
00000000
00000000
00001000
,
00010000
00001000
00100000
01000000
,
10000000
00100000
01000000
00000000
00010000
00000000
00100000
00000000
,
00001000
00000000
00000000
00000000
00010000
00000000
00000000
00000000
00000100
00000000
00000000
00000000
00001000
00000000
00000000
00001000
,
00000002
00000003
00000000
00000000
;

//---------------dance-single - ----------------
#NOTEDATA:;
#CHARTNAME:;
#CHARTHASH:59641264;
#STEPSTYPE:dance-single;
#BANNER:;
#DESCRIPTION:;
#CHARTSTYLE:;
#DIFFICULTY:Beginner;
#METER:3;
#METERF:3.000000;
#LASTSECONDHINT:124.349846;
#RADARVALUES:0.105288,0.178212,0.015850,0.087174,0.000000,93.000000,91.000000,2.000000,11.000000,0.000000,0.000000,0.000000,0.000000,0.000000,0.105288,0.178212,0.015850,0.087174,0.000000,93.000000,91.000000,2.000000,11.000000,0.000000,0.000000,0.000000,0.000000,0.000000;
#CREDIT:Embrace;
#NOTES:
0000
0000
0000
0000
,
0000
0000
0000
0000
,
0000
0000
0000
0000
,
0000
0000
0000
0000
,
0000
0000
0000
0000
,
0000
0000
0000
0001
,
0000
0001
0000
0000
,
0000
1000
0000
0100
,
0000
1000
0000
0000
,
0000
0010
0000
0100
,
0000
0010
0000
0000
,
0000
1000
0000
0000
,
0000
0001
0000
0000
,
0000
0100
0000
0000
,
0000
0010
0000
1000
,
0000
0001
0000
0010
,
0000
0100
0000
1000
,
0000
0001
0000
0100
,
0000
0010
0000
0000
,
0000
0000
1000
0000
,
1000
0000
0000
0001
,
0000
0010
0000
0020
,
0000
0030
0000
0100
,
0000
1000
0000
0000
,
0000
0001
0000
0100
,
0000
0001
0001
0001
,
0000
1001
0000
1000
,
0000
0100
0000
0010
,
0000
0100
0000
1000
,
0000
0010
0000
0001
,
0000
0100
0000
1000
,
0000
0001
0000
1000
,
0000
0010
0010
0010
,
0000
2000
0000
3000
,
0000
0002
0000
0000
,
0000
0003
0000
0001
,
0000
0010
0000
0100
,
0000
2000
0000
0000
,
0000
3000
0000
1000
,
0000
0010
0000
0010
,
0000
2001
0000
0000
,
0000
3000
0000
1000
,
0000
0100
0000
0010
,
0000
0002
0000
0000
,
0000
0003
0000
0001
,
0000
1000
0000
0010
,
0000
0200
0000
0000
,
0000
0300
0000
0010
,
0000
1000
0000
0100
,
0000
0020
0000
0000
,
0000
0030
0000
0001
,
0000
1000
0000
0100
,
0000
0200
0000
0000
,
0000
0300
0000
1000
,
0000
0001
0000
0100
,
0000
0002
0000
0000
,
0000
0003
0000
1000
,
0000
1000
0000
0001
,
0000
0010
0000
0010
,
0000
0100
0000
1000
,
0000
0001
0000
0001
,
0000
0100
0000
0000
,
0000
0010
0000
0000
,
0000
1000
0000
0001
,
0002
0003
0000
0000
;

//---------------dance-single - ----------------
#NOTEDATA:;
#CHARTNAME:;
#CHARTHASH:2286041511;
#STEPSTYPE:dance-single;
#BANNER:;
#DESCRIPTION:;
#CHARTSTYLE:;
#DIFFICULTY:Easy;
#METER:5;
#METERF:5.000000;
#LASTSECONDHINT:124.349846;
#RADARVALUES:0.184538,0.229130,0.063399,0.174349,0.000000,163.000000,155.000000,8.000000,22.000000,0.000000,0.000000,0.000000,0.000000,0.000000,0.184538,0.229130,0.063399,0.174349,0.000000,163.000000,155.000000,8.000000,22.000000,0.000000,0.000000,0.000000,0.000000,0.000000;
#CREDIT:Embrace;
#NOTES:
0000
0000
0000
0000
,
0000
0000
0000
0000
,
0000
0000
0000
0000
,
0000
0000
0000
0000
,
0000
0002
0000
0000
,
0000
0000
0000
1003
,
0000
1001
0000
1000
,
0100
0010
0000
0010
,
0000
0001
0000
1000
,
0010
0100
0000
0100
,
0000
0001
0000
1000
,
0001
0010
0000
0001
,
0100
0010
0000
1000
,
0100
0010
0000
0001
,
0100
0110
0000
0001
,
1000
0100
1000
0010
,
0000
0100
0001
1000
,
0100
0010
0000
0001
,
0000
1000
0001
0001
,
1000
0000
0110
0000
,
1001
0000
0001
1000
,
0001
0010
0100
2000
,
0000
3000
0000
0010
,
0100
0010
0000
1000
,
0000
0001
0010
0100
,
0000
0010
0001
1000
,
0010
0100
0000
0001
,
0000
1000
0100
1000
,
0000
0002
0003
1000
,
0000
1001
0000
0000
0001
0000
1000
0000
,
0000
0100
0010
0001
,
1000
0100
1000
0010
,
0000
0200
0300
0002
,
0003
2000
0000
3001
,
0000
2000
0000
0000
,
3000
0001
0010
0001
,
0000
0200
0300
0020
,
0030
2000
0000
0000
,
3000
0010
0100
0001
,
0000
1000
1000
1000
,
0000
1001
0001
0010
,
0000
0100
1000
0010
,
0000
0200
0300
0002
,
0003
1000
0010
0100
,
0000
0010
1000
0100
,
0000
0020
0030
0002
,
0003
1001
1000
0010
,
0000
0100
0001
0010
,
0000
0200
0300
2000
,
3000
0001
0010
0001
,
0000
0100
0010
0100
,
0000
0002
0003
0020
,
0030
0100
0000
1000
,
0001
0100
0000
0010
,
0000
0100
0001
0010
,
0000
0100
0000
1000
,
0010
1000
0000
0001
,
0000
0020
0030
0200
,
0300
1000
0000
0001
,
0010
0100
0000
1000
,
0000
0010
0000
0100
,
0000
0001
0000
0010
,
0100
0010
0000
0001
,
0000
1000
0000
0001
,
2002
3003
0000
0000
;

//---------------dance-single - ----------------
#NOTEDATA:;
#CHARTNAME:;
#CHARTHASH:2371943276;
#STEPSTYPE:dance-single;
#BANNER:;
#DESCRIPTION:;
#CHARTSTYLE:;
#DIFFICULTY:Medium;
#METER:8;
#METERF:8.000000;
#LASTSECONDHINT:124.349846;
#RADARVALUES:0.335112,0.381883,0.047550,0.253598,0.130761,296.000000,290.000000,6.000000,32.000000,0.000000,0.000000,0.000000,0.000000,0.000000,0.335112,0.381883,0.047550,0.253598,0.130761,296.000000,290.000000,6.000000,32.000000,0.000000,0.000000,0.000000,0.000000,0.000000;
#CREDIT:Embrace;
#NOTES:
0000
0000
0000
0000
,
0000
0000
0000
0000
,
0000
0000
0000
0000
,
0000
0000
0000
0000
,
0000
0002
0000
0000
,
0003
0000
1000
0000
1000
0000
0010
0100
,
0010
0100
0002
0000
1003
0000
0100
0010
,
0100
1000
0001
1000
,
0001
0000
0100
0000
0010
0000
1000
0100
,
1000
0010
0100
0010
,
0100
0000
0000
0001
1000
0000
0100
1000
,
0100
0000
0000
0010
0001
0000
1000
0000
,
0010
0000
1000
0001
0010
0000
0100
0010
,
0200
0000
0300
1000
0001
0000
0100
0000
,
0010
0000
0000
0110
0000
0000
0000
0000
0100
0000
0000
0000
0001
0000
1000
0000
,
0100
0000
0010
0010
0001
0000
2000
0000
,
3010
0000
0000
0000
0000
1000
0000
0000
0000
0001
0000
0000
2000
0000
0000
0000
,
3100
0020
0031
0200
,
0310
0000
0000
1000
0000
0001
0000
0000
0010
0000
0000
0000
0001
0000
1000
0000
,
0100
0000
0010
0000
0001
1000
0001
0000
,
0100
0010
1000
0000
0001
0000
2000
0000
,
3100
0000
1000
1000
0001
0000
0200
0000
,
0000
0000
0000
0310
0000
0000
0000
0000
1000
0000
0000
0000
0100
0000
0010
0000
,
0001
0000
0000
1000
0000
0001
0000
0000
0100
0000
0000
0000
0002
0000
0000
0000
,
1003
0010
0100
0001
,
0010
0000
0001
1000
0001
0000
0100
0010
,
0100
0000
0000
0110
0000
0000
0000
0000
0001
0000
0000
0000
0020
0000
0000
0000
,
0130
0020
0032
0103
,
0010
0000
0000
1010
0000
0000
0000
0000
1000
0000
0001
0000
0010
0000
0000
0100
,
0000
0000
0000
0000
0000
0000
1001
0000
0000
0000
0000
0000
0000
0000
0000
0000
0000
0000
0000
0000
1000
0000
0000
0000
0001
0000
0000
0000
0000
0000
0000
0000
0001
0000
0000
0000
1000
0000
0000
0000
0000
0000
0000
0000
0000
0100
0000
0000
,
0000
0000
0000
1100
0000
0000
0000
0000
1000
0000
0001
0000
0010
0000
0000
0000
,
0100
0000
0010
0001
1000
0000
0010
0100
,
0001
0000
1000
0001
1000
0001
0020
0000
,
0130
0000
0000
0000
2000
0000
0000
0000
0000
0000
0000
0000
3001
0100
0000
0000
,
0000
0002
0000
0000
,
1003
0000
0100
0000
0010
0001
1000
0000
,
0010
0000
1000
0000
0010
0000
0000
0100
0000
0001
0000
0000
0200
0000
0000
0000
,
0310
2000
0000
0000
,
3001
0000
0010
0000
0100
0010
0001
0000
,
1000
0000
0010
0000
0100
0000
0000
0000
0100
0000
0000
0000
0100
0000
0000
0001
,
0000
0001
0000
0000
1002
0000
0000
0000
1000
0000
0000
0000
1000
0000
0000
0000
,
1003
0100
0010
0001
1000
0000
0020
0000
,
0130
0000
0001
0000
1000
0000
0000
0010
0000
1000
0000
0000
0002
0000
0000
0000
,
0103
0200
0010
0010
,
0310
1000
0001
0000
0010
0100
1000
0000
,
0001
0000
1000
0000
0001
0000
0000
0010
0000
0001
0000
0000
2000
0000
0000
0000
,
3100
0020
0001
0001
,
0031
1000
0010
0100
0001
0000
0010
0001
,
1000
0000
0000
0000
0100
0000
0000
1000
0000
0100
0000
0000
0020
0000
0000
0000
,
0031
0002
1000
1000
,
1003
0010
0100
0000
0010
1000
0100
0010
,
0001
0000
0000
0000
1000
0000
0000
0010
0000
1000
0000
0000
0020
0000
0000
0000
,
0130
0002
0013
0100
,
1000
0001
1000
0010
0100
0000
0001
0000
,
0010
0000
0001
0000
0010
0000
0000
0100
0000
1000
0000
0000
0002
0000
0000
0000
,
0103
0020
1030
0001
,
0010
0001
1000
0000
0010
0100
0010
0000
,
1000
0000
0000
0000
0002
0000
0000
0000
1003
0000
0000
0000
0100
0000
0000
0100
,
0000
1000
0010
1000
,
0001
0010
0100
1000
0001
0000
1000
0000
,
0010
0000
0000
0000
0100
0000
0000
0000
0001
0000
0000
0000
1000
0000
0000
1000
,
0001
0010
0001
0010
,
0100
1000
0001
0000
0100
0000
0010
0000
,
1000
0000
0000
0000
0001
0000
0000
0000
0010
0000
0000
0000
0001
0000
0000
0001
,
2000
3000
0000
0000
;

//---------------dance-single - ----------------
#NOTEDATA:;
#CHARTNAME:;
#CHARTHASH:2699649638;
#STEPSTYPE:dance-single;
#BANNER:;
#DESCRIPTION:;
#CHARTSTYLE:;
#DIFFICULTY:Hard;
#METER:12;
#METERF:12.000000;
#LASTSECONDHINT:124.349846;
#RADARVALUES:0.453986,0.509177,0.103024,0.221898,0.491346,401.000000,388.000000,13.000000,28.000000,0.000000,0.000000,0.000000,0.000000,0.000000,0.453986,0.509177,0.103024,0.221898,0.491346,401.000000,388.000000,13.000000,28.000000,0.000000,0.000000,0.000000,0.000000,0.000000;
#CREDIT:Embrace;
#NOTES:
0000
0000
0000
0000
,
0000
0000
0000
0000
,
0000
0000
0000
0000
,
0000
0000
0000
0000
,
0000
2000
0000
0000
,
0000
0000
0000
0000
0000
0000
3001
0010
,
0100
0000
1000
0001
1000
0000
0000
0100
0000
0100
1000
0000
0001
0000
0100
0000
,
0001
0000
0010
0000
0100
0000
0000
1000
0000
1000
0000
0000
0001
0000
0000
0100
,
0000
0100
0000
0000
0010
0000
0000
1000
0000
1000
0001
0000
1000
0000
0100
0000
,
1000
0000
0010
0000
0100
0000
0000
0001
0000
0001
0000
0000
0010
0000
0000
0001
,
0000
0001
0000
0011
0000
0010
0001
0010
0000
0000
0100
0000
1000
0000
0001
0000
,
0010
0000
0001
0000
0000
0100
0001
0100
0000
0000
0000
0010
0000
1000
0001
0000
,
0020
0000
0000
0130
0000
0010
0001
0010
0000
0000
0100
0000
1000
0000
0001
0000
,
1000
0000
0010
0000
0000
1000
0001
1000
0000
0000
0000
0000
0100
0000
0000
0000
,
0010
0001
0000
0101
0000
0000
0000
0000
0001
0000
1000
0000
0100
0000
1000
0001
,
0000
0000
0000
0010
0000
0020
0000
0000
0230
0000
1000
0000
2300
0000
0000
0000
,
3001
0000
0000
0000
1000
0010
0000
0000
0010
0100
0000
0000
0001
0000
0100
0000
,
0010
0000
1000
0100
2000
0000
0000
0000
3100
0000
0000
0000
0010
0000
0000
0010
,
0000
0000
0000
0110
0000
1001
0000
0000
1000
0010
0000
0100
0000
0000
0010
1000
,
0001
0000
0000
0000
1000
0000
0000
0001
0100
0000
0001
0010
0000
0000
0000
0100
,
1000
0000
0010
1000
0000
0000
0000
0000
0001
0000
0000
0000
0010
0000
0000
0000
,
0100
0000
0000
0000
1000
0001
1000
0001
0100
0000
0000
0000
2020
0000
0000
0000
,
0030
0000
0000
3001
0000
0000
0000
0000
1000
0000
0000
0100
1000
0000
0100
0010
,
0000
0001
0010
0001
0000
1001
0000
0000
0000
0000
0000
0000
0002
0000
0000
0000
,
0103
0000
0000
0001
0010
0000
0100
0000
1000
0000
0001
0000
0100
0000
0020
0000
,
0000
0030
1000
1000
0001
0001
0010
0010
,
0100
0010
0000
1001
0000
0000
0000
0000
0001
1000
0000
2100
0000
0000
0000
0000
,
3001
0000
0100
0000
0001
0000
1000
0100
0000
1000
0000
0001
0000
0010
0000
0000
,
0001
0100
0000
0101
0000
0000
0001
0000
0100
0000
0010
1000
0020
0000
0000
0130
,
0000
0000
0000
0000
0000
0000
1001
0000
0000
0000
0000
0000
0000
0000
0000
0000
0001
0000
0000
0000
0010
0000
0000
0000
0100
0000
0000
0000
1000
0000
0000
0000
0001
0000
0000
0000
0010
0000
0000
0000
0000
0000
0000
0000
0000
0011
0000
0000
,
0000
0000
0000
2001
0000
0000
0000
0000
3010
0000
1000
0000
0200
0000
0000
0000
,
0320
0000
0000
0000
0031
0000
1000
0000
0001
0000
0100
0000
0010
0100
0010
0000
,
1000
0000
0000
0000
0100
0000
1000
0000
0001
0000
0100
0000
0010
0000
0000
1000
,
0100
0000
0000
0000
0020
0000
0000
0000
0000
0000
0000
0000
0031
0200
0000
0000
,
0300
0002
0000
1003
,
0010
0000
1000
0100
0000
0010
0000
0000
0001
0000
0000
0000
1000
0000
0010
0000
,
0100
0000
0001
0000
2000
0000
0000
3100
0000
0010
0000
0000
0002
0000
0000
0000
,
1003
0002
0000
0103
,
0001
0000
0010
0100
0000
0000
0000
0000
1000
0000
0000
0000
0001
0000
1000
0000
,
0100
0000
0010
0000
0001
0000
0000
0000
0001
0000
0000
0000
1000
0001
1000
0010
,
0000
0010
0000
0000
0101
0000
0001
0000
1000
0000
0100
0010
0200
0000
0000
0000
,
1300
0000
0010
1000
0000
0100
0000
0000
0010
0000
0001
0000
0100
0000
0001
0000
,
1000
0000
1000
0000
0010
0000
0000
0100
0000
0001
0000
0001
2000
0000
0000
0000
,
3100
0000
0000
0000
0010
0000
0001
0000
1000
0000
0010
0100
0020
0000
0000
0000
,
0130
0000
0001
0010
0000
0000
0100
0000
1000
0000
0010
0000
0100
0000
0010
0000
,
1000
0000
1000
0000
0001
0000
0000
0100
0000
0010
0000
0010
2000
0000
0000
0000
,
3001
0000
0000
0000
0010
0000
0100
0000
1000
0000
0001
0100
0010
0000
0000
0000
,
1000
0000
0100
1000
0000
0010
0000
0000
0100
0000
0001
0000
0010
0000
0001
0000
,
1000
0000
1000
0000
0100
0000
0000
0010
0000
0001
0000
0001
2000
0000
0000
0000
,
3010
0000
0000
0000
0100
0000
0001
0000
1000
0000
0010
0100
0001
0000
0000
0000
,
0010
0000
0001
0100
0000
0000
0010
0000
1000
0000
0100
0000
0010
0000
0100
0000
,
1000
0000
1000
0000
0001
0000
0000
0100
0000
0001
0000
0001
0020
0000
0000
0000
,
0130
0000
0000
0000
1000
0000
0000
0000
0001
0000
0100
0001
0100
0000
0000
0000
,
0001
0000
0010
0001
0000
0100
0000
0010
0000
1000
0000
0100
0000
0000
0000
0010
,
0001
0000
0000
0000
1000
0000
0000
0010
0000
0100
0000
0000
0001
0000
0000
0000
,
1000
0000
0000
0000
0100
0000
0000
0000
0010
0000
0001
0100
0001
0000
0000
0000
,
1000
0000
0100
0010
0000
0000
0000
0000
0001
1000
0001
1000
0000
0000
0000
0000
,
0010
0000
0000
0000
0100
0000
0000
0000
0001
0000
0000
0000
1000
0000
0000
1000
,
0100
0000
0000
0000
0010
0000
0000
0001
0000
0000
0100
0010
0100
0000
0000
0000
,
0010
0000
1000
0100
0000
1000
0000
0000
0001
0000
0100
0000
0010
0000
0000
0000
,
1000
0000
0000
0000
0001
0000
0000
0000
0010
0000
0000
0000
0100
0000
0000
0100
,
1000
0000
0001
0000
0100
0000
0001
0010
,
0100
0000
0010
0001
0000
0000
0000
0000
1000
0000
0010
0000
1000
0000
0000
0000
,
0001
0000
0000
0000
0010
0000
0100
0000
0010
0000
0000
0000
0001
0000
0000
0001
,
0200
0300
0000
0000
;

//---------------dance-single - FS XO DS- RH- SJ-----------------
#NOTEDATA:;
#CHARTNAME:;
#CHARTHASH:4228732007;
#STEPSTYPE:dance-single;
#BANNER:;
#DESCRIPTION:FS XO DS- RH- SJ-;
#CHARTSTYLE:;
#DIFFICULTY:Challenge;
#METER:15;
#METERF:15.000000;
#LASTSECONDHINT:124.349846;
#RADARVALUES:0.623806,0.712848,0.079249,0.578520,1.018354,551.000000,541.000000,10.000000,73.000000,16.000000,0.000000,2.000000,0.000000,0.000000,0.623806,0.712848,0.079249,0.578520,1.018354,551.000000,541.000000,10.000000,73.000000,16.000000,0.000000,2.000000,0.000000,0.000000;
#CREDIT:Embrace;
#NOTES:
0000
0000
0000
0000
,
0000
0000
0000
0000
,
0000
0000
0000
0000
,
0000
0000
0000
0000
,
0000
0002
0000
0000
,
0000
0000
0000
0000
1000
0000
1000
0000
1000
0000
1003
0000
0001
0010
0100
1000
,
0001
1000
0010
0100
0002
0000
0000
0010
0003
0010
0001
0010
0100
0000
0001
0000
,
0100
0000
2000
0000
3010
0000
0000
0100
0001
1000
0000
0000
0010
0000
0000
1000
,
0001
0010
0000
0000
0001
0000
0000
1000
0000
1000
0001
1000
0010
0000
0001
0000
,
0010
0000
2000
0000
3100
0000
0000
1000
0001
0010
0000
0000
0100
0000
0000
0010
,
0001
1000
0000
2000
3010
0100
0001
0010
0000
0100
0010
0100
1000
0001
1000
0000
,
0010
0000
1000
0000
0001
0100
0001
0010
0000
0000
0000
0100
0000
0010
0100
0010
,
0001
1000
0000
0010
0000
0010
1000
0100
0000
0010
0100
0010
0001
1000
0001
0000
,
0100
0000
0002
0000
1003
0010
0100
0010
0000
1000
0000
0000
0001
0000
0000
0100
,
0001
0010
0000
0220
0330
0000
0000
0000
0001
0000
1000
0001
0010
0000
0100
1000
,
0000
0000
0000
0001
0000
0002
0000
0000
0103
0010
1000
0000
0200
0000
0000
0000
,
1000
0000
0000
0000
0310
1000
0000
0000
0010
0001
0000
0000
0100
0001
1000
0100
,
0010
0001
1000
0001
0200
0000
0000
0000
1300
0200
0010
0000
0301
0000
1000
0200
,
0000
0300
0000
1001
0000
0101
0000
0000
0100
0010
0001
0020
0000
0000
0130
0001
,
0010
0000
0002
0000
1003
0000
0000
0010
1000
1000
0001
0100
0010
0000
0000
1000
,
0001
0001
0010
0100
1000
0000
0000
0001
0000
0001
1000
0100
0010
0000
1000
0000
,
0010
0000
0000
0000
0000
0000
0200
0000
0000
0000
0000
0000
1300
0000
0000
0001
0000
0000
0100
0000
0000
0001
0000
0000
1000
0000
0000
0000
0000
0000
0000
0000
0000
0000
0000
0000
0004
0000
0040
0000
0000
0000
0000
0000
0000
0000
0000
0000
,
0000
0000
0003
0230
0300
0000
0000
1000
0000
1000
0000
0001
0010
0000
0010
0100
,
0000
0100
1000
0010
0000
1001
0000
0000
0000
0001
0010
0001
2000
0000
0000
0000
,
3020
0000
0000
0130
1000
0100
0010
1000
0001
0010
0100
1000
0100
0010
0002
0000
,
0000
0000
0000
0000
1003
1000
0100
1000
0001
0001
0100
0001
0010
0010
0100
1000
,
0001
0020
0030
0110
0000
0100
1000
0001
0100
0001
0000
2010
0000
0000
0000
0000
,
3001
0000
0200
0300
0010
0100
0001
1000
0000
1000
0000
0100
0000
0011
0000
0000
,
0001
0000
0000
1000
0000
0000
0000
0000
0000
0020
0000
0000
0000
0000
0000
0000
0000
0000
1030
0000
0001
0000
1000
0000
0100
0000
0000
0010
0000
0000
0001
0000
0000
1000
0000
0000
0200
0000
0000
0000
0000
0000
0000
0000
0000
0301
0000
0000
,
0000
0000
0000
0000
0000
0000
0000
0000
0000
0000
0000
0000
0000
0000
0000
0000
0000
0000
0000
0000
0000
0000
0000
0000
0120
0000
0000
0000
0000
0000
0000
0000
0000
0000
0000
0000
0000
0000
0000
0000
0000
0000
0000
0000
0000
0000
0000
0000
0000
0000
0000
0000
0000
0000
0000
0000
0000
0000
0000
0000
0031
0000
0000
0000
0000
0000
0000
0000
0000
0000
0000
0000
0000
0000
0000
0000
0000
0000
0100
0000
0000
0000
0000
0000
0000
0000
0000
0000
0000
0000
0000
0000
0000
0000
0000
0000
1000
0000
0000
0000
0000
0000
0000
0000
0000
0000
0000
0000
0000
0000
0000
0000
0001
0000
0000
0000
0000
0000
0000
0000
0000
0000
0000
0000
0000
0000
0000
0000
0010
0000
0000
0000
0000
0000
0000
0000
0000
0000
0000
0000
0000
0000
0000
0000
1000
0000
0000
0000
0000
0000
0000
0000
0000
0000
0000
0000
0000
0000
0000
0000
0000
0000
0000
0000
0000
0000
0000
0000
0001
0000
0000
0000
0000
0000
0000
0000
0000
0000
0000
0000
1000
0000
0000
0000
0000
0000
0000
0000
0000
0000
0000
0000
,
0001
0100
0001
0020
0000
0000
0000
0000
0031
0000
1000
0000
0200
0000
0000
0000
,
0320
0000
0000
0000
0031
1000
0100
1000
0010
1000
0001
0100
0010
1000
0200
0000
,
0010
0000
0000
0000
0000
0000
0000
0000
0000
0000
0000
0000
1300
0000
0000
0100
0000
0000
1000
0000
0000
0001
0000
0000
0100
0000
0000
0010
0000
0000
0001
0000
0000
0010
0000
0000
2000
0000
0000
0000
0000
0000
0000
0000
3001
0000
0010
0000
,
0200
0000
0020
0030
2300
0000
0000
0000
0000
0000
0000
0000
3010
1002
0000
0000
,
0000
0003
0000
0000
2000
0100
0000
0001
0000
3001
0100
0001
0020
0000
0000
0000
,
0130
0000
1000
0010
0M00
0010
0001
0100
0000
0001
1000
0100
0020
0000
0031
0000
,
1000
0000
0010
0000
0100
0010
0100
0001
0000
0100
00M0
0100
2000
0000
0000
0000
,
3001
0000
0000
0000
2000
0010
0000
0001
3000
0001
0010
0100
2000
0000
0000
0000
,
3010
0M00
0010
0001
0100
0000
0010
1000
0000
1000
0001
0010
0200
0000
1300
0000
,
0001
0000
0100
0000
0010
0000
1000
0000
0010
0000
1000
1000
0010
0100
0001
0020
,
0030
0220
0330
0000
0002
1000
0000
0100
0003
0100
0010
1000
0200
0000
0000
0000
,
0310
0000
0001
0100
00M0
0100
1000
0001
1000
0010
0100
0001
2000
0000
3010
0000
,
0100
0000
1000
0000
0100
0010
1000
0001
0000
0010
0M00
0010
0200
0000
0000
0000
,
0301
0000
0000
0000
0020
0100
0000
0001
0000
0031
1000
0010
0200
0000
0000
0000
,
0310
0000
1000
0100
00M0
0100
0010
1000
0001
1000
0100
0010
0002
0000
1003
0000
,
0100
0000
0001
0000
0100
1000
0001
0100
0000
0010
000M
0010
0200
0000
0000
0000
,
1300
0000
0000
0000
1000
0001
0000
0001
0000
1000
0100
1000
0010
0000
0000
0000
,
0100
0000
0001
0010
0M00
0010
1000
0001
0000
0010
0001
0100
0020
0000
1030
0000
,
0010
0000
0001
0000
0010
0100
0001
1000
0000
0100
00M0
0100
0002
0000
0000
0000
,
1003
0000
0000
0000
0010
1000
0000
1000
0000
0001
1000
0100
0010
0000
0000
0000
,
0100
0000
1000
0010
0M00
0010
0001
0100
0000
0001
1000
0100
0020
0000
0031
0000
,
0010
0000
1000
0000
0010
0100
1000
0001
0000
0010
0M00
0010
0200
0000
0000
0000
,
0301
0000
0000
0000
2000
0000
0000
3010
0000
0100
0001
0100
0001
0000
0000
1000
,
0100
0000
1000
0010
0M00
0010
0001
0100
00M0
0100
0010
0002
0000
0000
0000
0013
,
1000
0000
0010
0000
0001
0000
0100
0001
0000
0001
0000
0100
2000
0000
0000
0000
,
3200
0000
0300
0000
0002
0000
0000
0013
0000
0100
1000
0001
0010
0000
0000
0001
,
0100
00M0
0100
1000
0010
0000
0000
0100
00M0
0100
1000
0001
0000
0000
0000
0000
,
0020
0000
0030
0000
0200
0000
0000
0000
2300
0000
0000
0000
3001
0000
0000
0001
,
0200
0000
0300
0000
0010
0000
0000
1000
0000
0001
0010
0001
0010
0000
0000
0100
,
2000
0000
3010
0100
M000
0100
0000
1000
0000
0001
0100
0010
0000
0000
0000
0000
,
0200
0000
0300
0000
0002
0000
0000
0000
0010
0000
0000
0000
1003
0000
0000
1000
,
0200
0000
0300
0000
1000
0000
0000
0010
0000
0100
0000
0000
0001
1000
0001
1000
,
0020
0000
0130
0001
0010
0000
0000
0100
0000
1000
0100
1000
0000
0000
0000
0000
,
0002
0000
0003
0000
0100
0001
1000
0001
0100
0000
0000
0000
0001
0000
0000
0001
,
0020
0030
0000
0000
;

//---------------dance-double - FS XO DS- SJ- RH- ST- MV-----------------
#NOTEDATA:;
#CHARTNAME:;
#CHARTHASH:413489131;
#STEPSTYPE:dance-double;
#BANNER:;
#DESCRIPTION:FS XO DS- SJ- RH- ST- MV-;
#CHARTSTYLE:;
#DIFFICULTY:Challenge;
#METER:15;
#METERF:15.000000;
#LASTSECONDHINT:124.349846;
#RADARVALUES:0.623806,0.712848,0.079249,0.570595,1.022317,551.000000,541.000000,10.000000,72.000000,17.000000,0.000000,2.000000,0.000000,0.000000,0.623806,0.712848,0.079249,0.570595,1.022317,551.000000,541.000000,10.000000,72.000000,17.000000,0.000000,2.000000,0.000000,0.000000;
#CREDIT:Embrace;
#NOTES:
// measure 0
00000000
00000000
00000000
00000000
,  // measure 1
00000000
00000000
00000000
00000000
,  // measure 2
00000000
00000000
00000000
00000000
,  // measure 3
00000000
00000000
00000000
00000000
,  // measure 4
00000000
00002000
00000000
00000000
,  // measure 5
00000000
00000000
00000000
00000000
00010000
00000000
00010000
00000000
00010000
00000000
00013000
00000000
00000100
00001000
00000001
00000010
,  // measure 6
00000100
00010000
00001000
00100000
02000000
00000000
00000000
10000000
03000000
10000000
00010000
01000000
00100000
00000000
00010000
00000000
,  // measure 7
00001000
00000000
00020000
00000000
01030000
00000000
00000000
10000000
00010000
10000000
00000000
00000000
00001000
00000000
00000000
10000000
,  // measure 8
00010000
10000000
00000000
00000000
00100000
00000000
00000000
10000000
00000000
10000000
00010000
00100000
01000000
00000000
00010000
00000000
,  // measure 9
00001000
00000000
00020000
00000000
00130000
00000000
00000000
10000000
00010000
10000000
00000000
00000000
00001000
00000000
00000000
10000000
,  // measure 10
00010000
10000000
00000000
20000000
30100000
01000000
00001000
00010000
00000000
00000100
00001000
00000100
00000010
00000001
00001000
00000000
,  // measure 11
00000010
00000000
00000100
00000000
00001000
00010000
00000010
00001000
00000000
00000000
00000000
00000100
00000000
00010000
00001000
00010000
,  // measure 12
00000100
00001000
00000000
00000010
00000000
00000010
00010000
00001000
00000000
01000000
00010000
01000000
00100000
10000000
00010000
00000000
,  // measure 13
00100000
00000000
02000000
00000000
03010000
00001000
00100000
00010000
00000000
10000000
00000000
00000000
00100000
00000000
00000000
00010000
,  // measure 14
00001000
01000000
00000000
00020020
00030030
00000000
00000000
00000000
00000010
00000000
00001000
00000100
00000010
00000000
00000001
00000100
,  // measure 15
00000000
00000000
00000000
00000001
00000000
00000002
00000000
00000000
00000013
00000100
00010000
00000000
00002000
00000000
00000000
00000000
,  // measure 16
00100000
00000000
00000000
00000000
01003000
00100000
00000000
00000000
10000000
01000000
00000000
00000000
10000000
00010000
00100000
00010000
,  // measure 17
10000000
00010000
01000000
00001000
00020000
00000000
00000000
00000000
00130000
00020000
00001000
00000000
00030010
00000000
00000100
00000002
,  // measure 18
00000000
00000003
00000000
00001001
00000000
00010100
00000000
00000000
00010000
00001000
00000010
00000002
00000000
00000000
00000103
00000010
,  // measure 19
00001000
00000000
00000200
00000000
00001300
00000000
00000000
00000100
00010000
00010000
00001000
00100000
00001000
00000000
00000000
01000000
,  // measure 20
00001000
00001000
00010000
00000010
00000100
00000000
00000000
00000001
00000000
00000001
00000010
00000100
00010000
00000000
00001000
00000000
,  // measure 21
00010000
00000000
00000000
00000000
00000000
00000000
02000000
00000000
00000000
00000000
00000000
00000000
13000000
00000000
00000000
00010000
00000000
00000000
00100000
00000000
00000000
00010000
00000000
00000000
01000000
00000000
00000000
00000000
00000000
00000000
00000000
00000000
00000000
00000000
00000000
00000000
00004000
00000000
00040000
00000000
00000000
00000000
00000000
00000000
00000000
00000000
00000000
00000000
,  // measure 22
00000000
00000000
00003000
00030020
00000030
00000000
00000000
00001000
00000000
00001000
00000000
00000001
00000010
00000000
00000010
00000100
,  // measure 23
00000000
00000100
00010000
00001000
00000000
00010010
00000000
00000000
00000000
00010000
00001000
01000000
00020000
00000000
00000000
00000000
,  // measure 24
00230000
00000000
00000000
01300000
10000000
00010000
01000000
00100000
10000000
00010000
01000000
00001000
00010000
00001000
00200000
00000000
,  // measure 25
00000000
00000000
00000000
00000000
00310000
00010000
10000000
01000000
00100000
00100000
00001000
00010000
00000100
00000100
00001000
00000001
,  // measure 26
00000100
00000020
00000030
00001010
00000000
00001000
00000001
00000010
00000100
00000010
00000000
00021000
00000000
00000000
00000000
00000000
,  // measure 27
00130000
00000000
20000000
30000000
00010000
10000000
01000000
00010000
00000000
00001000
00000000
00100000
00000000
00110000
00000000
00000000
,  // measure 28
00001000
00000000
00000000
00010000
00000000
00000000
00000000
00000000
00000000
00000020
00000000
00000000
00000000
00000000
00000000
00000000
00000000
00000000
00000130
00000000
00000001
00000000
00000100
00000000
00000001
00000000
00000000
00001000
00000000
00000000
00000100
00000000
00000000
00010000
00000000
00000000
00002000
00000000
00000000
00000000
00000000
00000000
00000000
00000000
00000000
00003010
00000000
00000000
,  // measure 29
00000000
00000000
00000000
00000000
00000000
00000000
00000000
00000000
00000000
00000000
00000000
00000000
00000000
00000000
00000000
00000000
00000000
00000000
00000000
00000000
00000000
00000000
00000000
00000000
00000021
00000000
00000000
00000000
00000000
00000000
00000000
00000000
00000000
00000000
00000000
00000000
00000000
00000000
00000000
00000000
00000000
00000000
00000000
00000000
00000000
00000000
00000000
00000000
00000000
00000000
00000000
00000000
00000000
00000000
00000000
00000000
00000000
00000000
00000000
00000000
00000130
00000000
00000000
00000000
00000000
00000000
00000000
00000000
00000000
00000000
00000000
00000000
00000000
00000000
00000000
00000000
00000000
00000000
00001000
00000000
00000000
00000000
00000000
00000000
00000000
00000000
00000000
00000000
00000000
00000000
00000000
00000000
00000000
00000000
00000000
00000000
00000010
00000000
00000000
00000000
00000000
00000000
00000000
00000000
00000000
00000000
00000000
00000000
00000000
00000000
00000000
00000000
00000100
00000000
00000000
00000000
00000000
00000000
00000000
00000000
00000000
00000000
00000000
00000000
00000000
00000000
00000000
00000000
00001000
00000000
00000000
00000000
00000000
00000000
00000000
00000000
00000000
00000000
00000000
00000000
00000000
00000000
00000000
00000000
00010000
00000000
00000000
00000000
00000000
00000000
00000000
00000000
00000000
00000000
00000000
00000000
00000000
00000000
00000000
00000000
00000000
00000000
00000000
00000000
00000000
00000000
00000000
00000000
00001000
00000000
00000000
00000000
00000000
00000000
00000000
00000000
00000000
00000000
00000000
00000000
00100000
00000000
00000000
00000000
00000000
00000000
00000000
00000000
00000000
00000000
00000000
00000000
,  // measure 30
00001000
00010000
00001000
02000000
00000000
00000000
00000000
00000000
03100000
00000000
10000000
00000000
02000000
00000000
00000000
00000000
,  // measure 31
03020000
00000000
00000000
00000000
00031000
00100000
00001000
00010000
00000010
00000100
00000001
00001000
00000100
00000010
00001000
00000000
,  // measure 32
00010000
00000000
00000000
00000000
00000000
00000000
00000000
00000000
00000000
00000000
00000000
00000000
00000100
00000000
00000000
00001000
00000000
00000000
00000001
00000000
00000000
00001000
00000000
00000000
00000010
00000000
00000000
00000100
00000000
00000000
00001000
00000000
00000000
00010000
00000000
00000000
00002000
00000000
00000000
00000000
00000000
00000000
00000000
00000000
01003000
00000000
00010000
00000000
,  // measure 33
20000000
00000000
00200000
00300000
30020000
00000000
00000000
00000000
00000000
00000000
00000000
00000000
00130000
00021000
00000000
00000000
,  // measure 34
00000000
00030000
00000000
00000000
00000200
00001000
00000000
00000010
00000000
00000310
00000001
00001000
00000020
00000000
00000000
00000000
,  // measure 35
00000130
00000000
00001000
00010000
0M000000
00010000
00100000
01000000
00000000
10000000
00010000
00100000
00002000
00000000
00013000
00000000
,  // measure 36
01000000
00000000
10000000
00000000
00010000
10000000
01000000
00100000
00000000
00010000
0000M000
00010000
00002000
00000000
00000000
00000000
,  // measure 37
01003000
00000000
00000000
00000000
00200000
10000000
00000000
01000000
00000000
01300000
00010000
10000000
02000000
00000000
00000000
00000000
,  // measure 38
03010000
0000M000
00010000
00100000
00000000
00001000
00010000
00000100
00000000
00001000
00000001
00001000
00000020
00000000
00000130
00000000
,  // measure 39
00000001
00000000
00000100
00000000
00001000
00000000
00010000
00000000
00001000
00000000
00010000
00010000
00001000
00100000
00010000
02000000
,  // measure 40
03000000
02200000
03300000
00000000
00020000
10000000
00000000
00100000
00030000
00100000
01000000
10000000
00200000
00000000
00000000
00000000
,  // measure 41
01300000
00000000
00010000
00100000
0M000000
00100000
10000000
00010000
01000000
00001000
00010000
00000100
00002000
00000000
00003010
00000000
,  // measure 42
00000001
00000000
00000010
00000000
00001000
00000001
00001000
00000100
00000000
00010000
0000M000
00010000
00200000
00000000
00000000
00000000
,  // measure 43
01300000
00000000
00000000
00000000
20000000
01000000
00000000
00010000
00000000
30010000
01000000
00100000
20000000
00000000
00000000
00000000
,  // measure 44
30010000
00000000
10000000
01000000
00M00000
01000000
00010000
00100000
00001000
00010000
00000100
00001000
00000020
00000000
00000130
00000000
,  // measure 45
00001000
00000000
00000100
00000000
00000010
00010000
00001000
00100000
00000000
01000000
000M0000
01000000
00020000
00000000
00000000
00000000
,  // measure 46
10030000
00000000
00000000
00000000
00100000
10000000
00000000
10000000
00000000
00010000
00100000
00001000
00010000
00000000
00000000
00000000
,  // measure 47
00000100
00000000
00001000
00000010
00000M00
00000010
00000001
00001000
00000000
00000010
00010000
00001000
02000000
00000000
03100000
00000000
,  // measure 48
00010000
00000000
00100000
00000000
10000000
00010000
10000000
01000000
00000000
00100000
000M0000
00100000
20000000
00000000
00000000
00000000
,  // measure 49
30001000
00000000
00000000
00000000
00010000
00000100
00000000
00000100
00000000
00000010
00000100
00001000
00000001
00000000
00000000
00000000
,  // measure 50
00001000
00000000
00000010
00000100
0000M000
00000100
00010000
00001000
00000000
00100000
00010000
10000000
00200000
00000000
01300000
00000000
,  // measure 51
10000000
00000000
01000000
00000000
00010000
00100000
00001000
00010000
00000000
00000100
000000M0
00000100
00000002
00000000
00000000
00000000
,  // measure 52
00001003
00000000
00000000
00000000
00000020
00000000
00000000
00010030
00000000
00001000
00100000
00001000
00100000
00000000
00000000
00010000
,  // measure 53
10000000
00000000
00010000
00100000
0M000000
00100000
01000000
00010000
00M00000
00010000
00000010
00002000
00000000
00000000
00000000
00003100
,  // measure 54
00000010
00000000
00001000
00000000
00000010
00000000
00000001
00001000
00000000
00001000
00000000
00000001
00000200
00000000
00000000
00000000
,  // measure 55
00002300
00000000
00003000
00000000
00020000
00000000
00000000
00031000
00000000
01000000
00010000
01000000
00010000
00000000
00000000
00100000
,  // measure 56
01000000
000M0000
01000000
00001000
00010000
00000000
00000000
00000010
00000M00
00000010
00000001
00000100
00000000
00000000
00000000
00000000
,  // measure 57
00000002
00000000
00000003
00000000
00000020
00000000
00000000
00000000
00002030
00000000
00000000
00000000
00013000
00000000
00000000
00010000
,  // measure 58
00000020
00000000
00000030
00000000
00001000
00000000
00000000
00000100
00000000
00010000
00001000
00010000
00001000
00000000
00000000
00100000
,  // measure 59
02000000
00000000
13000000
00100000
000M0000
00100000
00000000
00010000
0000M000
00010000
00000100
00000010
00000000
00000000
00000000
00000000
,  // measure 60
00000002
00000000
00000003
00000000
00000200
00000000
00000000
00000000
00001000
00000000
00000000
00000000
00000310
00000000
00000000
00010000
,  // measure 61
00002000
00000000
00003000
00000000
00100000
00000000
00000000
00010000
00000000
01000000
00000000
00000000
00100000
10000000
00010000
01000000
,  // measure 62
00002000
00000000
00013000
00000010
00001000
00000000
00000000
00000100
00000000
00000010
00000001
00001000
00000000
00000000
00000000
00000000
,  // measure 63
00000200
00000000
00000300
00000000
00010000
00001000
00100000
00010000
10000000
00000000
00000000
00000000
01000000
00000000
00000000
00010000
,  // measure 64
00002000
00003000
00000000
00000000
;
