#TITLE:Is It Good To You;
#SUBTITLE:;
#ARTIST:Heavy D & The Boyz;
#TITLETRANSLIT:;
#SUBTITLETRANSLIT:;
#ARTISTTRANSLIT:;
#GENRE:;
#CREDIT:;
#MUSIC:Is It Good To You.ogg;
#BANNER:Is It Good To You-bn.png;
#BACKGROUND:Is It Good To You-bg.png;
#CDTITLE:;
#SAMPLESTART:18.983;
#SAMPLELENGTH:11.167;
#SELECTABLE:YES;
#OFFSET:1.118;
#BPMS:0.000=107.460;
#STOPS:;
#BGCHANGES:3.000=Is It Good To You.mp4=1.000=0=0=1,
99999.000=-nosongbg-=1.000=0=0=0=StretchNoLoop====
;
#FGCHANGES:;

//--------------- dance-single - OrangeRight ----------------
#NOTES:
     dance-single:
     OrangeRight:
     Beginner:
     2:
     0.082002,0.110388,0,0.008831,0,65,65,0,1,0,0,0.082002,0.110388,0,0.008831,0,65,65,0,1,0,0:
0000
0000
0000
0000
,
0000
0000
0000
0000
,
0000
0000
0000
0000
,
0000
0000
0000
0000
,
0000
0000
0000
0000
,
1000
0000
0000
0000
,
1000
0000
0000
0000
,
1000
0000
0000
0000
,
0001
0000
0000
0000
,
1000
0000
0000
0000
,
0100
0000
0100
0000
,
1000
0000
0000
0000
,
0010
0000
0010
0000
,
0100
0000
0000
0000
,
0001
0000
0001
0000
,
1000
0000
0000
0000
,
0001
0000
1000
0000
,
0001
0000
0000
0000
,
0100
0000
0000
0000
,
0010
0000
0000
0000
,
1000
0000
0001
0000
,
1000
0000
0000
0000
,
0100
0000
0000
0000
,
0010
0000
0000
0000
,
0001
0000
1000
0000
,
0001
0000
0100
0000
,
0001
0000
0000
0000
,
1000
0000
0100
0000
,
1000
0000
0000
0000
,
0010
0000
0100
0000
,
0010
0000
0000
0000
,
0100
0000
0010
0000
,
1000
0000
0001
0000
,
1000
0000
0100
0000
,
0010
0000
0000
0000
,
0100
0000
0010
0000
,
0001
0000
0000
0000
,
0100
0000
0010
0000
,
1000
0000
0000
0000
,
0001
0000
0100
0000
,
0010
0000
0000
0000
,
1000
0000
0001
0000
,
1000
0000
0000
0000
,
0001
0000
0100
0000
,
0010
0000
0000
0000
,
0100
0000
0010
0000
,
0100
0000
0000
0000
,
0010
0000
1000
0000
,
0100
0000
0010
0000
,
0000
0002
0000
0000
,
0003
0000
0000
0000
;

//--------------- dance-single - OrangeRight ----------------
#NOTES:
     dance-single:
     OrangeRight:
     Easy:
     4:
     0.179144,0.198698,0.008831,0.061817,0,142,141,1,7,0,0,0.179144,0.198698,0.008831,0.061817,0,142,141,1,7,0,0:
0000
0000
0000
0000
,
0000
0000
0000
0000
,
0000
0000
0000
0000
,
0000
0000
0000
0000
,
0000
0000
0000
0001
,
2000
3000
1000
0100
,
0020
0030
0100
0010
,
0002
0003
1000
0001
,
1000
1000
0001
0001
,
1000
0000
0100
1000
,
0001
0100
0001
0000
,
0001
0000
0010
0001
,
1000
0010
1000
0010
,
0100
0000
0001
1000
,
0100
1000
0010
0000
,
0100
0000
0001
1000
,
0001
0001
1000
1000
,
0001
0100
0001
0000
,
1000
0100
1000
0000
,
0010
0100
0001
0000
,
0010
0100
1000
0000
,
0010
0010
0100
0000
,
0001
0001
1000
0000
,
0100
0010
0100
0000
,
1000
1000
0001
0001
,
2000
0000
3000
1000
,
0010
0000
0100
0100
,
0002
0000
0003
0001
,
0010
0000
0001
0001
,
0200
0000
0300
0100
,
0010
0000
1000
1000
,
0100
0010
0001
1000
,
1001
0000
1000
1000
,
0001
0000
0100
0001
,
1000
0010
1000
0000
,
1000
0000
0010
1000
,
0001
0010
0001
0100
,
0010
0000
1000
0001
,
0100
0001
0010
0000
,
0010
0000
0001
1000
,
0001
0001
1000
1000
,
0010
0000
0100
0001
,
0010
0001
0100
0010
,
1000
0000
0001
0100
,
0010
0100
0001
1000
,
0010
0000
0100
0001
,
1000
0100
0001
0100
,
1000
0000
0001
0000
,
1000
0001
1000
0001
,
0000
0200
0000
0000
,
0300
0000
0000
0000
;

//--------------- dance-single - OrangeRight ----------------
#NOTES:
     dance-single:
     OrangeRight:
     Medium:
     6:
     0.300255,0.352947,0.150128,0.158959,0.035324,238,221,17,18,0,0,0.300255,0.352947,0.150128,0.158959,0.035324,238,221,17,18,0,0:
0000
0000
0000
0000
,
0000
0000
0000
0000
,
0000
0000
0000
0000
,
0000
0000
0000
0000
,
0000
0000
0000
0002
,
2003
0000
0000
3002
0000
0000
0203
0000
,
0320
0000
0000
2030
0000
0000
3002
0000
,
0023
0000
0000
0230
0000
0000
1300
0000
,
1001
0110
1001
0100
,
1000
0000
0001
0100
0001
0000
1000
0000
,
0100
0010
0001
0100
,
0001
0000
1000
0100
1000
0000
0001
0000
,
0100
0010
1000
0100
,
1000
0000
0010
1000
0010
0000
0100
0000
,
0001
0010
0001
0100
,
0001
0000
1000
0010
1000
0000
0010
0000
,
0100
0001
0100
0000
0010
1000
0010
0000
,
1000
0000
0100
0000
1000
0100
1000
0000
,
0001
0010
1000
0010
,
0001
0000
0100
0000
0001
0100
0001
0000
,
1000
0000
0100
0000
0010
0001
0010
0000
,
0001
0000
0100
0000
0001
0100
0001
0000
,
1000
0100
0001
0100
,
1000
0010
1000
0000
0001
0100
0001
0000
,
1000
0000
0001
0000
0100
0010
0100
0000
,
0001
0010
0002
0000
0103
0000
0100
0010
,
1000
0000
0100
0000
1000
0001
1000
0000
,
0001
0100
0002
0000
0013
0000
0010
0100
,
1000
0001
0100
0010
,
1000
0010
2000
0000
3100
0000
0100
0010
,
0001
0000
0100
0000
0001
1000
0001
0000
,
1000
0100
0010
0000
0001
0100
0010
0000
,
0110
1001
0110
1000
,
0001
0000
0000
0000
0000
0000
0010
0000
0000
0100
0000
0000
1000
0000
0000
0000
0000
0000
0001
0000
0000
0000
0000
0100
,
0000
0100
0010
0000
1000
0000
0100
0000
,
1000
0000
0000
0000
0000
0000
0010
0000
0000
0100
0000
0000
0001
0000
0000
0000
0000
0000
1000
0000
0000
0000
0000
0100
,
0000
0100
0010
0000
0001
0000
0100
0000
,
0010
0000
0000
0000
0000
0000
1000
0000
0000
0001
0000
0000
1000
0000
0000
0000
0000
0000
0100
0000
0000
0000
0000
1000
,
0000
1000
0010
0000
0100
0000
0001
0000
,
0010
0000
0001
1000
0001
0000
0100
0000
,
0001
1000
0001
0000
0010
0100
0010
0000
,
0001
0000
0000
0001
0000
0000
0100
0000
0000
0001
0000
0000
0100
0000
0000
0000
0000
0000
0110
0000
0000
0000
0000
0110
,
0000
0020
2030
3200
,
1300
0000
0000
1000
0000
0000
0010
0000
0000
1000
0000
0000
0001
0000
0000
0000
0000
0000
1001
0000
0000
0000
0000
1001
,
0000
0020
0032
0203
,
0310
0000
0000
0010
0000
0000
1000
0000
0000
0001
0000
0000
1000
0000
0000
0000
0000
0000
1001
0000
0000
0000
0000
1001
,
0000
0000
0000
0000
0000
0000
1000
0000
0000
0100
0000
0000
0010
0000
0000
0000
0000
0001
0000
0000
0000
0100
0000
0000
,
0010
1000
0100
0010
0001
0000
1001
0000
,
0011
1010
1100
0101
,
0000
0000
0000
0000
0000
0000
0001
0000
0000
1000
0000
0000
0001
0000
0000
0000
0000
0000
1000
0000
0000
0000
0000
1000
;

//--------------- dance-single - OrangeRight ----------------
#NOTES:
     dance-single:
     OrangeRight:
     Hard:
     10:
     0.407489,0.441184,0.273762,0.238438,0.105972,323,292,31,27,0,0,0.407489,0.441184,0.273762,0.238438,0.105972,323,292,31,27,0,0:
0000
0000
0000
0000
,
0000
0000
0000
0000
,
0000
0000
0000
0000
,
0000
0000
0000
0000
,
0000
0000
0000
0002
,
2003
0000
0000
3200
0000
0000
0302
0000
,
0203
0000
0000
2300
0000
0000
3020
0000
,
0230
0000
0000
0302
0000
0000
2003
0000
,
3001
1000
0001
1000
0001
1000
0100
0000
,
1000
0000
0000
0100
0000
0000
1000
0000
0000
0010
0000
0000
0200
0000
0000
0000
0000
0000
0301
0000
0000
0000
0000
0001
,
1000
1010
0110
0101
,
0001
0000
0000
0010
0000
0000
0001
0000
0000
0100
0000
0000
0020
0000
0000
0000
0000
0000
1030
0000
0000
0000
0000
1000
,
0001
0011
0110
1100
,
1000
0000
0000
0001
0000
0000
1000
0000
0000
0010
0000
0000
0200
0000
0000
0000
0000
0000
0301
0000
0000
0000
0000
0001
,
0010
0110
1001
0110
,
0001
0000
0000
1000
0000
0000
0010
0000
0000
0100
0000
0000
0002
0000
0000
0000
0000
0000
1003
0000
0000
0000
0000
1000
,
0001
0100
0001
0010
0001
1000
0200
0000
,
1300
0100
1000
0000
0001
0100
0101
0000
,
1000
0010
0100
0001
0010
1000
0010
0000
,
0001
0100
0001
0000
1000
0100
1100
0000
,
0001
0010
0100
1000
1000
0001
1001
0000
,
1000
0010
1000
0010
0100
0001
0100
0000
,
0001
0010
0100
0010
0001
0100
0010
0000
,
1000
1000
0001
0000
0001
0001
0100
0000
,
0100
0000
0000
0010
0000
0000
1000
0000
0000
0000
0000
1000
0001
0000
0000
0010
0000
0000
0100
0000
0000
1000
0000
0000
,
0010
0010
0100
0000
0001
1000
0001
0000
,
0100
0100
0010
0000
1000
0001
1000
0000
,
0100
0100
1000
0000
0010
0100
0001
0000
,
1000
0100
0010
0001
0100
0001
1000
0000
,
0001
0100
0010
0000
1000
0100
0010
0001
,
1000
0010
0100
0000
0001
0010
0100
1000
,
0010
0010
0100
0001
1000
1000
0001
0000
,
1001
0000
0000
0000
0000
0000
0110
0000
0000
0000
0000
0000
1001
0000
0000
0100
0000
0000
0010
0000
0000
1000
0000
0001
,
1000
0000
0000
0100
0000
0000
0010
0000
0000
0100
0000
0000
2100
0000
0000
0000
0000
0000
3001
0000
0000
0000
0000
0001
,
0100
0010
1010
0000
1100
0000
1001
0000
,
0001
0000
0000
0100
0000
0000
0010
0000
0000
0100
0000
0000
0102
0000
0000
0000
0000
0000
1003
0000
0000
0000
0000
1000
,
0100
0010
0110
0000
0011
0000
1001
0000
,
0001
0000
0000
0100
0000
0000
0010
0000
0000
1000
0000
0000
0200
0000
0000
0000
0000
0000
0310
0000
0000
0000
0000
0010
,
0100
1000
1010
0000
0101
0000
0110
0000
,
0010
1000
0100
0010
0002
0000
1003
0001
,
1000
0100
1000
0010
1000
0001
0100
0010
,
1000
0000
0000
0001
0000
0000
0010
0000
0100
0000
0000
0100
1000
0000
0000
0010
0000
0000
0100
0000
0000
0001
0000
0010
,
0002
0203
2300
3200
,
0301
0000
0000
0100
0000
0000
0010
0000
1000
0000
0000
1000
0100
0000
0000
0010
0000
0000
0001
0000
0000
1000
0000
0001
,
2000
3020
0032
0023
,
1030
0000
0000
0010
0000
0000
0100
0000
0001
0000
0000
1000
0100
0000
0000
0010
0000
0000
0001
0000
0000
0100
0000
0010
,
0100
0000
0000
0001
0000
0000
0010
0000
0000
1000
0000
0000
0010
0000
0000
0001
0000
0100
0000
0000
0100
0010
0000
0000
,
1000
0000
0000
0010
0000
0000
0100
0000
0001
0000
0000
0010
0100
0000
0000
1000
0000
0000
0001
0000
0000
1000
0000
0000
,
0100
0000
0000
0001
0000
0000
0100
0000
0000
1000
0000
0000
0010
0000
0000
0001
0000
0000
0010
0000
0000
1000
0000
0001
,
0000
0000
0000
0000
0000
0000
1010
0000
0000
0011
0000
0000
1001
0000
0000
0000
0000
0000
0110
0000
0000
0000
0000
1001
;

//--------------- dance-single - OrangeRight ----------------
#NOTES:
     dance-single:
     OrangeRight:
     Challenge:
     12:
     0.60051,0.639717,0.644666,0.105972,0.388566,476,403,73,12,0,0,0.60051,0.639717,0.644666,0.105972,0.388566,476,403,73,12,0,0:
0000
0000
0000
0000
,
0000
0000
0000
0000
,
0000
0000
0000
0000
,
0000
0000
0000
0000
,
0000
0000
0000
0100
,
1002
0000
0000
0000
0000
0000
0000
0000
0000
1000
0000
0000
1003
0000
0001
0000
0000
0100
0010
0000
0000
1000
0000
0000
,
2001
0000
0000
0000
0000
0000
0000
0000
0000
0001
0000
0000
3001
0000
1000
0000
0000
0100
0010
0000
0000
0001
0000
0000
,
1002
0000
0000
0000
0000
0000
0000
0000
0000
0100
0000
0000
0103
0000
0010
0000
0000
1000
0001
0000
0000
0010
0000
0000
,
0110
0100
1100
1000
1010
0010
0110
0000
,
1001
0000
0000
1000
0000
0000
0100
0000
1000
0100
0000
0000
0010
0000
0000
0001
0000
0000
0101
0000
0000
0000
0000
1010
,
0000
1000
0100
0001
0100
0010
0100
1000
,
0001
0000
0000
0001
0000
0000
0100
0000
0001
0100
0000
0000
0010
0000
0000
1000
0000
0000
1100
0000
0000
0000
0000
1000
,
0001
0100
0010
0100
1000
0100
0001
1000
,
0001
0000
0000
0001
0000
0000
0010
0000
0001
0010
0000
0000
0100
0000
0000
1000
0000
0000
1010
0000
0000
0000
0000
0101
,
0000
0001
0010
1000
0010
0100
0010
0001
,
1000
0000
0000
1000
0000
0000
0010
0000
0100
0010
0000
0000
1000
0000
0000
0001
0000
0000
1001
0000
0000
0000
0000
0000
,
1010
0001
1100
0001
0101
1000
0011
1000
,
0010
0000
0100
0010
0000
0000
1000
0000
0001
1000
0000
0000
0100
0000
0000
1000
0000
0000
1100
0000
0000
0000
0000
0000
,
1000
0000
0010
0100
0000
0000
0001
0000
0000
0010
0000
1000
0010
0000
0001
0100
0000
0000
0110
0000
0000
0000
0000
0000
,
1010
0000
0000
0100
0000
0000
0011
0000
0000
0100
0000
0000
1001
0000
0000
0110
0000
0000
1001
0000
0000
0000
0000
1000
,
0001
0000
0010
0100
0000
0000
1000
0000
0000
0010
0000
0000
0100
0000
0001
0100
0000
0010
1000
0000
0000
0000
0000
0001
,
1000
0000
0000
0100
0000
0001
0100
0000
0000
1000
0000
0001
1000
0000
0010
0100
0000
0000
0101
0000
0000
0000
0000
0000
,
1100
0000
0000
0001
0000
0000
0101
0000
0000
0100
0000
0010
0100
0000
0000
0001
0000
0000
1001
0000
0000
0000
0000
0000
,
1000
0000
0010
1000
0000
0000
1010
0000
0000
0000
0000
0010
0100
0000
0000
0001
0000
0000
0101
0000
0000
0000
0000
0001
,
0010
0000
0000
0100
0000
0000
1100
0000
0000
1000
0000
0000
1010
0000
0000
0010
0000
0000
0110
0000
0000
0001
0000
1000
,
0001
0000
0000
0100
0000
0001
0100
0000
0000
0010
0000
0000
1000
0000
0001
1000
0000
0000
0001
0000
0000
0100
0000
0000
,
0001
0000
0010
0001
0000
0000
0010
0000
0000
0100
0000
0000
1000
0000
0001
1000
0000
0000
0001
0000
0000
0010
0000
0000
,
0001
0000
0100
0010
0000
0000
1000
0000
0000
0001
0000
0000
1000
0000
0100
0010
0000
0001
1000
0000
0000
0001
0000
0000
,
1000
0000
0010
0100
0000
0010
1000
0000
0010
0100
0000
0001
0100
0000
0010
0100
0000
0000
0110
0000
0000
0001
0000
1000
,
0100
0000
0010
0001
0000
1000
0010
0000
0000
0100
0000
0000
0101
0000
0000
0010
0000
0000
1100
0000
0000
0010
0000
0000
,
1000
0000
0000
0001
0000
1000
0100
0000
0000
1000
0000
0001
0100
0000
0000
0010
0000
1000
0001
0000
0000
0110
0000
0000
,
1000
0000
0100
0010
0000
0000
0011
0000
0000
0001
0000
0100
0010
0000
0100
0001
0000
0000
1010
0000
0000
0000
0000
0000
,
1100
0000
0000
0010
0000
0000
0101
0000
0000
0000
0000
0000
0110
0000
0000
1000
0000
0100
0010
0000
0000
0001
0000
1000
,
0001
0000
0000
0100
0000
0000
0010
0000
1000
0000
0000
0100
1000
0000
0000
0010
0000
0000
0110
0000
0000
0000
0000
1001
,
0000
0000
0000
1000
0000
0000
0100
0000
0010
0100
0000
0000
1000
0000
0001
1000
0000
0000
0010
0000
0100
0010
0000
0000
,
1000
0000
0000
0100
0000
0000
0010
0000
0001
0000
0000
0100
0001
0000
0000
0010
0000
0000
0110
0000
0000
0000
0000
1000
,
0001
0000
0100
0001
0000
0000
0100
0000
0010
0100
0000
0000
0010
0000
1000
0010
0000
0000
1000
0000
0001
1000
0000
0000
,
0001
0000
0000
0100
0000
0000
0010
0000
1000
0000
0000
0001
0010
0000
0000
0100
0000
0000
1100
0000
0000
0000
0000
0011
,
0000
0000
0000
0100
0000
0000
0001
0000
0010
0001
0000
0000
1000
0000
0010
1000
0000
0000
0001
0000
1000
0001
0000
0000
,
1000
0000
0000
0010
0000
0000
0100
0000
0001
0000
0000
1000
0100
0000
0000
0010
0000
0000
0110
0000
0000
0000
0000
0000
,
0011
1000
0101
1000
1010
0001
0110
0000
,
1200
0000
0000
0010
0000
0000
1300
0000
0010
1000
0000
0000
0001
0000
0100
0001
0000
0000
1001
0000
0000
0000
0000
1000
,
0002
0010
0203
1000
0320
0001
1030
0001
,
0201
0000
0000
0010
0000
0000
0301
0000
1000
0001
0000
0000
0100
0000
0010
0100
0000
0000
0110
0000
0000
0000
0000
0010
,
2000
0000
0000
0010
0000
0000
3200
0000
0000
0001
0000
0000
0320
0000
0000
1000
0000
0000
0031
0000
0000
0100
0000
0001
,
1000
0000
0000
0100
0000
0000
1200
0000
0000
0001
0000
0000
1300
0000
0000
0010
0000
0000
0110
0000
0000
0000
0000
1001
,
0000
0000
0000
1000
0000
0000
0010
0000
0000
0001
0000
0000
0010
0000
0000
1000
0000
0100
0000
0000
0100
0010
0000
0000
,
0001
0100
0101
1100
0101
0001
0011
0010
,
0110
0000
0000
1000
0000
0000
0011
0000
0000
1000
0000
0000
0110
0000
0000
0001
0000
0000
1100
0000
0000
1000
0000
0001
,
0000
0000
0000
0000
0000
0000
0101
0000
0000
1100
0000
0000
1001
0000
0000
0000
0000
0000
0110
0000
0000
0000
0000
1001
;

//--------------- dance-double - OrangeRight ----------------
#NOTES:
     dance-double:
     OrangeRight:
     Easy:
     4:
     0.179144,0.198698,0,0.061817,0,142,142,0,7,0,0,0.179144,0.198698,0,0.061817,0,142,142,0,7,0,0:
00000000
00000000
00000000
00000000
,
00000000
00000000
00000000
00000000
,
00000000
00000000
00000000
00000000
,
00000000
00000000
00000000
00000000
,
00000000
00000000
00000000
00001000
,
00000002
00000003
00001000
00000010
,
00002000
00003000
00000100
00010000
,
00002000
00003000
00010000
00001000
,
00100000
00100000
01000000
01000000
,
10000000
00000000
00100000
01000000
,
00010000
01000000
00010000
00000000
,
00100000
00000000
00001000
00010000
,
00001000
00010000
00000100
00001000
,
00000100
00000000
00000010
00000001
,
00000010
00000001
00000100
00000000
,
00000001
00000000
00001000
00000001
,
00001000
00000100
00000010
00000001
,
00001000
00000100
00001000
00000000
,
00000100
00010000
00000100
00000000
,
00010000
00001000
00010000
00000000
,
00001000
00100000
00010000
00000000
,
01000000
00010000
01000000
00000000
,
00100000
10000000
00100000
00000000
,
10000000
00010000
10000000
00000000
,
00010000
00010000
10000000
10000000
,
00020000
00000000
00130000
00000000
,
00010000
00100000
00001000
00010000
,
00000200
00000000
00001300
00000000
,
00001000
00000100
00010000
00001000
,
02000000
00000000
03010000
00000000
,
10000000
01000000
10000000
00000000
,
00100000
01000000
00010000
10000000
,
00010000
00010000
10000000
10000000
,
00010000
00000000
00010000
01000000
,
00001000
00010000
00001000
00000000
,
00010000
00000000
00000010
00001000
,
00000100
00000010
00000100
00000000
,
00001000
00000000
00000001
00000100
,
00000010
00001000
00000100
00000000
,
00001000
00000000
00000100
00000000
,
00000010
00000010
00000100
00000100
,
00001000
00000000
00001000
00000010
,
00010000
00001000
00010000
00010000
,
00001000
00000000
01000000
00010000
,
00100000
01000000
00100000
00100000
,
00010000
00000000
10000000
00100000
,
01000000
00010000
00100000
01000000
,
10000000
00000000
00010000
00000000
,
10000000
00010000
10000000
00010000
,
00000000
02000000
00000000
00000000
,
03000000
00000000
00000000
00000000
;

//--------------- dance-double - OrangeRight ----------------
#NOTES:
     dance-double:
     OrangeRight:
     Medium:
     7:
     0.301517,0.352947,0.150128,0.247269,0.035324,239,222,17,28,0,0,0.301517,0.352947,0.150128,0.247269,0.035324,239,222,17,28,0,0:
00000000
00000000
00000000
00000000
,
00000000
00000000
00000000
00000000
,
00000000
00000000
00000000
00000000
,
00000000
00000000
00000000
00000000
,
00000000
00000000
00000000
00020000
,
20030000
00000000
00000000
30020000
00000000
00000000
02030000
00000000
,
03002000
00000000
00000000
00023000
00000000
00000000
00030200
00000000
,
00002300
00000000
00000000
00003020
00000000
00000000
00000130
00000000
,
00001001
00000110
00001001
00000100
,
00001000
00000000
00000010
00010000
00000010
00000000
00002000
00000000
,
00003100
00001000
00000010
00010000
,
00001000
00000000
00100000
00010000
00100000
00000000
00020000
00000000
,
01030000
00100000
10000000
01000000
,
10000000
00000000
00100000
01000000
00010000
00000000
00200000
00000000
,
00301000
00010000
00000100
00001000
,
00000010
00000000
00001000
00000001
00001000
00000000
00000100
00000000
,
00001000
00000001
00001000
00000001
00000100
00000010
00000100
00000000
,
00000001
00000000
00000100
00000000
00000001
00000100
00000001
00000000
,
00001000
00000000
00000010
00000000
00001000
00000100
00010000
00000000
,
00001000
00000000
00010000
00000000
00001000
00100000
00010000
00000000
,
10000000
00010000
10000000
00000000
00010000
10000000
00010000
00000000
,
10000000
00000000
00100000
00000000
10000000
00100000
10000000
00000000
,
00010000
00000000
01000000
00000000
00010000
00100000
00001000
00000000
,
00010000
00000000
00001000
00000000
00010000
00000100
00001000
00000000
,
00000001
00001000
00000001
00001000
00000001
00001000
00000001
00000000
,
00001000
00000100
00020000
00000000
00001000
00000000
00031000
00000000
,
00100000
00010000
00100000
00000000
00010000
01000000
00010000
00000000
,
00010000
00100000
00002000
00000000
00010000
00000000
00013000
00000000
,
00000100
00001000
00000100
00000000
00001000
00000010
00001000
00000000
,
00000100
00010000
00001000
00000000
00011000
00000000
01001000
00000000
,
01000000
00010000
00100000
00000000
01100000
00000000
10010000
00000000
,
10000000
00100000
01000000
00000000
00010000
00100000
01000000
00000000
,
01100000
00000000
10010000
00000000
01100000
00000000
10000000
00010000
,
10000000
00000000
00000000
00000000
00000000
00000000
01000000
00000000
00000000
10000000
00000000
00000000
00200000
00000000
00000000
00000000
00000000
00000000
01300000
00000000
00000000
00000000
00000000
01000000
,
00000000
00010000
00100000
00000000
00001000
00000000
00010000
00000000
,
00001000
00000000
00000000
00000000
00000000
00000000
00010000
00000000
00000000
00000100
00000000
00000000
00002000
00000000
00000000
00000000
00000000
00000000
00003010
00000000
00000000
00000000
00000000
00000010
,
00000000
00000100
00000001
00001000
,
00000001
00000000
00000000
00000000
00000000
00000000
00000100
00000000
00000000
00000001
00000000
00000000
00000020
00000000
00000000
00000000
00000000
00000000
00000130
00000000
00000000
00000000
00000000
00000100
,
00000000
00001000
00000010
00000000
00010000
00000000
00001000
00000000
,
00010000
00000000
00001000
01000000
00020000
00000000
00130000
00000000
,
00010000
10000000
00010000
00000000
01000000
00100000
01000000
00000000
,
00010000
00000000
00000000
00000000
00000000
00000000
00100000
00000000
00000000
00001000
00000000
00000000
00020000
00000000
00000000
00000000
00000000
00000000
00031000
00000000
00000000
00000000
00000000
00011000
,
00000000
00002000
00023000
00030200
,
00001300
00000000
00000000
00000000
00000000
00000000
00000010
00000000
00000000
00010000
00000000
00000000
00002000
00000000
00000000
00000000
00000000
00000000
00013000
00000000
00000000
00000000
00000000
00011000
,
00000000
00020000
00032000
00203000
,
00310000
00000000
00000000
00000000
00000000
00000000
01000000
00000000
00000000
00100000
00000000
00000000
02000000
00000000
00000000
00000000
00000000
00000000
03010000
00000000
00000000
00000000
00000000
10010000
,
00000000
00000000
00000000
00000000
00000000
00000000
10000000
00000000
00000000
00100000
00000000
00000000
01000000
00000000
00000000
00000000
00000000
00010000
00000000
00000000
00000000
00100000
00000000
00000000
,
00001000
00000000
00010000
00000100
00002000
00000000
00003010
00000000
,
00001010
00000011
00000101
00001100
,
00000000
00000000
00000000
00000000
00000000
00000000
00001000
00000000
00000000
00000001
00000000
00000000
00001000
00000000
00000000
00000000
00000000
00000000
00000001
00000000
00000000
00000000
00000000
00000001
;

//--------------- dance-double - OrangeRight ----------------
#NOTES:
     dance-double:
     OrangeRight:
     Hard:
     10:
     0.401181,0.441184,0.229607,0.229607,0.101557,318,292,26,26,0,0,0.401181,0.441184,0.229607,0.229607,0.101557,318,292,26,26,0,0:
00000000
00000000
00000000
00000000
,
00000000
00000000
00000000
00000000
,
00000000
00000000
00000000
00000000
,
00000000
00000000
00000000
00000000
,
00000000
00000000
00000000
00020000
,
20030000
00000000
00000000
32000000
00000000
00000000
03020000
00000000
,
00032000
00000000
00000000
00003200
00000000
00000000
00000302
00000000
,
00000023
00000000
00000000
00000230
00000000
00000000
00020300
00000000
,
00031000
00010000
00001000
00010000
00001000
00010000
00000100
00000000
,
00001000
00000000
00000000
00000100
00000000
00000000
00010000
00000000
00000000
00001000
00000000
00000000
00200000
00000000
00000000
00000000
00000000
00000000
00310000
00000000
00000000
00000000
00000000
00010000
,
01000000
00000000
00100000
10000000
01000000
10000000
00010000
00000000
,
00010000
00000000
00000000
00100000
00000000
00000000
00001000
00000000
00000000
00010000
00000000
00000000
00000200
00000000
00000000
00000000
00000000
00000000
00001300
00000000
00000000
00000000
00000000
00001000
,
00000010
00000000
00000100
00000001
00000010
00000001
00001000
00000000
,
00001000
00000000
00000000
00000100
00000000
00000000
00010000
00000000
00000000
00001000
00000000
00000000
02000000
00000000
00000000
00000000
00000000
00000000
03010000
00000000
00000000
00000000
00000000
00010000
,
00100000
00000000
00100000
01000000
10000000
01000000
00100000
00000000
,
00100000
00000000
00000000
00010000
00000000
00000000
01000000
00000000
00000000
00001000
00000000
00000000
00020000
00000000
00000000
00000000
00000000
00000000
00030100
00000000
00000000
00000000
00000000
00000100
,
00001000
00000010
00001000
00000100
00001000
00000001
00001001
00000000
,
00001000
00000100
00001000
00000000
00000100
00010000
00010100
00000000
,
00010000
00001000
00100000
00010000
01000000
10000000
01000000
00000000
,
00010000
01000000
00010000
00000000
01000000
00001000
01001000
00000000
,
00001000
00010000
00000100
00001000
00000010
00000100
00000010
00000000
,
00001000
00000100
00000010
00000100
00001000
00000100
00010000
00000000
,
00001000
00100000
00010000
01000000
00010000
00100000
00001000
00000000
,
00010000
00001000
00101000
00000000
00100000
00010000
01010000
00000000
,
01000000
00100000
10000000
01000000
00010000
01000000
10000000
00000000
,
00100000
00100000
01000000
00000000
00010000
01000000
00010000
00000000
,
00100000
00100000
00001000
00000000
00010000
00000100
00001000
00000000
,
00000010
00000010
00000100
00000000
00001000
00000100
00001000
00000000
,
00000010
00000010
00010000
00001000
01000000
00010000
00100000
00000000
,
01000000
10000000
00100000
01000000
00010000
00010000
00100000
00000000
,
00001000
00010000
00000100
00001000
00000010
00000100
00000100
00000000
,
00000010
00001000
00000100
00000000
00010000
00001000
00100000
00000000
,
00110000
00000000
00000000
00000000
00000000
00000000
11000000
00000000
00000000
00000000
00000000
00000000
01100000
00000000
00000000
10000000
00000000
00000000
00010000
00000000
00000000
10000000
00000000
00010000
,
10000000
00000000
00000000
01000000
00000000
00000000
00100000
00000000
00000000
01000000
00000000
00000000
21000000
00000000
00000000
00000000
00000000
00000000
30010000
00000000
00000000
00000000
00000000
00010000
,
01000000
00001000
00011000
00000000
00010100
00000000
00001100
00000000
,
00001000
00000000
00000000
00000100
00000000
00000000
00000010
00000000
00000000
00000100
00000000
00000000
00002100
00000000
00000000
00000000
00000000
00000000
00003001
00000000
00000000
00000000
00000000
00000001
,
00000100
00000010
00000110
00000000
00001010
00000000
00001100
00000000
,
00001000
00000000
00000000
00000100
00000000
00000000
00010000
00000000
00000000
00001000
00000000
00000000
00201000
00000000
00000000
00000000
00000000
00000000
00310000
00000000
00000000
00000000
00000000
00010000
,
01000000
00010000
01010000
00000000
10010000
00000000
11000000
00000000
,
10000000
00000000
00000000
00100000
00000000
00000000
01000000
00000000
00000000
00010000
00000000
00000000
10020000
00000000
00000000
00000000
00000000
00000000
01030000
00000000
00000000
00000000
00000000
01000000
,
00001000
00010000
00000100
00001000
00000010
00000100
00000001
00001000
,
00000001
00000000
00000000
00000001
00000000
00000000
00000100
00000000
00000010
00000000
00000000
00000010
00001000
00000000
00000000
00000100
00000000
00000000
00010000
00000000
00000000
00000000
00000000
00010000
,
00002000
00203000
00320000
02030000
,
03010000
00000000
00000000
00010000
00000000
00000000
00100000
00000000
01000000
00000000
00000000
01000000
10000000
00000000
00000000
00010000
00000000
00000000
01000000
00000000
00000000
00000000
00000000
01000000
,
00020000
00230000
00302000
00023000
,
00030100
00000000
00000000
00000100
00000000
00000000
00010000
00000000
00001000
00000000
00000000
00100000
00010000
00000000
00000000
01000000
00000000
00000000
00001000
00000000
00000000
00010000
00000000
00001000
,
00010000
00000000
00000100
00001000
00000010
00010000
00001000
00000000
,
00100000
00000000
00000000
00100000
00000000
00000000
00001000
00000000
00010000
00000000
00000000
00000100
00001000
00000000
00000000
00000010
00000000
00000000
00010000
00000000
00000000
00001000
00000000
00010000
,
00001000
00000000
00000000
00100000
00000000
00000000
00010000
00000000
00000000
01000000
00000000
00000000
10000000
00000000
00000000
01000000
00000000
00000000
00010000
00000000
00000000
10000000
00000000
00010000
,
00000000
00000000
00000000
00000000
00000000
00000000
10100000
00000000
00000000
00110000
00000000
00000000
10010000
00000000
00000000
00000000
00000000
00000000
01100000
00000000
00000000
00000000
00000000
10010000
;

//--------------- dance-double - OrangeRight ----------------
#NOTES:
     dance-double:
     OrangeRight:
     Challenge:
     13:
     0.592941,0.595598,0.556355,0.08831,0.388566,470,407,63,10,0,0,0.592941,0.595598,0.556355,0.08831,0.388566,470,407,63,10,0,0:
00000000
00000000
00000000
00000000
,
00000000
00000000
00000000
00000000
,
00000000
00000000
00000000
00000000
,
00000000
00000000
00000000
00000000
,
00000000
00000000
00000000
00020000
,
02030000
00000000
00000000
00000000
00000000
00000000
00000000
00000000
00000000
00010000
00000000
00000000
03010000
00000000
00100000
00000000
00000000
00001000
00010000
00000000
00000000
00010000
00000000
00000000
,
00000200
00000000
00000000
00000000
00000000
00000000
00000000
00000000
00000000
00001000
00000000
00000000
00001300
00000000
00000010
00000000
00000000
00010000
00001000
00000000
00000000
00001000
00000000
00000000
,
00200000
00000000
00000000
00000000
00000000
00000000
00000000
00000000
00000000
00001000
00000000
00000000
00301000
00000000
00010000
00000000
00000000
00000100
00001000
00000000
00000000
00000010
00000000
00000000
,
00001010
00001000
00001100
00000100
00000110
00000010
00000011
00000000
,
00001001
00000000
00000000
00000001
00000000
00000000
00000100
00000000
00000001
00000100
00000000
00000000
00000010
00000000
00000000
00001000
00000000
00000000
00001100
00000000
00000000
00000000
00000000
00010100
,
00000000
00010000
00011000
00001000
00101000
00100000
00120000
00000000
,
10030000
00000000
00000000
10000000
00000000
00000000
01000000
00000000
10000000
01000000
00000000
00000000
00100000
00000000
00000000
00010000
00000000
00000000
00110000
00000000
00000000
00000000
00000000
00101000
,
00000000
00001000
00011000
00010000
00010100
00000100
00002100
00000000
,
00003010
00000000
00000000
00000010
00000000
00000000
00000100
00000000
00000001
00000100
00000000
00000000
00000010
00000000
00000000
00001000
00000000
00000000
00001100
00000000
00000000
00000000
00000000
00010100
,
00000000
00010000
00011000
00001000
00101000
00100000
00120000
00000000
,
01030000
00000000
00000000
01000000
00000000
00000000
00100000
00000000
10000000
00100000
00000000
00000000
01000000
00000000
00000000
00010000
00000000
00000000
10000000
00000000
00000000
01000000
00000000
00000000
,
11000000
00010000
01010000
00001000
00011000
00000100
00001100
00000000
,
00000010
00000000
00010000
00000010
00000000
00000000
00010000
00000000
00001000
00010000
00000000
00000000
00001000
00000000
00000000
01000000
00000000
00000000
01001000
00000000
00000000
00000000
00000000
00000000
,
00100000
00000000
00010000
00100000
00000000
00000000
00010000
00000000
00000000
01000000
00000000
00001000
00010000
00000000
00000100
00001000
00000000
00000000
00001100
00000000
00000000
00000000
00000000
00000000
,
00000011
00000000
00000000
00001000
00000000
00000000
00001010
00000000
00000000
00000100
00000000
00000000
00001001
00000000
00000000
00000110
00000000
00000000
00001001
00000000
00000000
00000000
00000000
00000001
,
00000010
00000000
00000100
00001000
00000000
00000000
00000001
00000000
00000000
00001000
00000000
00000000
00000010
00000000
00000100
00000001
00000000
00000010
00000100
00000000
00000000
00000000
00000000
00001000
,
00000001
00000000
00000000
00000100
00000000
00000001
00000100
00000000
00000000
00000001
00000000
00000010
00000100
00000000
00001000
00000010
00000000
00000000
00001010
00000000
00000000
00000000
00000000
00000000
,
00010010
00000000
00000000
00001000
00000000
00000000
01001000
00000000
00000000
00010000
00000000
00100000
01000000
00000000
00000000
10000000
00000000
00000000
10010000
00000000
00000000
00000000
00000000
00000000
,
10000000
00000000
00100000
10000000
00000000
00000000
11000000
00000000
00000000
00000000
00000000
01000000
00100000
00000000
00000000
00010000
00000000
00000000
00110000
00000000
00000000
00000000
00000000
00010000
,
01000000
00000000
00000000
00001000
00000000
00000000
00011000
00000000
00000000
00010000
00000000
00000000
00010010
00000000
00000000
00000010
00000000
00000000
00001010
00000000
00000000
00000000
00000000
00000010
,
00001000
00000000
00000100
00001000
00000000
00000000
00000100
00000000
00000000
00000010
00000000
00000000
00000001
00000000
00000100
00000001
00000000
00000000
00001001
00000000
00000000
00000000
00000000
00000000
,
00001000
00000000
00000010
00001000
00000000
00000000
00000010
00000000
00000000
00010000
00000000
00000000
00001000
00000000
00010000
00001000
00000000
00000000
01001000
00000000
00000000
00000000
00000000
00000000
,
01000000
00000000
00010000
00100000
00000000
00000000
01000000
00000000
00000000
01000000
00000000
00000000
10000000
00000000
00100000
01000000
00000000
00010000
10000000
00000000
00000000
00010000
00000000
00000000
,
00100000
00000000
00010000
00100000
00000000
01000000
00100000
00000000
00010000
01000000
00000000
00100000
01000000
00000000
00001000
00010000
00000000
00000000
00011000
00000000
00000000
00010000
00000000
00000000
,
00000010
00000000
00001000
00000100
00000000
00001000
00000010
00000000
00000000
00010000
00000000
00000000
00001000
00000000
00000000
01000000
00000000
00000000
00010000
00000000
00000000
00100000
00000000
00000000
,
01000000
00000000
00000000
00100000
00000000
00010000
01000000
00000000
00000000
00100000
00000000
10000000
01000000
00000000
00000000
10000000
00000000
00010000
10000000
00000000
00000000
00010000
00000000
00000000
,
01000000
00000000
00100000
01000000
00000000
00000000
00010000
00000000
00000000
01000000
00000000
00001000
00010000
00000000
00000010
00001000
00000000
00000000
00001010
00000000
00000000
00000000
00000000
00000000
,
00001100
00000000
00000000
00000010
00000000
00000000
00000101
00000000
00000000
00000000
00000000
00000000
00000001
00000000
00000000
00001000
00000000
00000100
00000010
00000000
00000000
00000001
00000000
00001000
,
00000001
00000000
00000000
00001000
00000000
00000000
00000100
00000000
00000010
00000000
00000000
00000010
00000001
00000000
00000000
00000100
00000000
00000000
00000010
00000000
00000000
00001000
00000000
00000010
,
00001000
00000000
00000000
00000010
00000000
00000000
00010000
00000000
00001000
00010000
00000000
00000000
00001000
00000000
01000000
00001000
00000000
00000000
01000000
00000000
00010000
01000000
00000000
00000000
,
00010000
00000000
00000000
00100000
00000000
00000000
01000000
00000000
10000000
00000000
00000000
10000000
00100000
00000000
00000000
01000000
00000000
00000000
00010000
00000000
00000000
10000000
00000000
00010000
,
10000000
00000000
01000000
00100000
00000000
00000000
01000000
00000000
00100000
00010000
00000000
00000000
01000000
00000000
00001000
00010000
00000000
00000000
00001000
00000000
00010000
00000010
00000000
00000000
,
00001000
00000000
00000000
00000001
00000000
00000000
00001000
00000000
00000010
00000000
00000000
00000010
00000100
00000000
00000000
00000001
00000000
00000000
00000010
00000000
00000000
00000100
00000000
00001000
,
00000100
00000000
00000000
00000010
00000000
00000000
00000001
00000000
00000100
00000001
00000000
00000000
00001000
00000000
00000100
00001000
00000000
00000000
00000010
00000000
00010000
00000010
00000000
00000000
,
00010000
00000000
00000000
00001000
00000000
00000000
01000000
00000000
00010000
00000000
00000000
00100000
01000000
00000000
00000000
10000000
00000000
00000000
00010000
00000000
00000000
10000000
00000000
00000000
,
00010000
00000000
00100000
00010000
00000000
00000000
01000000
00000000
00100000
01000000
00000000
00000000
00100000
00000000
10000000
00100000
00000000
00000000
10000000
00000000
00010000
10000000
00000000
00000000
,
02010000
00000000
00000000
00100000
00000000
00000000
03010000
00000000
00100000
00010000
00000000
00000000
01000000
00000000
00000000
00001000
00000000
00000000
00010000
00000000
00000000
00000010
00000000
00001000
,
00000100
00000001
00000100
00001000
00000100
00000010
00000100
00001000
,
00001200
00000000
00000000
00000010
00000000
00000000
00001300
00000000
00000010
00001000
00000000
00000000
00000100
00000000
00000000
00010000
00000000
00000000
00001000
00000000
00000000
00100000
00000000
00010000
,
01000000
10000000
01000000
00010000
01000000
00100000
01000000
00010000
,
02010000
00000000
00000000
00001000
00000000
00000000
03010000
00000000
00100000
01000000
00000000
00000000
10000000
00000000
00000000
00100000
00000000
00000000
00010000
00000000
00000000
00100000
00000000
10000000
,
01000000
00000000
00000000
00100000
00000000
00000000
00010000
00000000
00000000
01000000
00000000
00000000
00001000
00000000
00000000
00010000
00000000
00000100
00000000
00000000
00001000
00000010
00000000
00000000
,
00001010
00001000
00001001
00000110
00001001
00000100
00000011
00000100
,
00001010
00000000
00000000
00010000
00000000
00000000
00011000
00000000
00000000
00100000
00000000
00000000
00110000
00000000
00000000
10000000
00000000
00000000
10010000
00000000
00000000
01000000
00000000
00100000
,
00000000
00000000
00000000
00000000
00000000
00000000
10100000
00000000
00000000
00110000
00000000
00000000
10010000
00000000
00000000
00000000
00000000
00000000
01100000
00000000
00000000
00000000
00000000
10010000
;
