#TITLE:Insatiable Curiosity;
#SUBTITLE:;
#ARTIST:First Class;
#TITLETRANSLIT:;
#SUBTITLETRANSLIT:;
#ARTISTTRANSLIT:;
#GENRE:;
#CREDIT:;
#MUSIC:Insatiable Curiosity.ogg;
#BANNER:Insatiable Curiosity.png;
#BACKGROUND:Insatiable Curiosity-bg.png;
#CDTITLE:;
#SAMPLESTART:56.274;
#SAMPLELENGTH:13.241;
#SELECTABLE:YES;
#OFFSET:1.657;
#BPMS:0.000=145.000
,36.000=36.250
,37.000=72.500
,38.000=145.000
,96.500=48.334
,97.000=145.000
,97.500=48.334
,98.000=145.000
,98.500=48.334
,99.000=145.000
,129.000=72.500
,130.000=145.000
,196.000=36.250
,197.000=72.500
,199.000=145.000
,263.000=36.250
,265.000=145.000
;
#STOPS:;
#BGCHANGES:;
#FGCHANGES:;

//--------------- dance-single - OrangeRight ----------------
#NOTES:
     dance-single:
     OrangeRight:
     Beginner:
     3:
     0,0,0,0,0:
0000
0000
0000
0000
,
0000
0000
0000
0000
,
0000
0000
0000
0000
,
0000
0000
0000
0000
,
0000
0000
0000
0000
,
1000
0000
1000
0000
,
0001
0000
0001
0000
,
1000
0000
0001
0000
,
1000
1000
0001
0001
,
2000
3000
0000
0000
,
1000
0000
0001
0000
,
1000
0000
0100
0000
,
1000
0000
0001
0000
,
1000
0000
1000
1000
,
0001
0000
1000
0000
,
0001
0000
0010
0000
,
0001
0000
1000
0000
,
0001
0001
0001
0000
,
1000
0000
0100
0000
,
0010
0000
0001
0000
,
1000
0000
0100
0000
,
0010
0000
0001
0000
,
0001
0000
0100
0000
,
0010
0000
1000
0000
,
0002
0003
0002
0003
0002
0003
0001
0000
,
0000
1001
0000
0000
,
0000
0000
0000
0000
,
0000
1000
0000
0000
,
0000
0001
0000
0000
,
0000
1000
0000
1000
,
0000
0001
0000
0001
,
0000
1000
1000
0001
,
0001
2002
3003
0000
,
1000
0000
0100
0000
,
0010
0000
0100
0000
,
1000
0000
0010
0000
,
0100
0000
0100
0000
,
0001
0000
0010
0000
,
0100
0000
0010
0000
,
0001
0000
0100
0000
,
0010
0010
0100
0100
,
0001
0000
1000
0000
,
0100
0000
0010
0000
,
0001
0000
1000
0000
,
0100
0000
0010
0000
,
0001
0000
0001
0000
,
1000
0000
0010
0000
,
0100
0000
0001
0000
,
1000
0001
1000
0001
,
2002
0000
3003
1000
,
0000
1000
0000
0001
,
0000
0001
0000
1000
,
0000
1000
0000
0001
,
0000
0001
0000
0100
,
0000
0100
0000
0010
,
0000
0010
0000
0100
,
0000
0010
0000
1000
,
0001
1000
0001
1000
,
0000
0100
0000
0010
,
0000
0001
0000
0100
,
0000
0010
0000
1000
,
0000
0001
0000
0010
,
0000
0100
0000
1000
,
0000
0001
0000
0100
,
0010
0100
0010
1000
,
0001
2000
3000
0002
,
0000
0000
0000
0003
0000
0000
0000
0000
0000
0000
0000
0000
0000
0000
0000
0000
;

//--------------- dance-single - OrangeRight ----------------
#NOTES:
     dance-single:
     OrangeRight:
     Easy:
     6:
     0,0,0,0,0:
0000
0000
0000
0000
,
0000
0000
0000
0000
,
0000
0000
0000
0000
,
0000
0000
0000
0000
,
0000
0000
0000
0000
,
1000
0010
1000
0010
,
0100
0001
0100
0001
,
0010
0100
0010
0100
,
1000
1000
0001
0001
,
2002
0000
3003
0001
,
1000
0100
1000
0100
,
0010
0001
0100
0001
,
1000
0010
1000
0010
,
0100
0001
0010
0001
,
0100
0010
0100
0010
,
1000
0001
0010
0100
,
1000
0010
0100
0001
,
1000
0001
1000
0020
,
1030
0100
1000
0010
,
0100
0001
0010
0001
,
1000
0010
1000
0100
,
0010
0001
0100
0001
,
1000
0001
0010
0100
,
1000
0010
0100
0001
,
2000
3000
0002
0003
2002
3003
1000
0000
,
0001
2000
0000
0000
,
3000
0002
0000
0000
,
0003
2000
0000
0000
,
3000
0002
0000
0000
,
0003
1000
0001
0000
,
1000
1001
0000
0110
,
0000
0010
0100
0001
,
1000
2002
3003
0000
,
1000
0001
0001
1000
,
0001
0010
0100
1000
,
0001
1000
1000
0001
,
1000
0010
0100
0001
,
1000
0100
0100
1000
,
0010
0100
0001
0010
,
0001
0100
0100
0001
,
1000
1000
0001
0001
,
1000
0020
0000
0230
,
0000
0301
1000
0001
,
0010
0200
0000
2300
,
0000
3002
0000
0103
,
0001
0001
1000
1000
,
0001
0100
0010
1000
,
0100
0001
0100
1000
,
0001
1000
0001
1000
,
2002
0000
3003
1000
,
1000
0001
0000
0001
,
0001
0100
0000
0100
,
0100
0010
0000
0010
,
0010
1000
0000
1000
,
0100
0010
0000
0010
,
0001
0100
0000
0100
,
0010
1000
0000
0001
,
1000
0001
1000
0001
,
0001
0010
0100
1000
,
1000
0010
0100
0001
,
0001
1000
0100
1000
,
0001
0100
0010
1000
,
1000
0100
0010
0001
,
0001
0100
0010
0110
,
0110
1001
1001
1000
,
0100
0010
0001
2002
,
0000
0000
0000
3003
0000
0000
0000
0000
0000
0000
0000
0000
0000
0000
0000
0000
;

//--------------- dance-single - OrangeRight ----------------
#NOTES:
     dance-single:
     OrangeRight:
     Medium:
     10:
     0,0,0,0,0:
0000
0000
0000
0000
,
0000
0000
0000
0000
,
0000
0000
0000
0000
,
0000
0000
0000
0000
,
0000
0000
0000
0000
,
1000
0000
0001
0100
0001
0000
1000
0100
,
1000
0000
0001
0010
0001
0000
1000
0010
,
1000
0000
0001
1000
0001
0000
1000
0001
,
1000
0100
0001
0100
,
2002
0000
0000
0000
3003
0000
1000
0001
,
1000
0000
0100
1000
0001
0000
0100
0001
,
1000
0000
0010
0000
0100
0001
0100
0000
,
0001
0000
0010
0001
1000
0000
0010
1000
,
0001
0000
0010
0000
0001
1000
0001
0000
,
1000
0000
0010
0100
0001
0000
1000
0100
,
0010
0000
0001
0000
1000
0010
1000
0000
,
0001
0000
0010
0100
1000
0000
0001
0100
,
0010
0000
0110
0000
1001
0000
1000
0001
,
1000
0000
1100
0000
1000
0001
0100
0000
,
0001
0000
0011
0000
0001
1000
0010
0000
,
0100
0000
0101
0000
0001
0010
0100
0000
,
0010
0000
0011
0000
0001
0100
0001
0000
,
0001
0000
0011
0000
0001
1000
0010
0000
,
1000
0000
1100
0000
1000
0001
0100
0000
,
0010
0000
0020
0030
1000
0000
2000
3000
0001
0000
0002
0003
1000
0000
0001
0000
,
1000
0001
2000
0000
0001
0000
0000
0000
,
0001
3002
1000
0000
,
1000
2003
0010
0000
,
0010
3002
0100
0000
,
0100
1003
0100
0010
,
0001
0001
1000
1000
,
0001
1001
1100
1001
,
0101
0000
2002
0000
3003
0000
1000
0001
,
1000
0100
1000
0000
0010
0100
0010
0000
,
0100
0001
0100
0000
0001
0010
0100
1000
,
0001
0010
0001
0000
0100
0010
0100
0000
,
0010
1000
0010
0000
1000
0100
0010
0001
,
1000
0001
0100
0000
0001
1000
0100
0000
,
1000
0001
0010
0000
0100
1000
0001
1000
,
0010
0100
0001
0000
0010
0100
1000
0000
,
0001
0100
0010
1000
0001
0010
0100
0100
,
1000
0010
1000
0020
0000
0130
0001
0200
,
0000
0301
0010
0001
1000
0000
1001
0000
,
0001
0010
0001
0020
0000
0130
1000
0002
,
0000
1003
0001
0020
0000
0031
1000
0020
,
0000
0000
0230
0000
0000
0000
0310
0000
0000
0100
0000
0000
0010
0000
2000
0000
,
0000
3001
0010
0100
1000
0001
1000
0000
,
1020
0130
0102
0013
,
0001
0010
1000
0000
1000
0010
0001
0000
,
2002
0000
3003
0000
0000
0000
1000
0100
,
0000
0001
0100
0000
1000
0000
0001
0010
,
0000
1000
0010
0000
0001
1000
0001
0100
,
0000
1000
0100
0000
0001
0000
1000
0010
,
0000
0001
0010
0000
1000
0001
1000
0100
,
0000
0001
0100
0000
0010
0000
0001
0100
,
0000
1000
0100
0000
0010
1000
0001
0010
,
0000
1000
0010
0000
0001
0000
1000
0001
,
1000
0001
0100
0010
0100
0010
1000
1000
,
0000
0010
0010
0000
0100
0100
0001
0001
,
0000
0010
0010
0000
0100
1000
0001
0001
,
0000
0100
0100
0000
0010
0010
1000
1000
,
0001
0100
0010
1000
0001
0000
1000
0100
,
0000
0001
0100
0000
1000
0001
1000
0010
,
0000
0001
0010
0000
1000
0001
1001
0000
,
0101
0000
0011
0000
1010
0000
1000
0100
,
0010
0001
1000
0010
0100
0001
2002
0000
,
0000
0000
0000
3003
0000
0000
0000
0000
0000
0000
0000
0000
0000
0000
0000
0000
;

//--------------- dance-single - OrangeRight ----------------
#NOTES:
     dance-single:
     OrangeRight:
     Hard:
     13:
     0,0,0,0,0:
0000
0000
0000
0000
,
0000
0000
0000
0000
,
0000
0000
0000
0000
,
0000
0000
0000
0000
,
0000
0000
0000
0000
,
1000
0000
0100
0000
0010
0000
0000
0010
0001
0000
0100
0000
0010
0000
0000
0010
,
1000
0000
0001
0000
0100
0000
0000
0100
0001
0000
1000
0000
0100
0000
0000
0100
,
1000
0000
0010
0000
0100
0000
0000
0100
0001
0000
0010
0000
0100
0000
0000
0100
,
1000
0000
0000
1000
0010
0000
0000
0010
0100
0000
0000
0100
0001
0000
0000
0001
,
2000
0000
0000
0000
0000
0000
0000
0000
0000
0000
0000
0000
3000
0000
0000
0001
1000
0000
0000
0000
0001
0000
0000
0000
1000
0000
0100
0000
1000
0000
0100
0000
,
1000
0010
0100
0001
0010
0100
0010
0001
,
1000
0000
0010
0000
0100
0000
0000
0001
1000
0000
0100
0000
0100
0000
0010
0000
,
0001
0100
0001
0010
0100
1000
0010
1000
,
0100
0000
0010
0000
0001
0000
0000
1000
0001
0000
0100
0000
0100
0000
0010
0000
,
1000
0000
0100
0000
0010
0000
0000
0001
1000
0000
0010
0000
0100
0000
0000
0001
,
0010
0000
0100
0000
1000
0000
0000
0001
1000
0000
0001
0000
0001
0000
0100
0000
,
0001
0000
0010
0000
0100
0000
0000
1000
0001
0000
0100
0000
0010
0000
0000
0010
,
0100
0000
0000
0100
0001
0000
0000
0001
1000
0000
0100
0000
1000
0001
1000
0001
,
1000
0000
0100
0000
1000
0000
0000
1000
0001
0000
0010
0000
0100
0000
1000
0000
,
0001
0000
0100
0000
0001
0000
0000
0001
1000
0000
0010
0000
0100
0000
0001
0000
,
1000
0000
0100
0000
0010
0000
0000
0010
0100
0000
1000
0000
0001
0000
0100
0000
,
0001
0000
0010
0000
0100
0000
0000
0100
0010
0000
0001
0000
1000
0000
1000
0000
,
0001
0000
0010
0000
0100
0000
0000
0010
0001
0000
0100
0000
1000
0000
0100
0000
,
0010
0000
1000
0000
0100
0000
0000
1000
0010
0000
0100
0000
0001
0000
1000
0000
,
0100
0000
2200
3300
1000
0000
2002
3003
0001
0000
0202
0303
0100
0000
0110
0000
,
0010
1000
2010
0000
0100
0000
0010
0000
,
3001
0012
0100
0010
,
1003
2010
0001
0100
,
3001
0012
1000
0100
,
1003
0000
1000
0010
1000
0000
0100
0000
,
0010
0000
0001
0100
0001
0000
1000
0100
,
1000
1100
1001
0101
,
0110
0000
2002
3003
1000
0100
0010
0001
,
1000
0100
1000
0000
0010
0000
1000
0000
0000
0000
1000
0000
0001
0000
0100
0000
,
0001
0010
0001
0000
0100
0000
0010
0000
1000
0000
0100
0000
0010
0000
0001
0000
,
0100
0010
0100
0000
0001
0000
0010
0000
0000
0000
0010
0000
0100
0000
1000
0000
,
0010
0100
0010
0000
1000
0000
0100
0000
0010
0000
0001
0000
1000
0000
1000
0000
,
0001
0100
0001
0000
0010
0000
0001
0000
0000
0000
0001
0000
1000
0000
0100
0000
,
1000
0010
1000
0000
0100
0000
0010
0000
0001
0000
0100
0000
0010
0000
1000
0000
,
0100
0010
0100
0000
1000
0000
0010
0000
0000
0000
0010
0000
0100
0000
0001
0000
,
0010
0100
1000
0001
0100
0010
1000
0001
,
1000
0100
0010
0000
0001
0000
2000
0000
0000
0000
3010
0000
0100
0000
0002
0000
,
0000
1003
0100
0001
0100
0010
0100
1000
,
0001
0100
0010
0000
1000
0000
0002
0000
0000
0000
0103
0000
0001
0000
2000
0000
,
0000
3100
1000
0020
0000
0130
0001
0020
,
0000
0000
0230
0000
0000
0000
2300
0000
0000
3002
0000
0000
0203
0000
0320
0000
,
0000
1030
0100
0001
0100
1000
0002
0000
,
0203
0000
0310
1000
0100
0001
0100
0000
,
1100
1010
0011
0101
,
2002
0000
0000
0000
3003
0000
1000
1000
,
0100
0010
0010
0000
0011
0000
0001
0001
,
0100
0000
0010
0000
0010
0000
0000
0010
1000
0000
0001
0000
1000
0000
1000
0000
,
0010
0100
0100
0000
0101
0000
0001
0001
,
1000
0000
0100
0000
0100
0000
0000
0100
1000
0000
0001
0000
1000
0100
1000
0000
,
0000
0000
0001
0100
0001
0000
0000
0000
1001
0000
0000
0000
0001
0010
0001
0000
,
0000
0000
1000
0010
1000
0000
0000
0010
1000
0000
0001
0000
1000
0100
1000
0000
,
0010
0000
0100
0001
0100
0000
0001
0000
1000
0000
0000
0000
1000
0000
1000
0000
,
0100
0100
0010
0010
0001
0001
1000
1000
,
0010
0001
0001
0010
1000
1000
0001
0001
,
0100
1000
1000
0100
0010
1000
0100
0100
,
0001
0100
0100
1000
0010
0010
0100
0100
,
0001
0000
0010
0000
1000
0000
0010
0000
0001
0000
0100
0000
0001
0100
0001
0000
,
0000
0000
1000
0100
1000
0000
0000
0000
0010
1000
0010
0000
0100
0010
0100
0000
,
0000
0000
0001
0100
0001
0000
0000
0001
0100
0000
0001
0000
0011
0000
0000
0000
,
1010
0000
0000
0000
1100
0000
0000
0000
0101
0000
0000
0000
0001
1000
0001
1000
,
0010
0100
0010
0100
0001
0000
0010
0000
1000
0000
0010
0000
2002
0000
0000
0000
,
0000
0000
0000
3003
0000
0000
0000
0000
0000
0000
0000
0000
0000
0000
0000
0000
;

//--------------- dance-single - OrangeRight ----------------
#NOTES:
     dance-single:
     OrangeRight:
     Challenge:
     15:
     0,0,0,0,0:
0000
0000
0000
0000
,
0000
0000
0000
0000
,
0000
0000
0000
0000
,
0000
0000
0000
0000
,
0000
0000
0000
0000
,
1000
0000
0100
0000
1000
0000
0001
0100
0001
0000
0010
0000
0001
0000
1000
0010
,
1000
0000
0100
0000
1000
0000
0001
1000
0001
0000
0100
0000
0001
0000
1000
0001
,
1000
0000
0010
0000
0100
0000
0001
0010
0001
0000
0100
0000
0010
0000
1000
0100
,
1000
0000
0001
0100
0001
0000
1000
0010
1000
0000
0001
0010
0001
0000
1000
0001
,
2000
0000
0000
0000
0000
0000
0000
0000
0000
0000
0000
0000
3000
0000
0000
0001
1000
0000
0000
0000
0001
0000
0000
0000
0100
0000
0010
0000
0100
0000
0010
0000
,
1000
0000
0100
0000
0001
0000
0100
0010
0001
0000
0100
0000
1000
0000
0100
0010
,
1000
0000
0001
0000
1000
0000
0100
0010
0001
0100
0010
0000
1000
0000
0001
1000
,
0001
0000
0100
0000
1000
0000
0100
0010
1000
0000
0100
0000
0001
0000
0100
0010
,
0001
0000
1000
0000
0001
0000
0100
0010
1000
0100
0010
0000
0001
0000
1000
0001
,
1000
0000
0010
0000
0001
0000
0010
1000
0100
0000
0001
0000
0100
0000
1000
0010
,
0100
0000
0001
0000
0010
0000
1000
0010
0001
0100
0010
0000
1000
0000
0001
1000
,
0001
0000
0100
0000
1000
0000
0100
0001
0010
0000
1000
0000
0010
0000
0001
0100
,
0010
0000
1000
0100
0010
0000
0001
0100
0010
0000
0010
0000
1000
0001
1000
0001
,
1000
0000
0010
0000
0001
0000
0010
1000
0100
0010
0001
0000
0100
0000
0010
0100
,
0001
0000
0100
0000
1000
0000
0100
0001
0010
0100
0010
0000
0100
0000
1000
0001
,
1000
0000
0100
0000
0001
0000
0100
1000
0010
0100
0001
0000
1000
0000
0001
0010
,
0100
0000
1000
0000
0010
0000
0100
0001
0010
0100
1000
0000
0001
0000
0100
0010
,
1000
0000
0100
0000
1000
0000
0010
0100
0001
0010
0100
0000
1000
0000
0010
0100
,
0001
0000
0010
0000
0001
0000
0100
0010
1000
0100
0010
0000
0001
0000
1000
0000
,
1001
0000
2002
3003
1100
0000
2200
3300
0011
0000
0022
0033
1001
0000
1100
0000
,
1001
0000
0001
0100
0002
0000
0100
0000
0010
0000
0010
0000
0000
0000
0010
0000
,
1000
1003
2001
0100
0010
0010
0000
0010
,
0001
3001
1000
0100
0010
0010
0100
1000
,
1000
1000
0001
0100
0010
0010
0100
0001
,
0001
0000
0001
0000
1000
0100
0010
0000
0100
0000
1000
0000
0010
0000
0100
0000
,
1000
0000
0100
0000
0001
0010
0100
0000
0010
0000
0001
0000
1000
0010
0100
0000
,
0010
0000
1000
0000
0001
0100
1000
0000
1000
0100
0001
0000
0001
0010
1000
0010
,
0001
0100
0010
1000
0002
0000
0000
0000
0103
0000
0010
0000
1000
0001
1000
0001
,
1000
0100
1000
0000
0010
0000
0M10
0000
0001
0000
0100
0000
01M0
0000
1000
0000
,
0001
0010
0001
0000
0100
0000
01M0
0000
1000
0000
1000
0010
0100
0000
0001
1000
,
0001
0010
0001
0000
0100
0000
01M0
0000
1000
0000
0010
0000
0M10
0000
0001
0000
,
1000
0100
1000
0000
0010
0000
0M10
0000
0001
0000
0100
0010
1000
0000
0001
0010
,
0100
1000
0100
0000
0010
0000
0M10
0000
1000
0000
0010
0000
0001
0000
0010
0000
,
0100
0001
0100
0000
0001
0000
0001
0000
1000
0000
0001
1000
0010
0000
1000
0001
,
0100
0001
1000
0000
0100
0000
01M0
0000
0001
0000
0100
0000
1000
0000
0100
0000
,
0010
0000
1000
0010
0100
0000
0001
0010
0100
0000
1000
0100
0010
0000
0001
0000
,
1000
0001
1000
0000
0001
0000
0102
0000
0000
0000
1003
0000
0100
0000
1200
0000
,
0000
0310
0001
0100
1000
0100
0001
1000
,
0001
1000
0001
0000
1000
0000
2100
0000
0000
0000
3001
0000
0100
0000
0120
0000
,
0000
1030
0100
0120
0000
0031
0100
0102
,
0000
0000
0023
0000
0000
0000
2030
0000
0000
3020
0000
0000
0032
0000
0203
0000
,
0000
0310
1000
0100
0001
0100
1000
0001
,
2001
0000
3100
1000
0010
0001
0010
1000
,
1010
0100
0011
1000
0101
0010
1100
0001
,
2002
0000
0000
3003
2000
3020
0032
2003
3200
0302
0023
0230
1300
0001
1000
0000
,
0100
0000
1000
0001
1000
0000
0000
0000
MMMM
0000
0000
0000
0001
1000
0001
0000
,
0100
0000
0001
1000
0001
0000
0000
0000
1000
0000
0001
0000
0010
0100
1000
0000
,
0100
0000
0010
0100
1000
0000
0000
0000
MMMM
0000
0000
0000
0001
0100
0010
0000
,
0100
0000
0001
0100
0010
0000
0100
0000
0001
0000
1000
0000
0100
1000
0010
0000
,
1000
0000
0100
1000
0010
0000
0000
0000
MMMM
0000
0000
0000
0100
0001
0010
0000
,
0001
0000
0100
0001
0010
0000
0001
0000
1000
0001
1000
0000
0001
0100
1000
0000
,
0100
0000
0001
0100
1000
0000
0000
0000
MMMM
0000
0000
0000
1100
0000
0001
0000
,
0101
0000
1000
0000
1010
0000
1000
0000
0011
0000
0001
0000
1000
0010
0100
0000
,
01M0
0000
1000
0100
0010
0000
0M10
0000
0010
1000
0100
0000
1000
0100
0010
0000
,
0001
0000
1000
0010
0100
0000
0001
0000
1000
0001
1000
0000
0001
0010
0100
0000
,
01M0
0000
0001
0100
0010
0000
0M10
0000
0010
0001
0100
0000
0100
0001
0010
0000
,
0100
0000
1000
0000
0010
0000
0100
0001
1000
0000
0100
1000
0001
1000
0010
0000
,
0M10
0000
0001
1000
0010
0000
0M10
0000
0001
0010
0100
0000
1000
0001
0100
0000
,
01M0
0000
1000
0001
0100
0000
01M0
0000
1000
0010
0100
0001
1000
0010
0001
0000
,
0001
0010
1000
0000
1000
0100
0001
0000
0001
0100
1000
0000
1000
0010
0100
0001
,
1000
0100
0010
0001
0100
1000
0100
0001
0010
0100
1000
0000
2002
0000
0000
0000
,
0000
0000
0000
3003
0000
0000
0000
0000
0000
0000
0000
0000
0000
0000
0000
0000
;

//--------------- dance-double - OrangeRight ----------------
#NOTES:
     dance-double:
     OrangeRight:
     Easy:
     5:
     0,0,0,0,0:
00000000
00000000
00000000
00000000
,
00000000
00000000
00000000
00000000
,
00000000
00000000
00000000
00000000
,
00000000
00000000
00000000
00000000
,
00000000
00000000
00000000
00000000
,
10000000
00000000
00010000
00000000
,
01000000
00000000
00001000
00000000
,
00010000
00000000
00000100
00000000
,
00001000
00000001
00001000
00000001
,
00002002
00000000
00003003
00000001
,
00001000
00000000
00001000
00000100
,
00010000
00000000
00001000
00000000
,
00001000
00000000
00010000
00001000
,
00100000
00000000
00100000
00000000
,
00010000
00000000
00010000
01000000
,
00001000
00000000
00001000
00000000
,
00010000
00000000
00001000
00010000
,
00000100
00000100
00000100
00000000
,
00001000
00000010
00000100
00000000
,
00000001
00001000
00000001
00000000
,
00001000
00000100
00010000
00000000
,
00001000
00010000
00001000
00000000
,
00010000
00001000
00100000
00000000
,
00010000
10000000
00010000
00000000
,
20000000
30000000
00200000
00300000
02000000
03000000
00010000
00000000
,
10000000
20010000
00000000
00000000
,
00000000
30020000
00000000
00000000
,
00000000
20030000
00000000
00000000
,
00000000
30020000
00000000
00000000
,
00000000
20030000
00000000
31000000
,
00000000
02000000
03000000
00200000
,
00300000
00010000
00100000
00001000
,
00010000
00000200
00000300
00000000
,
00001000
00000001
00000001
00001000
,
00000100
00010000
00000100
00000100
,
00010000
00001000
00001000
00010000
,
00001000
00100000
00010000
00010000
,
10000000
00010000
00010000
10000000
,
00100000
01000000
00010000
00010000
,
00100000
00001000
00010000
00000100
,
00001000
00001000
00000001
00000001
,
00001000
00000020
00000000
00000230
,
00000000
00000301
00001000
00000001
,
00000010
00000200
00000000
00020300
,
00000000
00032000
00000000
00103000
,
00010000
00010000
01000000
01000000
,
00100000
10000000
01000000
00000000
,
10000000
00010000
00010000
10000000
,
00100000
01000000
00100000
01000000
,
02200000
03300000
00000000
01000000
,
01000000
00010000
00000000
00010000
,
01000000
00001000
00000000
00010000
,
00010000
00001000
00000000
00010000
,
00000010
00001000
00000000
00000010
,
00000010
00000100
00000000
00000001
,
00001000
00000001
00000000
00001000
,
00001000
00000001
00000000
00000100
,
00000010
00000100
00000010
00001000
,
00000100
00010000
00010000
00001000
,
00100000
00010000
00010000
01000000
,
00001000
00010000
00010000
00000100
,
00010000
00001000
00100000
00010000
,
01000000
00100000
00100000
10000000
,
01000000
00100000
00010000
10010000
,
10010000
10010000
10010000
10000000
,
00010000
01000000
00001000
00022000
,
00000000
00000000
00000000
00033000
00000000
00000000
00000000
00000000
00000000
00000000
00000000
00000000
00000000
00000000
00000000
00000000
;

//--------------- dance-double - OrangeRight ----------------
#NOTES:
     dance-double:
     OrangeRight:
     Medium:
     10:
     0,0,0,0,0:
00000000
00000000
00000000
00000000
,
00000000
00000000
00000000
00000000
,
00000000
00000000
00000000
00000000
,
00000000
00000000
00000000
00000000
,
00000000
00000000
00000000
00000000
,
10000000
00000000
00010000
01000000
00010000
00000000
00100000
00001000
,
00100000
00000000
00001000
00010000
00001000
00000000
00010000
00000100
,
00010000
00000000
00000100
00001000
00000001
00000000
00000100
00000001
,
00001000
00000010
00000001
00000010
,
00002002
00000000
00003003
00000001
,
00001000
00000000
00000010
00001000
00000010
00000000
00000100
00000001
,
00000100
00000000
00000001
00000000
00001000
00000100
00001000
00000000
,
00000100
00000000
00010000
00000100
00010000
00000000
00001000
00010000
,
00001000
00000000
00100000
00000000
00010000
01000000
00010000
00000000
,
10000000
00000000
01000000
10000000
01000000
00000000
00100000
00010000
,
00100000
00000000
00010000
00000000
01000000
00010000
01000000
00000000
,
00010000
00000000
01000000
00001000
00010000
00000000
00001000
00010000
,
00000100
00000000
00010100
00000000
00001100
00000000
00001000
00000001
,
00002000
00000000
00003100
00000000
00000100
00010000
00001000
00000000
,
00020000
00000000
00031000
00000000
00001000
00100000
00010000
00000000
,
00020000
00000000
01030000
00000000
01000000
00001000
00010000
00000000
,
00002000
00000000
00013000
00000000
00010000
00001000
00010000
00001000
,
00200000
00000000
00310000
00000000
00010000
01000000
00001000
00000000
,
00002000
00000000
00013000
00000000
00010000
00000010
00001000
00000000
,
00001000
00000000
00002000
00003000
00000100
00000000
00000200
00000300
00010000
00000000
00020000
00030000
00001000
00000000
00001000
00000000
,
00100000
00010000
02000000
00000000
00000000
00000000
00010000
00000000
,
00000000
03002000
00000000
00100000
,
00000000
00023000
00000100
00000000
,
00000100
00030020
00001000
00000000
,
00001030
00000000
00001000
00000001
00001000
00000000
00000010
00000000
,
00000100
00000000
00000001
00001000
00000001
00000000
00001000
00000001
,
00001000
00000000
00000010
00000100
00000010
00000100
00000001
00001000
,
00000001
00000000
00002002
00000000
00003003
00000000
00001000
00000001
,
00001000
00000100
00001000
00000000
00000001
00001000
00000001
00000000
,
00001000
00000010
00001000
00000000
00000100
00010000
00001000
00000000
,
00010000
00001000
00010000
00000000
00001000
00100000
00001000
00000000
,
00100000
00010000
00100000
00000000
00010000
01000000
00100000
00000000
,
10000000
00010000
00100000
00000000
00010000
00100000
00001000
00000000
,
00010000
00000010
00001000
00000000
00000001
00000010
00000100
00000010
,
00000001
00001000
00000100
00000000
00001000
00000100
00010000
00000000
,
00001000
00100000
00001000
00100000
00010000
01000000
00010000
00000000
,
10000000
00010000
10000000
00020000
00000000
01030000
00010000
02000000
,
00000000
03010000
00100000
00001000
00010000
00000100
00001000
00000000
,
00000001
00001000
00000001
00002000
00000000
00003010
00001000
00000002
,
00000000
00000103
00000001
00000020
00000000
00000130
00001000
00000020
,
00000000
00000000
00002030
00000000
00000000
00000000
00003200
00000000
00000000
00020300
00000000
00000000
00032000
00000000
00203000
00000000
,
00000000
00310000
01000000
00100000
10000000
00010000
10000000
00000000
,
20010000
31000000
10020000
01030000
,
10010000
10100000
10010000
00110000
,
20020000
00000000
30030000
00000000
00000000
00000000
10000000
01000000
,
00000000
00010000
01000000
00000000
10000000
00000000
00010000
01000000
,
00000000
00001000
00010000
00000000
00000100
00001000
00000001
00000010
,
00000000
00001000
00000010
00000000
00000001
00000000
00001000
00000010
,
00000000
00010000
00001000
00000000
00100000
00010000
01000000
00100000
,
00000000
10000000
00010000
00000000
01000000
00000000
00001000
00010000
,
00000000
00000100
00001000
00000000
00000010
00000100
00000001
00001000
,
00000000
00000010
00000100
00000000
00000010
00000000
00001000
00000001
,
00001000
00000001
00000100
00000010
00000100
00000010
00001000
00001000
,
00000000
00000100
00000100
00000000
00010000
00010000
00001000
00001000
,
00000000
00100000
00100000
00000000
00010000
01000000
00010000
00010000
,
00000000
00100000
00100000
00000000
00001000
00001000
00010000
00010000
,
00000100
00000000
00001000
00000010
00001000
00000000
00000001
00000100
,
00000000
00000001
00001000
00000000
00000100
00010000
00001000
01000000
,
00000000
00010000
01000000
00000000
00010000
00000000
10010000
00000000
,
10100000
00000000
10010000
00000000
00110000
00000000
00010000
10000000
,
00100000
01000000
00010000
00100000
01000000
00000000
02200000
00000000
,
00000000
00000000
00000000
03300000
00000000
00000000
00000000
00000000
00000000
00000000
00000000
00000000
00000000
00000000
00000000
00000000
;

//--------------- dance-double - OrangeRight ----------------
#NOTES:
     dance-double:
     OrangeRight:
     Hard:
     13:
     0,0,0,0,0:
00000000
00000000
00000000
00000000
,
00000000
00000000
00000000
00000000
,
00000000
00000000
00000000
00000000
,
00000000
00000000
00000000
00000000
,
00000000
00000000
00000000
00000000
,
10000000
00000000
01000000
00000000
00100000
00000000
00000000
00100000
00010000
00000000
01000000
00000000
00001000
00000000
00000000
00001000
,
00010000
00000000
00000100
00000000
00001000
00000000
00000000
00001000
00000010
00000000
00000100
00000000
00000001
00000000
00000000
00000001
,
00001000
00000000
00000100
00000000
00000010
00000000
00000000
00000001
00001000
00000000
00000010
00000000
00000100
00000000
00000000
00000001
,
00001000
00000000
00000000
00001000
00000100
00000000
00000000
00000100
00000010
00000000
00000000
00000010
00000001
00000000
00001000
00000000
,
00002002
00000000
00000000
00000000
00000000
00000000
00000000
00000000
00000000
00000000
00000000
00000000
00003003
00000000
00000000
00000001
00001000
00000000
00000000
00000000
00000001
00000000
00000000
00000000
00000100
00000000
00000010
00000000
00000100
00000000
00000010
00000000
,
00001000
00000100
00000010
00000100
00001000
00000010
00000100
00000010
,
00001000
00000100
00010000
00001000
01000000
00010000
00100000
00100000
,
00010000
01000000
00100000
01000000
00010000
00100000
01000000
00100000
,
00010000
01000000
00001000
00010000
00000100
00001000
00000010
00000010
,
00001000
00000100
00000001
00000100
00001000
00000010
00010000
00001000
,
00100000
00010000
01000000
10000000
01000000
00010000
10000000
10000000
,
00010000
00000000
00100000
00000000
10000000
00000000
00100000
00000000
00010000
00000000
01000000
00000000
00100000
00000000
00000000
00100000
,
01000000
00000000
00000000
01000000
00010000
00000000
00000000
00010000
00100000
00000000
01000000
00000000
10000000
00010000
10000000
00010000
,
10000000
00000000
01000000
00000000
00010000
00000000
00000000
00010000
01000000
00000000
10000000
00000000
00100000
00000000
01000000
00000000
,
00010000
00000000
00100000
00000000
00001000
00000000
00000000
00010000
00000100
00000000
00001000
00000000
00000010
00000000
00001000
00000000
,
00000001
00000000
00000010
00000000
00001000
00000000
00000000
00001000
00000010
00000000
00000001
00000000
00000100
00000000
00000010
00000000
,
00001000
00000000
00000100
00000000
00010000
00000000
00000000
00001000
00100000
00000000
00010000
00000000
01000000
00000000
00010000
00000000
,
10000000
00000000
01000000
00000000
00010000
00000000
00000000
00010000
01000000
00000000
00100000
00000000
00010000
00000000
01000000
00000000
,
00001000
00000000
00010000
00000000
00000100
00000000
00000000
00000100
00001000
00000000
00000010
00000000
00000001
00000000
00000010
00000000
,
00001000
00000000
00002200
00003300
00000100
00000000
00020200
00030300
00010000
00000000
00022000
00033000
00001000
00000000
00101000
00000000
,
00100000
00010000
20010000
00000000
01000000
00000000
00010000
00000000
,
30100000
10020000
00100000
10000000
,
01030000
01002000
00010000
00100000
,
00013000
00020010
00001000
00000100
,
00031000
00000000
00001000
00010000
00000100
00000000
00001000
00000000
,
00000010
00000000
00010000
00001000
00100000
00000000
00001000
00010000
,
00000010
00010010
00101000
00010100
,
01001000
00000000
02020000
03030000
00010000
00100000
01000000
10000000
,
00010000
00100000
00010000
00000000
01000000
00000000
00010000
00000000
00000000
00000000
01000000
00000000
00010000
00000000
00100000
00000000
,
00001000
00010000
00001000
00000000
00010000
00000000
00000100
00000000
00001000
00000000
00000010
00000000
00000100
00000000
00000001
00000000
,
00001000
00000010
00001000
00000000
00000100
00000000
00001000
00000000
00000000
00000000
00000100
00000000
00001000
00000000
00000010
00000000
,
00010000
00001000
00010000
00000000
00001000
00000000
01000000
00000000
00010000
00000000
00100000
00000000
01000000
00000000
10000000
00000000
,
00100000
10000000
00100000
00000000
01000000
00000000
00010000
00000000
00000000
00000000
00100000
00000000
00001000
00000000
00010000
00000000
,
00001000
01000000
00001000
00000000
00010000
00000000
00000010
00000000
00001000
00000000
00000100
00000000
00000010
00000000
00000001
00000000
,
00000100
00000001
00000100
00000000
00000010
00000000
00001000
00000000
00000000
00000000
00000100
00000000
00010000
00000000
00001000
00000000
,
00100000
00010000
01000000
10000000
01000000
00010000
00100000
00000000
,
00010000
00100000
00010000
00000000
01000000
00000000
00002000
00000000
00000000
00000000
00013000
00000000
00000100
00000000
00002000
00000000
,
00000000
00003010
00001000
00000100
00000001
00000100
00001000
00000010
,
00001000
00000100
00001000
00000000
00000010
00000000
00020000
00000000
00000000
00000000
00031000
00000000
00100000
00000000
00020000
00000000
,
00000000
01030000
00100000
20000000
00000000
30010000
01000000
00200000
,
00000000
00000000
20300000
00000000
00000000
00000000
30020000
00000000
00000000
00230000
00000000
00000000
02300000
00000000
03200000
00000000
,
00000000
00310000
01000000
00001000
00010000
00000100
00002000
00000000
,
00003200
00000000
00001300
00000010
00010000
00001000
00100000
00000000
,
00110000
01010000
11000000
10100000
,
20020000
00000000
00000000
00000000
30030000
00000000
10000000
10000000
,
01000000
00100000
00100000
00000000
00110000
00000000
00100000
00100000
,
00010000
00000000
01000000
00000000
01000000
00000000
00000000
01000000
00010000
00000000
01000000
00000000
00001000
00000000
00001000
00000000
,
00010000
00000100
00000100
00000000
00001100
00000000
00001000
00001000
,
00000001
00000000
00000100
00000000
00000100
00000000
00000000
00000100
00000010
00000000
00001000
00000000
00000001
00000000
00000001
00000000
,
00000010
00000100
00000100
00000000
00001100
00000000
00000100
00000100
,
00001000
00000000
00000010
00000000
00000010
00000000
00000000
00000010
00001000
00000000
00000010
00000000
00010000
00000000
00010000
00000000
,
00001000
00100000
00100000
00000000
00110000
00000000
00010000
00010000
,
10000000
00000000
10000000
00000000
00100000
00000000
00100000
00000000
01000000
00000000
01000000
00000000
00010000
01000000
00010000
00000000
,
00000000
00000000
10000000
01000000
10000000
00000000
00000000
00000000
00100000
01000000
00100000
00000000
10000000
00000000
10000000
00000000
,
00010000
00000000
01000000
00000000
01000000
00000000
00001000
00000000
00010000
00000000
00000100
00000000
00001000
00000010
00001000
00000000
,
00000000
00000000
00000001
00000010
00000001
00000000
00000000
00000000
00001000
00000001
00001000
00000000
00000001
00000000
00000001
00000000
,
00000100
00000000
00000010
00000000
00001000
00000000
00000100
00000000
00010000
00000000
00001000
00000000
00100000
00001000
00100000
00000000
,
00000000
00000000
00001000
00010000
00001000
00000000
00000000
00000000
00010000
00000100
00010000
00000000
00001000
00010000
00001000
00000000
,
00000000
00000000
01000000
00001000
01000000
00000000
00000000
01000000
00010000
00000000
10000000
00000000
10010000
00000000
00000000
00000000
,
00101000
00000000
00000000
00000000
00010010
00000000
00000000
00000000
00001001
00000000
00000000
00000000
00000001
00000010
00000001
00000010
,
00000100
00001000
00000100
00001000
00000010
00000000
00010000
00000000
00001000
00000000
00010000
00000000
00022000
00000000
00000000
00000000
,
00000000
00000000
00000000
00033000
00000000
00000000
00000000
00000000
00000000
00000000
00000000
00000000
00000000
00000000
00000000
00000000
;

//--------------- dance-double - OrangeRight ----------------
#NOTES:
     dance-double:
     OrangeRight:
     Challenge:
     15:
     0,0,0,0,0:
00000000
00000000
00000000
00000000
,
00000000
00000000
00000000
00000000
,
00000000
00000000
00000000
00000000
,
00000000
00000000
00000000
00000000
,
00000000
00000000
00000000
00000000
,
10000000
00000000
01000000
00000000
00100000
00000000
00010000
01000000
00010000
00000000
00100000
00000000
00001000
00000000
00010000
00001000
,
00010000
00000000
00000100
00000000
00001000
00000000
00000010
00001000
00000010
00000000
00000100
00000000
00000001
00000000
00000010
00000001
,
00000010
00000000
00000100
00000000
00001000
00000000
00000010
00001000
00000010
00000000
00010000
00000000
00001000
00000000
00100000
00010000
,
00100000
00000000
00010000
01000000
00010000
00000000
01000000
00100000
01000000
00000000
00100000
10000000
00100000
00000000
10000000
00010000
,
20000000
00000000
00000000
00000000
00000000
00000000
00000000
00000000
00000000
00000000
00000000
00000000
00000000
00000000
30000000
00010000
10000000
00000000
00000000
00000000
00010000
00000000
00000000
00000000
01000000
00000000
00100000
00000000
01000000
00000000
00100000
00000000
,
10000000
00000000
01000000
00000000
00100000
00000000
00010000
01000000
00001000
00000000
00010000
00000000
00000100
00000000
00001000
00000010
,
00000100
00000000
00000001
00000000
00001000
00000000
00000010
00000000
00001000
00000100
00000010
00000000
00000001
00000000
00000100
00000000
,
00000001
00000000
00000010
00000000
00000100
00000000
00001000
00000010
00010000
00000000
00001000
00000000
00100000
00000000
00010000
01000000
,
00100000
00000000
10000000
00000000
00010000
00000000
01000000
00000000
00010000
00100000
01000000
00000000
10000000
00000000
00100000
00000000
,
10000000
00000000
01000000
00000000
00010000
00000000
01000000
00100000
00010000
00000000
01000000
00000000
00001000
00000000
00010000
00000100
,
00001000
00000000
00000010
00000000
00000100
00000000
00000001
00001000
00000100
00000010
00000100
00000000
00001000
00000000
00000001
00001000
,
00000001
00000000
00000010
00000000
00001000
00000000
00000010
00000100
00001000
00000000
00000010
00000000
00010000
00000000
00001000
00100000
,
00010000
00000000
00010000
01000000
00001000
00000000
00001000
00010000
00000100
00000000
00010000
00000000
00001000
00010000
00001000
00010000
,
00001000
00000000
00100000
00000000
00010000
00000000
01000000
00100000
01000000
00010000
00100000
00000000
01000000
00000000
10000000
00100000
,
10000000
00000000
00010000
00000000
01000000
00000000
00010000
00100000
00001000
00010000
00000100
00000000
00001000
00000000
00000010
00000000
,
00010000
00000000
00000010
00000000
00001000
00000000
00000100
00000010
00000100
00001000
00000010
00000000
00000100
00000000
00000001
00001000
,
00000001
00000000
00001000
00000000
00000100
00000000
00001000
00000010
00010000
00001000
00100000
00000000
00010000
00000000
01000000
00000000
,
00010000
00000000
00100000
00000000
01000000
00000000
10000000
00100000
01000000
00010000
00100000
00000000
00001000
00000000
00010000
00000010
,
00001000
00000000
00000001
00000000
00000010
00000000
00000100
00001000
00000001
00000100
00000010
00000000
00001000
00000000
00000001
00000000
,
00001001
00000000
00002002
00003003
00001100
00000000
00002200
00003300
00010100
00000000
00020200
00030300
00011000
00000000
00101000
00000000
,
00110000
00000000
00010000
00000000
01000000
00010000
01000000
00000000
00010000
00000000
00100000
00000000
00000000
00000000
00100000
00000000
,
00001000
00000000
00010000
00000000
00000010
00001000
00000010
00000000
00001000
00000000
00000100
00000000
00000000
00000000
00000100
00000000
,
00010000
00000000
00001000
00000000
01000000
00010000
01000000
00000000
00010000
00000000
00100000
00000000
00001000
00000000
00010000
00000000
,
00010000
00000000
00010000
00000000
00000010
00001000
00000010
00000000
00001000
00000000
00000100
00000000
00010000
00000000
00001000
00000000
,
00001000
00000000
00001000
00000000
01000000
00001000
00010000
00000000
00001000
00000000
00100000
00000000
00010000
00000000
00100000
00000000
,
00001000
00000000
00010000
00000000
00000010
00010000
00001000
00000000
00100000
00000000
00010000
00000000
01000000
00001000
00010000
00000000
,
00000100
00000000
00001000
00000000
00000010
00010000
00001000
00000000
00100000
00001000
00010000
00000000
00000100
00010000
00001000
01000000
,
00010000
00100000
01000000
10000000
00200000
00000000
00000000
00000000
01300000
00000000
00100000
00000000
10000000
00010000
10000000
00010000
,
10000000
00100000
10000000
00000000
01000000
00000000
01M00000
00000000
00010000
00000000
00100000
00000000
01000000
00000000
00100000
00000000
,
00010000
00100000
00010000
00000000
01000000
00000000
00001000
00000000
00010000
00000000
00001000
00010000
00000010
00000000
00010000
00001000
,
01000000
00010000
01000000
00000000
00010000
00000000
00M10000
00000000
00001000
00000000
00010000
00000000
00000100
00000000
00001000
00000000
,
00000010
00001000
00000010
00000000
00000100
00000000
00000001
00000000
00000010
00000000
00000100
00001000
00000010
00000000
00000010
00000100
,
00000001
00000100
00000001
00000000
00000010
00000000
00000M10
00000000
00001000
00000000
00000100
00000000
00000010
00000000
00000100
00000000
,
00001000
00000100
00001000
00000000
00000010
00000000
00010000
00000000
00001000
00000000
00010000
00001000
00100000
00000000
00001000
00010000
,
00000010
00001000
00000010
00000000
00001000
00000000
00001M00
00000000
00010000
00000000
00001000
00000000
00100000
00000000
00010000
00000000
,
01000000
00000000
00010000
00100000
00010000
00000000
10000000
00100000
10000000
00000000
00010000
01000000
00010000
00000000
10000000
00000000
,
00010000
00100000
00010000
00000000
00100000
00000000
00102000
00000000
00000000
00000000
00013000
00000000
00001000
00000000
00021000
00000000
,
00000000
00030100
00001000
00000010
00000001
00000010
00001000
00000100
,
00001000
00000010
00001000
00000000
00000100
00000000
00020100
00000000
00000000
00000000
00031000
00000000
00100000
00000000
00120000
00000000
,
00000000
01030000
00100000
20100000
00000000
31000000
00100000
00120000
,
00000000
00000000
02030000
00000000
00000000
00000000
23000000
00000000
00000000
32000000
00000000
00000000
03020000
00000000
00230000
00000000
,
00000000
00301000
00010000
00100000
00010000
00001000
00000020
00000000
,
00000032
00000000
00000103
00000010
00001000
00000100
00000001
00000100
,
00001100
00000010
00000101
00001000
00000011
00000100
00001010
00000001
,
00002002
00000000
00000000
00003003
00000002
00000203
00002300
00023000
02030000
23000000
30200000
02300000
03010000
00100000
00010000
00000000
,
00100000
00000000
00001000
00010000
00001000
00000000
00000000
00000000
00011000
00000000
00000000
00000000
00010000
00001000
00010000
00000000
,
00000100
00000000
00001000
00000100
00001000
00000000
00000000
00000000
00001000
00000000
00000001
00000000
00001000
00000010
00001000
00000000
,
00000010
00000000
00010000
00001000
00010000
00000000
00000000
00000000
00011000
00000000
00000000
00000000
00001000
00010000
00001000
00000000
,
01000000
00000000
00010000
01000000
00010000
00000000
00000000
00000000
00010000
00000000
10000000
00000000
00100000
10000000
00100000
00000000
,
01000000
00000000
00010000
00100000
00010000
00000000
00000000
00000000
00110000
00000000
00000000
00000000
00100000
00001000
00100000
00000000
,
00001000
00000000
00010000
00000100
00010000
00000000
00000000
00000000
00000100
00000000
00001000
00000000
00000010
00000100
00000010
00000000
,
00001000
00000000
00000001
00001000
00000001
00000000
00000000
00000000
00001001
00000000
00000000
00000000
00001010
00000000
00001000
00000000
,
00001100
00000000
00000100
00000000
00010100
00000000
00010000
00000000
00001000
00010000
00001000
00010000
00001000
00100000
00010000
00000000
,
01000000
00000000
00010000
00100000
01000000
00000000
10000000
00000000
00100000
01000000
00010000
00000000
10000000
01000000
10000000
00000000
,
00100000
00000000
01000000
00010000
01000000
00000000
00010000
00000000
00100000
00000000
00001000
00000000
00010000
00000100
00001000
00000000
,
00000010
00000000
00001000
00000100
00000010
00000000
00000001
00000000
00000100
00000010
00001000
00000000
00000001
00000010
00000100
00000000
,
00001000
00000000
00000010
00000000
00010000
00000000
00001000
00000000
00100000
00000000
00010000
00000000
01000000
00010000
00100000
00000000
,
001M0000
00000000
01000000
00010000
00100000
00000000
001M0000
00000000
01000000
00001000
00010000
00000000
00000010
00001000
00000100
00000000
,
0000M100
00000000
00000010
00001000
00000100
00000000
0000M100
00000000
00000010
00000000
00010000
00000000
00001000
00100000
00010000
00000000
,
00010000
01000000
00001000
00000000
00010000
00000010
00001000
00000000
00001000
00000100
00010000
00000000
00001000
00100000
00010000
01000000
,
00001000
00010000
00000100
00001000
00000010
00000001
00000010
00001000
00000100
00000010
00000001
00000000
00002002
00000000
00000000
00000000
,
00000000
00000000
00000000
00003003
00000000
00000000
00000000
00000000
00000000
00000000
00000000
00000000
00000000
00000000
00000000
00000000
;
