#TITLE:In The Breeze;
#SUBTITLE:;
#ARTIST:96 & Sota ft. Mayumi Morinaga;
#TITLETRANSLIT:;
#SUBTITLETRANSLIT:;
#ARTISTTRANSLIT:;
#GENRE:;
#CREDIT:;
#MUSIC:In The Breeze.ogg;
#BANNER:In The Breeze.png;
#BACKGROUND:In The Breeze-bg.png;
#CDTITLE:;
#SAMPLESTART:58.160;
#SAMPLELENGTH:15.000;
#SELECTABLE:YES;
#OFFSET:0.000;
#BPMS:0.000=123.000
,20.000=142.000
;
#STOPS:;
#BGCHANGES:;
#FGCHANGES:;

//--------------- dance-single - chronon ----------------
#NOTES:
     dance-single:
     chronon:
     Beginner:
     3:
     0,0,0,0,0:
0000
0000
0000
0000
,
0000
0000
0000
0000
,
0000
0000
0000
0000
,
0000
0000
0000
0000
,
0000
0000
0000
0000
,
1000
0000
0010
0000
,
1001
0000
1000
0000
,
0100
0000
0010
0000
,
0001
0000
0100
0000
,
0010
0000
0100
0000
,
1001
0000
0001
0000
,
0010
0000
0100
0000
,
1000
0000
0010
0000
,
0100
0000
0020
0000
,
0230
0000
0000
0000
,
0000
0300
0000
0000
,
0001
0000
0010
0000
,
0100
0000
1000
0000
,
0001
0000
0100
0000
,
0010
0000
1000
0000
,
1000
0000
0100
0000
,
0010
0000
0001
0000
,
1000
0000
0010
0000
,
0100
0000
0001
1000
,
0001
0000
0010
0000
,
0100
0100
1000
0000
,
1000
0000
0010
0000
,
0100
0100
0001
0000
,
0010
0000
1000
0000
,
0010
0010
0001
0000
,
1000
0000
0010
0000
,
0100
0000
0001
0000
,
2002
0000
0000
0000
,
3003
0000
0000
0000
,
1001
0000
1000
0000
,
0100
0100
0010
0010
,
0001
0000
0100
0000
,
0010
0000
1001
0000
,
1000
0000
0010
0000
,
0100
0100
0010
0010
,
1000
0000
0100
0000
,
0001
0000
0010
0000
,
1000
0000
0100
0000
,
0010
0000
0001
0000
,
1000
0000
0010
0000
,
0100
0000
1001
0000
,
0001
0000
0010
0200
,
0000
0300
0000
0000
,
1000
0000
0010
0010
,
0100
0100
0001
0001
,
1000
0000
0100
0100
,
0010
0000
1001
0000
,
0001
0001
0100
0000
,
0010
0010
1000
0000
,
1000
1000
0100
0000
,
0010
0010
0002
0000
,
0203
0000
0000
0000
,
0000
0300
0000
0000
,
0000
0000
0000
0001
0000
0000
0000
0000
0000
0001
0000
0000
0000
0000
0000
0001
,
0000
0000
0000
2002
0000
0000
0000
0000
,
0000
0000
0000
0000
,
3003
0000
0000
0000
;

//--------------- dance-single - chronon ----------------
#NOTES:
     dance-single:
     chronon:
     Easy:
     7:
     0,0,0,0,0:
0000
0000
0000
0000
,
0000
0000
0000
0000
,
0000
0000
0000
0000
,
0000
0000
0000
0000
,
0000
0000
0000
0000
,
0001
0000
0000
0001
0000
0000
0001
0000
1000
0000
0000
0010
0000
0000
0000
0000
,
1000
0001
0010
0100
,
1000
0001
0100
0101
,
0001
0100
0010
1000
,
1100
0000
0000
1002
0000
0103
0001
0000
,
0001
0010
0100
1000
,
0001
0000
0000
0000
0100
0000
0000
0000
0010
0000
0000
0010
0000
0000
0010
0000
,
1000
0100
0010
0001
,
0011
0000
0000
2001
0000
3010
0200
0000
,
0301
0000
0010
0000
0000
0010
0000
0000
0100
0000
0000
0100
0000
0000
1000
0000
,
0000
0000
0000
2020
0000
0000
0000
0000
0000
0000
0000
0000
3030
0000
0000
0000
,
1000
0010
0100
0100
,
0001
0010
0100
0100
,
0001
0100
1000
0001
,
1000
0010
0001
0100
,
1000
0100
0010
0010
,
0001
0100
0010
0010
,
0001
0000
0000
0000
0010
0000
0000
0000
1000
0000
0000
1000
0000
0000
0100
0000
,
0000
0010
0000
1000
0000
0010
0000
0001
,
1000
0000
0000
0001
0000
0000
1000
0000
0000
0000
0010
0000
0100
0000
0000
0000
,
0001
0010
0100
1000
,
0001
0000
0000
1000
0000
0000
0001
0000
0000
0000
0100
0000
0010
0000
0000
0000
,
1000
0100
0010
0001
,
0100
0000
0000
0010
0000
0000
0100
0000
0000
0000
1000
0000
0000
0000
0100
0000
,
0010
1000
0001
1000
,
1100
0000
0110
0000
,
0011
0000
1001
0000
,
0000
1000
0000
0000
1000
0000
0000
0001
0000
0000
0001
0000
0000
0020
0000
0000
,
0000
0031
0000
0000
0001
0000
0000
0200
0000
0000
0000
0000
0000
0000
0000
0310
,
0000
0000
1000
0000
0100
0000
0100
0010
,
0000
0001
0100
0100
,
0010
0000
1000
0000
,
0001
0000
0000
0000
1000
0000
0000
0000
2001
0000
0000
0000
0000
0000
0000
3100
,
0000
1000
0010
0010
,
0100
0001
0010
0010
,
0100
0000
1000
0000
,
0001
1000
1001
0000
,
0001
0100
0010
1000
,
0100
0100
0010
0010
,
0001
0010
0100
1000
,
1100
0000
0000
1001
0000
0000
0000
0000
,
0001
0000
0100
0000
0010
0000
0100
0110
,
0000
0110
0000
0000
0000
0000
0000
0000
,
2002
0000
0000
0000
0000
0000
3003
0000
1000
0000
0000
0100
0000
0000
0020
0000
,
0000
0031
1000
0001
0010
0000
0001
0000
,
0010
0100
1000
0000
0010
0000
0100
0000
,
0101
0000
0000
2002
0000
0000
0000
3003
,
1000
0000
0000
0000
0100
0000
0000
0000
0001
0000
0000
0100
0000
0000
1000
0000
,
0000
0001
1000
0000
0010
0000
0100
0000
,
0001
0000
0000
1000
0000
0000
0020
0000
0100
0000
0000
0000
1000
0000
0000
0000
,
1030
0000
0000
0001
0000
0000
0020
0000
0000
0000
0000
0000
0000
0000
0000
0000
,
0130
0000
0010
0000
0000
0010
0000
0000
0100
0000
0000
0100
0000
0000
1000
0000
,
0000
0000
0000
2020
0000
0000
0000
0000
0000
0000
0000
0000
3030
0000
0000
0000
,
0000
0000
0000
1000
0000
0001
0000
0000
0000
0010
0000
0001
0000
0000
0000
0100
,
0000
0001
0000
1000
0000
0000
2002
0000
0000
0000
0000
0000
0000
0000
0000
0000
,
0000
0000
0000
0000
,
3003
0000
0000
0000
;

//--------------- dance-single - chronon ----------------
#NOTES:
     dance-single:
     chronon:
     Medium:
     11:
     0,0,0,0,0:
0000
0000
0000
0000
,
0000
0000
0000
0000
,
0000
0000
0000
0000
,
0000
0000
0000
0000
,
0000
0000
0000
0000
,
1000
0000
0000
0010
0000
0000
0100
0000
0001
0000
0010
0100
0000
0000
0000
0000
,
1100
0000
0000
0000
1000
0100
0000
0000
0010
0000
0000
0100
1000
0000
0001
0000
,
0000
0000
0001
0000
0100
0010
0000
0000
0100
0000
0000
0000
1001
0000
0000
0000
,
0001
0000
0000
0000
0010
0000
0000
0000
0100
0000
0000
1000
0001
0000
0100
0000
,
0201
0000
0000
0310
0000
0000
1002
0000
0000
0000
0013
0100
1000
0000
0001
0000
,
0101
0000
0000
0000
0001
0100
0000
0000
0010
0000
0000
0100
0001
0000
1000
0000
,
0000
0000
1000
0000
0100
0010
0000
0000
0100
0000
0000
1000
0000
0000
0010
0000
,
1010
0000
0000
0000
0010
0000
0000
0000
0100
0000
0000
0001
1000
0000
0100
0000
,
1100
0000
0000
0100
0000
0000
1002
0000
0000
0000
0103
0000
0010
0000
1000
0000
,
0100
0000
1100
0000
0000
1001
0000
0000
1010
0000
0000
1002
0000
0000
0013
0000
,
0000
0000
0000
0202
0000
0000
0000
0000
0000
0000
0000
0000
0303
0000
0000
0000
,
0001
0000
0000
0000
0200
0000
0000
0010
0000
0000
1000
0000
0000
0000
0310
0000
,
1000
0000
0000
0000
0200
0000
0000
0010
0000
0000
0001
0000
0000
0000
0310
0000
,
0001
0000
0000
1000
0000
0000
0020
0000
0000
0000
0000
0000
0130
0000
0000
0000
,
0001
0000
0010
0000
0000
0010
0000
0000
0010
0000
0100
0000
1000
0000
0001
0000
,
1000
0000
0000
0000
0020
0000
0000
0100
0000
0000
0001
0000
0000
0000
0130
0000
,
0001
0000
0000
0000
0020
0000
0000
0100
0000
0000
1000
0000
0000
0000
0130
0000
,
1000
0000
0000
0000
0010
0000
0000
0000
0100
0000
0000
0001
0000
0000
0010
0000
,
0000
0000
0100
0000
0000
0001
0000
0000
0100
0000
0000
1000
0000
0000
0001
0000
,
1000
0000
0000
0010
0000
0000
0100
0000
0000
0000
0010
0000
1000
0000
0001
0000
,
1000
0001
0000
0020
0000
0000
0031
0000
1000
0000
0000
0020
0000
0000
1030
0000
,
0001
0000
0000
0010
0000
0000
0100
0000
0000
0000
0010
0000
0001
0000
1000
0000
,
0001
1000
0000
0010
0000
0100
0000
0000
0010
0000
0200
0000
1000
0000
0000
0000
,
0310
0000
0000
0100
0000
0000
0002
0000
0000
0000
0010
0000
0000
0000
1003
0000
,
0001
1000
0000
0020
0000
0000
1030
0000
0001
0000
0000
0020
0000
0000
0130
0000
,
0012
0103
2010
3100
,
0012
0000
0000
0000
0103
0000
0000
0000
0010
0000
0000
1000
0000
0000
0001
0000
,
0100
0001
0000
0000
1000
0000
0000
0100
0000
0000
2000
0000
0000
0010
0000
3010
,
0000
0100
0000
0000
0010
0000
0000
0002
0000
0000
0013
0000
0100
0000
0000
1000
,
0000
0000
0100
0000
0001
0000
1000
0000
0100
0000
0000
0100
0000
0000
0001
0000
,
0000
0000
0100
0000
0010
0000
0001
0000
1000
0000
0000
0010
0000
0000
0100
0000
,
0001
0010
0100
0010
0001
0100
0010
0100
,
0102
0000
0000
0013
0000
0000
2001
0000
0000
0000
3100
0000
0010
0000
0000
1000
,
0000
0000
0010
0000
0001
0000
0100
0000
0010
0000
0000
0010
0000
0000
0001
0000
,
0000
0000
0010
0000
1000
0000
0001
0000
0011
0000
0000
0110
0000
0000
1100
0000
,
1000
0001
0100
0010
1000
0001
0010
0001
,
0101
0000
0000
0110
0000
0000
2020
0000
0000
0000
0000
0000
3030
0000
1000
0000
,
0010
0100
0001
1000
0100
0010
0001
1000
,
0020
0000
0000
1000
0000
0000
0130
0000
0200
0000
0000
0001
0000
0000
0310
0000
,
0100
0010
1000
0001
0010
0100
1000
0001
,
0021
0000
0000
0130
0000
0000
2001
0000
0000
0000
3010
0000
0100
0010
0000
0100
,
0001
0000
1000
0000
0100
0000
0000
0010
0000
0100
0000
1000
0000
0000
1100
0000
,
0000
1200
0000
0000
0000
0000
1300
0020
,
0001
0000
0000
0000
0130
0000
0001
0000
1000
0000
0000
0100
0000
0000
0002
0000
,
0000
0103
0010
0001
1000
0001
0100
0001
,
1000
0000
0010
0000
1000
0000
0000
0100
0000
0000
0010
0000
0001
0000
1000
0000
,
0010
0000
0100
0000
0001
0000
0020
0000
0000
0000
0000
0000
0030
0110
0000
0000
,
0010
0000
0001
0000
1000
0000
0100
0000
0002
0000
0000
1000
0000
0000
0103
0000
,
0010
0000
0001
0000
1000
0000
0000
0010
0000
0000
0100
0000
0001
0000
0010
0000
,
0100
0000
0000
1000
0000
0000
0020
0000
0100
0000
0000
0100
0000
0000
0130
0000
,
0010
0000
0000
1000
0000
0000
1200
0000
0000
0000
0310
0000
0100
0000
1000
0000
,
0010
0000
1010
0000
0000
1001
0000
0000
1100
0000
0000
1002
0000
0000
0103
0000
,
0000
0000
0000
0022
0000
0000
0000
0000
0000
0000
0000
0000
0000
0000
0000
0000
,
0033
0000
0000
0001
0000
1100
0000
0000
0000
1000
0000
0101
0000
0000
0000
0001
,
0000
0010
0000
1100
0000
0000
2002
0000
0000
0000
0000
0000
0000
0000
0000
0000
,
0000
0000
0000
0000
,
3003
0000
0000
0000
;

//--------------- dance-single - chronon ----------------
#NOTES:
     dance-single:
     chronon:
     Hard:
     15:
     0,0,0,0,0:
0000
0000
0000
0000
,
0000
0000
0000
0000
,
0000
0000
0000
0000
,
0000
0000
0000
0000
,
0000
0000
0000
0000
,
0001
0010
0000
0010
0100
1000
0010
0100
0001
0100
0020
0001
0000
0000
0000
0000
,
1030
0000
0000
0000
0001
0010
0000
0000
0100
0010
0000
0010
0001
0000
1000
0000
,
0001
0000
0100
0000
0010
0100
0000
0000
0010
1000
0000
1000
0100
0000
0000
0000
,
1000
0000
0000
0000
0100
0000
0000
0000
0010
0100
0000
0100
1000
0000
0010
0000
,
2010
0000
0000
3100
0000
0000
1001
0000
1000
0000
0010
0100
1000
0100
0010
1000
,
0001
0000
0000
0000
1000
0100
0000
0000
0010
0100
0000
0100
1000
0000
0001
0000
,
1000
0000
0010
0000
0100
0010
0000
0000
0110
0000
0000
0101
0000
0000
1001
0000
,
0011
0000
0000
0000
0010
0000
0000
0000
0100
0010
0000
0010
0001
0000
0100
0000
,
0102
0000
0000
1003
0000
0000
1200
0000
0000
0310
0100
1000
0001
0100
0010
0100
,
0001
0000
1000
0010
0100
0001
0010
0100
1000
0010
0100
0010
1000
0001
0010
0000
,
0000
0000
0000
2200
0000
0000
0000
0000
0000
0000
0000
0000
3300
0000
1000
0000
,
0010
0000
0100
0000
0001
1000
0000
0200
0000
0000
0001
0000
0310
0000
0001
0000
,
0100
0000
0010
0000
1000
0001
0000
0200
0000
0000
1000
0000
0310
0000
1000
0000
,
0100
0000
0000
0010
0000
0000
0100
0000
2000
0000
0000
0000
0001
0000
0000
0000
,
3010
0000
0100
0000
0010
1000
0000
0001
1000
0000
0100
0000
0010
0100
1000
0000
,
0010
1000
0001
0000
0100
0010
0000
0200
0000
0000
1000
0000
0310
0000
0010
1000
,
0100
0000
1000
0000
0100
0010
0000
0200
0000
0000
0001
0000
0310
0000
0001
0000
,
0100
0000
0010
0000
1000
0001
0000
0000
0002
0000
0000
1000
0000
0000
0013
0200
,
0000
0000
0310
0100
0000
0100
0001
0000
0100
1000
0000
0001
1000
0000
0010
0000
,
1000
0010
0000
0100
0001
0000
0010
0000
0100
0000
1000
0000
0001
0000
1000
0010
,
0100
0001
0000
0020
0000
0000
0130
0000
1000
0000
0000
0020
0000
0000
0130
0000
,
0001
0100
0000
0010
1000
0000
0100
0000
0010
0000
0100
0000
1000
0000
0001
0000
,
1000
0010
0000
0100
0000
0001
0000
0000
0010
0000
0100
0000
0001
0000
0100
0000
,
1000
0100
0000
0010
0001
0000
0100
0000
0020
0000
0001
0000
0000
0000
0130
0000
,
0001
0010
0000
0200
0000
0000
0310
0000
0001
0000
0000
0200
0000
0000
0310
0000
,
0201
0000
0000
0301
0010
0000
0100
0000
0012
0000
0000
1003
0010
0000
0100
0000
,
1020
0000
0000
1030
0100
0000
0010
0000
1100
0000
1000
0010
0000
0010
0100
0000
,
0100
0010
1000
0001
0010
0001
1000
0100
1000
0001
0100
0010
2000
0100
0000
3100
,
0010
0100
1000
0001
0100
0010
0100
2000
0000
0000
3100
0000
0010
0100
0000
1000
,
0100
0000
0001
0000
1000
0000
0100
0000
0010
0001
0000
0010
0100
0000
0001
0000
,
0100
0000
1000
0000
0001
0000
0100
0000
0010
1000
0000
1000
0100
0000
0010
0000
,
1000
0010
0001
1000
0010
0001
1000
0100
,
0110
0000
0000
0101
0000
0000
0021
0000
0000
0000
0130
0000
0010
0100
0000
0001
,
0100
0000
1000
0000
0001
0000
0100
0000
0010
1000
0000
0010
0100
0000
1000
0000
,
0100
0000
0001
0000
0010
0000
1000
0000
1010
0000
0000
0110
0000
0000
0011
0000
,
0101
0100
0010
0100
0001
0010
0100
1000
,
1010
0000
0000
0110
0000
0000
0201
0000
0000
0310
0100
0001
1000
0100
0010
0000
,
1000
0010
0001
1000
0010
0100
0010
1000
,
0002
0000
0000
0010
0000
0000
1003
0000
0002
0000
0000
1000
0000
0000
0103
0000
,
1000
0100
0001
1000
0100
0010
0100
1000
,
1100
0000
0000
1001
0000
0000
0101
0000
0000
0100
0010
1000
0001
0010
0000
0010
,
0100
0000
1000
0000
0010
0100
0000
0001
0000
0010
0000
0100
0000
0000
0110
0000
,
0000
0210
0000
0000
0000
0000
1300
0020
,
0001
0000
0000
0000
0130
0000
0010
1000
0001
0010
0000
0010
0100
0000
0002
0000
,
0000
0000
0103
1000
0001
1000
0010
0100
0001
0100
0010
0100
0001
1000
0100
0000
,
1000
0100
1000
0001
0100
0001
0000
0010
0100
0010
0001
1000
0001
0100
0010
0100
,
1000
0100
0010
0100
0001
0010
0200
0010
0000
0000
0000
0000
0300
0110
0000
0000
,
0100
1000
0001
1000
0010
0100
0001
0100
2000
0000
0000
0001
0000
0000
3100
0010
,
1000
0000
0001
0000
0010
0100
0000
0100
0000
1000
0010
0000
0100
0000
0010
0000
,
0110
0000
0000
0100
0001
0000
0020
0000
0100
0000
0000
0100
0000
0000
0130
1000
,
0020
0000
0000
0031
0000
0000
0021
0000
0000
0130
0010
0100
0001
1000
0100
0010
,
0001
0000
0010
0001
1000
0010
1000
0001
0100
0010
1000
0200
0000
0000
0000
0000
,
0300
0000
0000
0022
0000
0000
0000
0000
0000
0000
0000
0000
0000
0000
0000
0000
,
0033
0000
0001
0010
0000
1100
0000
1000
0001
0010
0000
1100
0000
1000
0001
0010
,
0000
1100
0000
1100
0000
1000
0020
0000
0000
0000
0000
0000
0000
0000
0000
0000
,
0000
0000
0000
0000
,
0030
0000
0000
0000
;

//--------------- dance-single - adgssagshas -NON JUDGED- ----------------
#NOTES:
     dance-single:
     adgssagshas -NON JUDGED-:
     Edit:
     19:
     0,0,0,0,0:
0000
0000
0000
0000
,
0000
0000
0000
0000
,
0000
0000
0000
0000
,
1000
0010
0100
0001
1000
0100
0020
1000
,
0000
0000
0000
0000
,
1030
0010
0001
0000
0100
0000
1000
0100
0001
0000
0010
0000
0001
0000
0100
0000
0010
0000
1000
0000
0020
0000
0001
0000
0000
0000
0000
1030
0001
1000
0001
1000
,
0001
0000
0000
0000
0101
0100
0000
0100
0010
1000
0000
1000
1100
0000
0100
0000
,
0010
0000
0100
0000
1100
0100
0000
0100
0010
0001
0000
0001
0012
0000
0000
0000
,
1003
0000
0000
0000
1010
0010
0000
0010
0100
0001
0000
0001
0011
0000
0010
0100
,
1100
0000
0000
0000
0000
0000
1000
0000
0001
0000
0000
0000
0101
0000
0100
0010
1000
0000
0001
0010
0100
0000
1000
0000
0001
0000
0100
0000
0010
0000
1000
0000
,
0001
0000
0000
0000
0011
0010
0000
0010
0100
1000
0000
1000
1010
0000
0010
0000
,
0100
0000
0010
0000
1010
0010
0000
0010
0110
0000
0000
0101
0000
0000
0011
0000
,
1001
0000
0000
0000
1100
0100
0000
0100
0010
0001
0000
0001
0101
0000
0100
0000
,
0012
0000
0000
0000
0000
0000
0000
0000
0000
0000
0000
0000
0013
0000
0000
0000
0001
0000
0000
0000
0100
0000
0000
0000
0010
0000
0000
0000
0000
0000
0000
0000
0000
0000
0000
0000
1010
0000
0000
0000
0000
0000
1000
0000
0000
0010
0000
0000
0000
0000
0000
0000
0100
0000
0000
0000
0010
0000
0000
0000
1000
0000
0000
0000
0001
0000
0000
0000
0010
0000
0000
0000
0100
0000
0000
0000
0010
0000
0000
0000
0001
0000
0000
0000
0010
0000
0000
0000
0100
0000
0000
0000
1000
0000
0000
0000
,
0010
0000
0000
0000
0000
0000
1010
0000
0000
1000
0000
0000
0010
0000
0000
0110
0000
0000
0100
0000
0000
0001
0000
0000
0011
0000
0000
0010
0000
0000
0100
0000
0000
0110
0000
0000
0100
0000
0000
1000
0000
0000
0010
0000
0100
0000
0001
0000
,
1000
0000
0000
0022
0000
0000
0000
0000
0000
0000
0000
0000
0033
0000
0001
0000
,
1000
0000
0001
0000
1000
0000
0001
0000
0000
0000
0000
0000
0010
0000
0000
0100
0000
0000
1000
0000
0000
0010
0000
0000
0000
0000
0000
0010
0000
0000
0100
0000
0000
0000
0000
0000
0001
0000
0000
0000
0000
0000
1000
0000
0000
0000
0000
0000
,
0001
0000
1000
0000
0001
0000
1000
0000
0000
0000
0000
0000
0010
0000
0000
0100
0000
0000
0001
0000
0000
0010
0000
0000
0000
0000
0000
0010
0000
0000
0100
0000
0000
0000
0000
0000
1000
0000
0000
0000
0000
0000
0010
0000
0000
0000
0000
0000
,
1010
0000
0000
0110
0000
0000
0011
0000
0110
0000
1010
1010
1101
1100
1100
0000
,
0000
0000
0000
0000
,
0100
0000
1000
0000
0010
0000
0100
0000
0000
0000
0000
0000
0001
0000
0000
0100
0000
0000
0010
0000
0000
0001
0000
0000
0000
0000
0000
0001
0000
0000
0010
0000
0000
0000
0000
0000
1000
0000
0000
0000
0000
0000
0100
0000
0000
1000
0000
0000
,
0010
0000
0100
0000
0001
0000
0010
0000
0000
0000
0000
0000
0001
0000
0000
0010
0000
0000
0100
0000
0000
0001
0000
0000
0000
0000
0000
0001
0000
0000
0100
0000
0000
0000
0000
0000
1000
0000
0000
0000
0000
0000
1100
0000
0000
0000
0000
0000
,
1010
0000
0110
0000
0000
0101
0000
0000
0011
0000
0000
0210
0000
0000
0301
0100
,
0000
0000
0000
0000
0100
0000
1000
0000
0000
0000
0010
0000
0100
0010
1000
0001
1000
0000
0100
0000
0002
0000
0103
1000
0100
0000
0002
0000
0103
0000
1000
0000
,
1010
0010
0100
0001
0010
0100
1000
0000
0100
0000
0010
0000
0100
1000
0001
1000
,
0010
0100
0001
0000
1000
0000
0010
0000
1000
0000
0100
0000
0010
0000
0100
0000
0001
0100
1000
0000
0001
0000
1000
0010
0001
0000
1000
0000
0100
0000
0001
0000
,
1000
0000
0100
0000
0010
0000
0001
0000
0100
0000
0010
0000
1000
0000
0000
0000
0010
0000
0000
0000
0100
0001
0010
0000
0100
1000
0010
0000
0100
0001
0010
0000
,
0100
0000
1000
0000
0100
0000
0010
0000
0000
0001
0000
0000
0000
0000
0000
0001
0000
0000
1000
0000
0000
0000
0000
0000
1010
0000
0000
0000
0000
0000
1001
0000
0000
0000
0000
0000
0011
0000
0000
0001
0000
0000
0010
0000
0000
0000
0000
0000
,
0001
0100
0010
1000
0100
0010
0001
0000
0020
0000
1000
0000
0130
0010
0001
1000
,
0001
1000
0010
0000
0100
0000
0010
0000
0000
0000
0100
0000
0001
0000
0000
0000
1000
0001
0010
0000
0100
0000
0010
0000
0000
0000
0100
0000
1000
0000
0000
0000
,
0011
0000
0001
0100
0010
0000
1000
0000
0101
0000
0001
0010
0001
0000
0010
0000
,
1100
0000
1000
0010
0100
0000
0001
0000
1010
0000
0000
1100
0000
0000
0120
0000
,
0031
1000
0100
0001
1000
0010
0001
1000
0010
0001
1000
0100
0001
0011
0000
0011
,
0000
0001
0010
1000
0001
0100
1000
2010
0000
0000
3010
0000
0100
0001
0000
0011
,
0010
0000
0100
0000
0010
0001
1000
0001
0100
0010
0000
0010
1000
0000
1100
0000
,
0100
0000
0000
0000
0010
0000
0000
0000
0100
0000
1000
0000
0001
0000
1000
0000
0010
0100
0010
0000
1000
0000
0001
1000
0001
0000
0010
0000
0100
0010
0100
0000
,
0110
1100
1010
0101
0011
1001
0110
1001
,
0101
0000
0000
0000
0100
0000
0010
0000
1000
0000
0000
0000
1100
0000
1000
0100
0010
0000
0100
0010
0001
0000
1000
0100
0010
0000
0001
0000
0000
0000
1100
0000
,
0100
0010
0001
0010
0100
1000
0010
0100
0101
0100
0000
0110
0010
0000
1010
0010
,
0100
0010
1000
0010
0100
0001
0010
0100
1100
0000
0000
0110
0000
0000
0011
0000
,
0001
0100
1000
0100
0000
0000
0001
0010
1000
0010
0000
0000
0100
0001
0100
1000
0000
0000
0010
0001
0010
1000
0000
0000
,
1010
0000
0000
0000
0000
0000
0000
0000
0000
0000
0000
0000
0010
0000
0000
1000
0000
0000
0001
0000
0000
0000
0000
0000
0010
0000
0000
0000
0000
0000
0000
0000
0000
0000
0000
0000
0011
0000
0000
0000
0000
0000
0001
0000
0000
0010
0000
0000
0000
0000
0000
0000
0100
0000
0000
0000
0010
0000
0000
0000
0001
0000
0000
0000
1000
0000
0000
0000
0010
0000
0000
0000
0100
0000
0000
0000
0010
0000
0000
0000
1000
0000
0000
0000
0010
0000
0000
0000
0100
0000
0000
0000
0001
0000
0000
0000
,
0011
0110
1100
1010
0101
0011
0110
1100
,
1010
0000
0010
0001
0010
1000
0100
0000
1100
0000
0100
0001
0100
1000
0010
0000
,
1010
0110
0101
0011
0110
1100
1010
0110
,
0101
0000
0000
0000
0100
0000
1000
0000
0100
0000
0000
0000
1100
0000
1000
0100
0000
0000
0010
0100
0001
0000
0100
0001
0010
0000
0011
0000
0001
0000
1000
0000
,
1010
0000
0000
0000
0110
0000
0000
0000
0100
0001
1000
0000
0100
0000
0000
0000
0010
0000
0011
0000
0000
0000
0000
0001
0100
0000
0000
0000
1010
0000
0000
0000
,
0000
0000
0000
1010
0000
0000
0000
0000
0000
0000
0000
0000
0000
0000
0000
0000
0000
0000
1000
0010
0100
1000
0000
0000
,
1100
0000
0000
0000
0110
0100
0000
0100
0001
0010
0000
0010
0011
0000
0101
0000
,
0100
0000
0000
0000
0000
0000
0010
0000
0100
0000
0001
0000
0010
0000
0000
0100
0000
0000
1000
0000
0000
0001
0000
0000
1000
0000
0000
0010
0000
0000
0100
0000
0000
0010
0000
0000
0001
0000
0000
0010
0000
0000
0100
0000
0000
0000
0000
0000
,
0001
0010
0100
0010
1000
0001
0000
1001
1000
0010
0001
1000
0010
0001
1000
0100
,
1100
0000
1000
0000
0100
0000
0010
0000
1000
0000
0001
0000
0010
0000
0000
0000
0000
0000
0011
0000
0000
0010
0000
0000
0200
0000
0000
0000
0000
0000
0000
0000
0000
0000
0000
0000
0000
0000
0000
0000
0000
0000
0000
0000
0000
0000
0000
0000
,
1300
0000
0100
0000
0001
0000
0100
0000
1000
0000
0010
0000
0001
0000
0010
0000
1000
0000
0001
0000
0010
0000
1000
0000
0001
0000
0000
0000
0000
0000
0000
0000
0000
1001
0000
0000
0000
0000
0000
0000
0000
0000
0001
0000
0100
0000
0010
0000
,
0001
0000
0011
0000
0010
0100
0000
1000
0000
0010
0001
0010
0100
0000
0101
0000
,
0011
0000
0000
0000
0000
0000
0000
0000
0000
0000
0000
0000
0000
0000
0000
0000
0000
0000
0000
0000
0000
0010
0000
0000
0100
0000
0000
0000
0000
0000
0000
0000
0000
0000
0000
0000
2100
0000
0000
0000
0000
0000
0000
0000
0000
0000
0000
0000
0100
0000
0000
0000
0000
0000
0000
0000
0000
0000
0000
0000
0000
0000
0000
0000
0000
0000
0001
0000
0000
0000
0000
0000
0000
0000
0000
0000
0000
0000
0000
0000
0000
0000
0000
0000
3010
0000
0000
0000
1000
0000
0000
0000
0100
0000
0000
0000
,
0001
0000
0000
0000
0000
0000
0000
0000
0000
0000
0000
0000
0000
0000
0000
0000
0000
0000
0100
0000
0000
0000
0000
0000
0000
0000
0000
0000
0000
0000
0000
0000
0000
0000
0000
0000
0101
0000
0000
0000
0000
0000
0001
0000
0000
0100
0000
0000
0000
0000
0000
0000
0010
0000
0000
0000
0100
0000
0000
0000
1000
0000
0000
0000
0001
0000
0000
0000
0100
0000
0000
0000
0010
0000
0000
0000
0100
0000
0000
0000
0001
0000
0000
0000
0100
0000
0000
0000
0010
0000
0000
0000
1000
0000
0000
0000
,
0100
0000
0000
0000
0000
0000
1100
0000
0000
1000
0000
0000
0001
0000
0000
0101
0000
0000
0100
0000
0000
1000
0000
0000
1100
0000
0000
0100
0000
0000
0001
0000
0000
0011
0000
0000
0000
0000
0000
0000
0000
0000
0001
0000
0010
0000
0100
0000
,
1000
0000
0000
0000
0000
0000
0000
0000
0000
0202
0000
0000
0000
0000
0000
0000
0000
0000
0000
0000
0000
0000
0000
0000
0000
0000
0000
0000
0000
0000
0000
0000
0000
0000
0000
0000
0303
0000
0000
0000
0000
0000
0001
0000
0100
0000
0010
0000
,
1000
0000
0000
0000
0001
0000
1100
0000
0000
0000
1100
0000
0000
0000
0100
1000
0001
0000
1100
0000
0000
0000
1100
0000
0000
0000
0100
1000
0001
0000
1100
0000
,
0000
0000
1100
0000
0000
0000
1100
0000
0100
1000
0001
0000
2020
0000
0000
0000
0000
0000
0000
0000
0000
0000
0000
0000
0000
0000
0000
0000
0000
0000
0000
0000
,
0000
0000
0000
0000
,
3030
0000
0000
0000
;
