#VERSION:0.83;
#TITLE:アイドル;
#SUBTITLE:;
#ARTIST:YOASOBI;
#TITLETRANSLIT:Idol;
#SUBTITLETRANSLIT:;
#ARTISTTRANSLIT:;
#GENRE:;
#ORIGIN:;
#CREDIT:;
#BANNER:Idol.png;
#BACKGROUND:Idol-bg.png;
#PREVIEWVID:;
#JACKET:Idol-jacket.png;
#CDIMAGE:;
#DISCIMAGE:Idol-bg-EN.png;
#LYRICSPATH:Idol.lrc;
#CDTITLE:;
#MUSIC:Idol.ogg;
#OFFSET:-0.006000;
#SAMPLESTART:54.560001;
#SAMPLELENGTH:12.000000;
#SELECTABLE:YES;
#BPMS:0.000=166.000;
#STOPS:;
#DELAYS:;
#WARPS:;
#TIMESIGNATURES:0.000=4=4;
#TICKCOUNTS:0.000=4;
#COMBOS:0.000=1;
#SPEEDS:0.000=1.000=0.000=0;
#SCROLLS:0.000=1.000;
#FAKES:;
#LABELS:0.000=Song Start;
#BGCHANGES:0.000=Idol.mp4=1.000=0=0=0=StretchNoLoop====,
99999=-nosongbg-=1.000=0=0=0 // don't automatically add -songbackground-
;
#KEYSOUNDS:;
#ATTACKS:
;

//---------------dance-single - ----------------
#NOTEDATA:;
#CHARTNAME:;
#STEPSTYPE:dance-single;
#DESCRIPTION:;
#CHARTSTYLE:;
#DIFFICULTY:Hard;
#METER:12;
#RADARVALUES:0.639131,0.717835,0.404032,0.729229,0.113326,454.000000,413.000000,41.000000,74.000000,0.000000,0.000000,0.000000,0.000000,0.000000,0.639131,0.717835,0.404032,0.729229,0.113326,454.000000,413.000000,41.000000,74.000000,0.000000,0.000000,0.000000,0.000000,0.000000;
#CREDIT:Ben + Keek;
#NOTES:
0000
0000
0000
0000
,
0000
0000
0000
0000
,
0000
0000
0000
0000
,
0000
0000
0000
0000
,
2001
0000
3010
0000
1000
0100
0001
0100
,
1000
0000
2020
0000
3030
0220
0000
0330
,
1002
0000
0103
0000
0001
0010
1000
0010
,
0001
0000
0202
0000
0303
0220
0000
0330
,
2001
0000
3010
0000
1020
0000
0130
0002
,
0000
2003
0000
3200
0020
0000
0330
0000
,
1001
0000
0000
0001
0000
0000
0200
0000
0000
0000
0310
0000
0000
0000
0010
0000
,
1000
0000
0000
1000
0000
0000
0200
0000
0000
0000
0310
0000
0002
0000
0000
0000
,
1003
0010
0001
0010
0200
0000
0301
1000
,
0001
0010
1000
0010
0200
0000
1300
0001
,
0100
1000
0100
1000
0100
0010
0100
0010
,
1000
0100
0001
0100
2000
0000
3010
0000
,
1001
1000
0100
1000
0020
0000
0130
0001
,
0010
0001
1000
0100
0020
0000
0130
1000
,
0010
0001
0010
0001
0010
0100
0010
0100
,
0010
1000
0001
0010
0100
1000
0001
0000
,
2000
0000
0000
3100
0000
0000
1100
0000
0000
0000
1000
0000
0010
0000
0100
0000
,
0002
0000
0000
0013
0000
0000
0011
0000
0000
0000
0001
0000
0100
0000
0010
0000
,
1000
0100
0001
0000
0001
0100
1000
0000
,
0001
0000
0100
0000
1000
0000
0100
0000
0010
0000
1000
0001
1000
0000
0100
0000
,
1100
0000
0000
0110
0000
0000
2001
0000
0000
0000
3010
0000
0100
0000
0001
0000
,
0011
0000
0000
0110
0000
0000
1002
0000
0000
0000
0103
0010
0100
0000
0001
0000
,
1000
0000
0010
0000
0001
0000
0000
0001
0010
0000
1000
0000
0001
0000
0020
0000
,
0000
0000
0130
0000
1000
0000
0001
1000
0001
0000
0100
0000
0010
0000
0000
0000
,
2000
0000
0000
0010
3010
0000
0101
0002
,
0000
1003
0100
0010
0001
0000
1100
0000
,
0002
0000
0000
0100
0103
0000
0101
0000
,
2000
0000
0000
0000
3020
0000
0000
0000
1030
0001
1000
0001
0100
0000
0000
0000
,
0001
1000
1100
0000
1000
0001
0101
0000
,
1000
0001
1000
0100
0010
0001
1000
0010
,
0200
0000
0000
0000
1000
0000
0000
0000
0302
0000
0000
0023
0000
0000
0230
0000
,
0000
1300
0100
0001
0100
1000
0010
0100
,
0001
0010
0010
0100
1000
0010
0010
0200
,
0000
0301
0100
0010
1000
0000
0001
0010
,
1000
0000
1020
0000
0031
0100
0010
2000
,
0000
3001
0010
0100
0001
0100
1000
0010
,
0001
0000
0021
0000
1030
0100
0010
0001
,
1000
0000
0010
0000
1000
0000
0100
0000
0010
0000
0001
0100
0001
0000
1000
0001
,
1000
0000
0110
0000
2001
0000
3001
0100
,
0010
0100
0001
0010
0100
1000
0010
1000
,
0200
0000
0310
0001
2000
0000
3010
0010
,
0100
0000
0001
0000
1000
0000
0100
0000
0100
0000
1000
0010
1000
0000
0001
1000
,
0001
0000
0000
0000
0001
0000
1000
0000
0100
0000
0000
0100
0010
0000
2000
0000
,
0000
3010
0100
0010
1000
0010
0001
1000
,
0010
0000
0000
0000
2010
0000
0000
0000
3001
0000
0000
0001
0010
0000
0100
0000
,
1000
0010
0001
0010
1000
0100
0010
0001
,
1000
0000
0000
0000
1000
0000
0001
0000
0100
0000
0000
0100
0010
0000
0002
0000
,
0000
0013
0100
0010
0001
0010
1000
0001
,
0010
0100
0010
1000
0010
0100
0010
0002
,
0000
2003
0000
3010
0220
0000
0330
0000
,
2002
0000
3003
1000
0100
1000
0001
1000
,
0020
0000
0130
0001
0010
0001
1000
0001
,
0200
0000
0301
0010
1000
0010
0001
1000
,
0000
0000
0000
0000
0000
0000
0000
0000
0010
0000
1000
0001
1000
0000
0001
1000
,
0001
0100
0001
0101
0000
2010
0000
3001
,
0010
0100
1000
0020
0000
0031
0010
0100
,
0001
1000
0100
1100
0000
0012
0000
1003
,
0100
0001
0100
2000
0000
3001
1001
0000
,
0001
0100
0010
0110
0000
1020
0000
1030
,
0001
0010
1000
0020
0000
0130
0001
0100
,
0010
0001
0100
0101
0000
0210
0000
0310
,
0001
0010
0100
0002
0000
1003
0100
0000
,
2001
3200
0320
0032
,
2003
3020
0032
0023
,
2030
0000
3200
0000
0310
0001
1000
0001
,
0100
0000
0000
0010
0000
0000
0110
0000
0000
0000
0000
0000
0000
0000
0000
0000
;

//---------------dance-single - ----------------
#NOTEDATA:;
#CHARTNAME:;
#STEPSTYPE:dance-single;
#DESCRIPTION:;
#CHARTSTYLE:;
#DIFFICULTY:Medium;
#METER:9;
#RADARVALUES:0.511024,0.546922,0.374469,0.896755,0.029563,363.000000,325.000000,38.000000,91.000000,0.000000,0.000000,0.000000,0.000000,0.000000,0.511024,0.546922,0.374469,0.896755,0.029563,363.000000,325.000000,38.000000,91.000000,0.000000,0.000000,0.000000,0.000000,0.000000;
#CREDIT:Ben + Keek;
#NOTES:
0000
0000
0000
0000
,
0000
0000
0000
0000
,
0000
0000
0000
0000
,
0000
0000
0000
0000
,
2001
0000
3010
0000
1000
0001
1000
0000
,
0001
0000
0011
0000
0000
0110
0000
0000
,
1002
0000
0103
0000
0001
1000
0001
0000
,
1000
0000
1100
0000
0000
0110
0000
0000
,
2001
0000
3010
0000
1020
0000
0130
0002
,
0000
2003
0000
3200
0020
0000
0330
0000
,
0002
0203
0320
1000
,
2030
3200
0320
0001
,
0031
1000
0100
0000
2200
0000
3300
0000
,
1000
0001
0100
0000
0202
0000
0303
0000
,
0001
0100
0010
0000
1000
0010
0100
0000
,
0001
0010
0100
0000
2200
0000
3300
0000
,
0001
1000
0100
1000
0002
0000
0003
0000
,
1000
0001
0100
0001
2000
0000
3000
0000
,
0001
1000
0010
0000
1000
0001
0010
0000
,
0001
1000
0001
1000
0020
0000
0230
0000
,
0301
0000
0000
0001
0000
0000
0002
0000
0000
0000
0013
0000
0100
0000
0000
0000
,
1000
0000
0000
1000
0000
0000
2000
0000
0000
0000
3010
0000
0100
0000
0000
0000
,
0001
0100
0020
0000
1030
0100
0020
0000
,
0031
1000
0010
1000
0001
0000
1001
0000
,
1000
0000
0000
0100
0000
0000
2000
0000
0000
0000
3100
0000
0010
0000
0000
0000
,
0001
0000
0000
0100
0000
0000
0002
0000
0000
0000
0103
0000
0010
0000
0000
0000
,
1000
0010
0200
0000
0301
0010
0100
2000
,
0000
3001
0100
0001
0200
0000
0320
0000
,
1030
0000
0000
1000
0100
0000
1100
0000
,
0001
0000
0000
0001
0100
0000
0101
0000
,
1000
0000
0000
0010
1000
0000
1010
0000
,
0002
0000
0023
0000
0130
1000
0001
0000
,
1000
1001
0001
0101
,
1000
1100
0010
0110
,
2000
0000
0000
0000
3002
0000
0000
0000
0103
0000
0000
0100
0000
0000
0100
0000
,
0000
0001
1000
0000
0001
0010
0100
1000
,
1100
0000
0000
0001
0101
0000
1000
0020
,
0000
0130
0001
1000
0001
0000
0000
0000
,
1001
0000
0101
0000
1100
0000
0001
1000
,
0010
1000
0010
1000
0001
0000
1000
0000
,
0011
0000
1010
0000
0011
0000
1000
0100
,
0010
0100
0010
0100
2000
0000
3002
0000
,
0103
0000
0101
0000
1010
0000
0001
1000
,
0100
1000
0100
1000
0001
0000
1000
0000
,
1010
0000
0110
0000
0101
0000
1000
0002
,
0000
0023
0000
0130
1000
0000
2001
0000
,
3020
0000
0030
0010
0100
0010
1000
0100
,
0020
0000
0030
0010
0100
0010
0001
0100
,
0020
2030
3002
0023
,
0031
1000
0001
1000
0100
0010
0001
0000
,
0200
0000
0300
0100
0010
0100
0001
0010
,
0200
0000
0300
0100
0010
0100
1000
0010
,
0200
0000
0302
0000
2003
0000
3100
0020
,
0000
0032
0000
1003
2002
0000
3003
0000
,
0202
0000
0303
0000
0001
0100
0010
0000
,
2020
0000
3030
0000
1000
0100
0010
0000
,
0002
0000
2003
0000
3020
0000
0130
0100
,
0000
0000
0000
1001
,
1000
0100
1000
0200
0000
0320
0000
0031
,
1000
0010
1000
0020
0000
0130
0001
1000
,
0001
0010
0001
0020
0000
0230
0000
1300
,
0010
0100
0010
2000
0000
3001
0200
0000
,
0301
0010
0001
0020
0000
0230
0000
1300
,
0001
0100
0001
0200
0000
0310
1000
0001
,
1000
0100
1000
0200
0000
0320
0000
0031
,
0100
0010
0100
0002
0000
1003
0020
0000
,
0230
0302
2003
3200
,
0320
0032
0203
0320
,
2030
3002
0023
0130
,
0010
0000
0000
0100
0000
0000
0110
0000
0000
0000
0000
0000
0000
0000
0000
0000
;

//---------------dance-single - ----------------
#NOTEDATA:;
#CHARTNAME:;
#STEPSTYPE:dance-single;
#DESCRIPTION:;
#CHARTSTYLE:;
#DIFFICULTY:Easy;
#METER:6;
#RADARVALUES:0.343498,0.410191,0.216798,0.344906,0.000000,244.000000,222.000000,22.000000,35.000000,0.000000,0.000000,0.000000,0.000000,0.000000,0.343498,0.410191,0.216798,0.344906,0.000000,244.000000,222.000000,22.000000,35.000000,0.000000,0.000000,0.000000,0.000000,0.000000;
#CREDIT:Ben Speirs;
#NOTES:
0000
0000
0000
0000
,
0000
0000
0000
0000
,
0000
0000
0000
0000
,
0000
0000
0000
0000
,
1001
0001
1000
0010
,
0100
0000
0110
0000
0000
0110
0000
0000
,
1001
1000
0001
0010
,
0100
0000
0110
0000
0000
0110
0000
0000
,
1001
0000
0000
0000
1001
0000
0000
0001
,
0000
1000
0000
0010
0100
0000
0000
0000
,
0002
0203
0320
2030
,
3200
0320
0032
2003
,
3001
0100
0110
0000
,
1000
0100
0110
0000
,
0010
0001
1000
0010
,
0100
0001
1000
0000
,
0001
0010
0110
0000
,
1000
0010
0110
0000
,
0010
1000
0001
0010
,
0100
1000
0001
0000
,
1000
1000
0100
1000
,
0001
0001
0100
0001
,
0010
0010
0100
0100
,
0010
0001
1000
0000
,
0001
0001
0100
0010
,
1000
1000
0001
0010
,
0100
0100
0010
0010
,
0001
1000
0010
0000
,
2000
3000
1000
0000
,
0002
0003
0001
0000
,
0200
0300
0100
0000
,
0001
0010
0100
1000
,
0010
0110
0000
0110
,
0000
1001
0000
1001
,
0001
0001
1000
1000
,
0001
0010
0100
1000
,
0020
0030
0200
0300
,
0001
1000
0001
0000
,
1000
0100
0010
0001
,
0100
0010
2000
3000
,
0001
0100
0010
1000
,
0100
0010
0110
0110
,
2002
3003
0001
1000
,
0010
0010
0100
0000
,
0001
0100
0010
0000
,
1000
0100
0010
0000
,
0002
0003
0001
0010
,
0200
0300
0100
1000
,
0020
0030
0010
1000
,
0001
0001
1000
1000
,
0200
0300
1000
0100
,
0020
0030
0001
0100
,
0010
0000
0010
0000
0100
0000
0001
1000
,
0000
0001
0000
0100
0010
0000
0000
0000
,
2002
3003
1000
0001
,
0200
0300
0001
1000
,
0100
0000
0100
0000
0010
0000
0000
1001
,
0000
0000
0000
0000
,
0001
0000
1000
1000
0000
0000
0001
0000
,
1000
0000
0100
0100
0000
0000
1000
0000
,
0010
0000
0100
0100
0000
0000
0010
0000
,
1000
0000
0001
0001
0000
0000
1000
0000
,
0001
0000
0010
0010
0000
0000
0001
0000
,
1000
0000
0100
0100
0000
0000
1000
0000
,
0010
0000
0100
0100
0000
0000
0001
0000
,
1000
0000
0100
0100
0000
0000
0000
0000
,
2000
3200
0320
0032
,
0203
0320
2030
3002
,
0023
0000
0230
0000
2300
0000
3010
0010
,
0100
0000
0000
0110
0000
0000
0000
0000
;

//---------------dance-single - ----------------
#NOTEDATA:;
#CHARTNAME:;
#STEPSTYPE:dance-single;
#DESCRIPTION:;
#CHARTSTYLE:;
#DIFFICULTY:Beginner;
#METER:3;
#RADARVALUES:0.153448,0.239278,0.039418,0.000000,0.000000,109.000000,105.000000,4.000000,0.000000,0.000000,0.000000,0.000000,0.000000,0.000000,0.153448,0.239278,0.039418,0.000000,0.000000,109.000000,105.000000,4.000000,0.000000,0.000000,0.000000,0.000000,0.000000,0.000000;
#CREDIT:Ben Speirs;
#NOTES:
0000
0000
0000
0000
,
0000
0000
0000
0000
,
0000
0000
0000
0000
,
0000
0000
0000
0000
,
1001
0000
0000
0000
,
0000
1000
0000
1000
,
1000
0000
0000
0000
,
0000
0001
0000
0001
,
0001
0000
1000
0000
,
0010
0000
0000
0000
,
0100
0000
0000
0000
,
0010
0000
0000
0000
,
1000
1000
0000
0000
,
1000
0000
0000
0000
,
0001
0000
0001
0000
,
0001
0000
0000
0000
,
0010
0010
0000
0000
,
0010
0000
0000
0000
,
0100
0000
0100
0000
,
0100
0000
0000
0000
,
1000
1000
0000
0000
,
0001
0001
0000
0000
,
0100
0000
0100
0000
,
0100
0000
0100
0000
,
0001
0001
0000
0000
,
1000
1000
0000
0000
,
0100
0000
0100
0000
,
0100
0000
0100
0000
,
0010
0000
0000
0000
,
0010
0000
0000
0000
,
0001
0000
0000
0000
,
0001
0000
0000
0000
,
1000
0000
1000
0000
,
1000
0000
0000
0000
,
0010
0000
0010
0000
,
0010
0000
0000
0000
,
0100
0000
0100
0000
,
0100
0100
0100
0000
,
1001
0000
0001
0000
,
0001
0000
0000
0000
,
1000
0000
1000
0000
,
1000
0000
0010
0010
,
0010
0000
0000
0000
,
1000
0000
0000
0000
,
0001
0000
0001
0000
,
0001
0000
0000
0000
,
0100
0000
0100
0000
,
0100
0000
0000
0000
,
0010
0000
0010
0000
,
0010
0000
0000
0000
,
1000
0000
1000
0000
,
1000
0000
0000
0000
,
0001
0000
0001
0000
,
0001
0000
0000
0000
,
1001
0000
0000
0000
,
1000
0000
0000
0000
,
0010
0000
0010
0000
,
0010
0000
0000
0000
,
1000
1000
0000
0000
,
0001
0001
0000
0000
,
0010
0010
0000
0000
,
0010
0010
0000
0000
,
0001
0001
0000
0000
,
1000
1000
0000
0000
,
0010
0010
0000
0000
,
0100
0100
0000
0000
,
1001
0000
0000
0000
,
1000
0000
0000
0000
,
0010
0000
0000
0000
,
0100
0000
0000
0100
0000
0000
0000
0000
;

//---------------dance-double - ----------------
#NOTEDATA:;
#CHARTNAME:;
#STEPSTYPE:dance-double;
#DESCRIPTION:;
#CHARTSTYLE:;
#DIFFICULTY:Hard;
#METER:12;
#RADARVALUES:0.616607,0.649470,0.325197,0.827774,0.093617,438.000000,405.000000,33.000000,84.000000,0.000000,0.000000,0.000000,0.000000,0.000000,0.616607,0.649470,0.325197,0.827774,0.093617,438.000000,405.000000,33.000000,84.000000,0.000000,0.000000,0.000000,0.000000,0.000000;
#CREDIT:Ben + Keek;
#NOTES:
00000000
00000000
00000000
00000000
,
00000000
00000000
00000000
00000000
,
00000000
00000000
00000000
00000000
,
00000000
00000000
00000000
00000000
,
00102000
00000000
00023000
00000000
00031000
00000100
00000001
00000100
,
00000010
00000000
00002020
00000000
00003030
00022000
00000000
00033000
,
00020100
00000000
00032000
00000000
00013000
01000000
10000000
01000000
,
00100000
00000000
00220000
00000000
00330000
00022000
00000000
00033000
,
00102000
00000000
00013000
00000000
00021000
00000000
00030010
00000100
,
00000000
00000110
00000000
00002000
00000002
00000000
00003003
00000000
,
00001001
00000000
00000000
00001000
00000000
00000000
00000200
00000000
00000000
00000000
00020300
00000000
00000000
00000000
00031000
00000000
,
01000000
00000000
00000000
01000000
00000000
00000000
00200000
00000000
00000000
00000000
10300000
00000000
00020000
00000000
00000000
00000000
,
10030000
01000000
00010000
01000000
00200000
00000000
00310000
10000000
,
00010000
01000000
10000000
01000000
00200000
00000000
10300000
00010000
,
00100000
00001000
00100000
00001000
00010000
00000010
00010000
00000010
,
00001000
00000100
00000001
00000100
00002000
00000000
00003010
00000100
,
00000001
00000010
00001000
00000010
00000200
00000000
00001300
00000001
,
00001000
00000010
00000001
00000010
00000200
00000000
00000301
00001000
,
00000100
00010000
00000100
00010000
00001000
01000000
00001000
01000000
,
00010000
00100000
10000000
00100000
00020000
00000000
01030000
00100000
,
20000000
00000000
00000000
31000000
00000000
00000000
12000000
00000000
00000000
00000000
03100000
00000000
00010000
00000000
10000000
00000000
,
00020000
00000000
00000000
01030000
00000000
00000000
02010000
00000000
00000000
00000000
03100000
00000000
10000000
00000000
00010000
00000000
,
10000000
01000000
00020000
00000000
00031000
00000100
00000002
00000000
,
00001003
00000000
00000010
00000000
00000100
00000000
00000010
00000000
00000001
00000000
00000010
00000100
00000010
00000000
00001000
00000000
,
00000001
00000000
00000000
00000011
00000000
00000000
00002001
00000000
00000000
00000000
00003100
00000000
00000001
00000000
00000100
00000000
,
00001000
00000000
00000000
00001010
00000000
00000000
00001002
00000000
00000000
00000000
00000103
00000000
00001000
00000000
00000100
00000000
,
00000001
00000000
00000010
00000000
00001000
00000000
00000000
00001000
00010000
00000000
00100000
00000000
10000000
00000000
00020000
00000000
,
00000000
10030000
01000000
00100000
00010000
00000000
10000000
00100000
,
20000000
00000000
00000000
01000000
31000000
00000000
11000000
00020000
,
00000000
01030000
00100000
00010000
00002000
00000000
00013000
00000000
,
00000200
00000000
00000000
00001000
00001300
00000000
00001100
00000000
,
00000001
00000000
00000100
00000000
00000010
00000000
00001000
00000000
00000100
00010000
00000100
00010000
00001000
00000000
00000000
00000000
,
00010000
00001000
00101000
00000000
00001000
00010000
00010010
00000000
,
00010000
00001000
00010000
01000000
10000000
00100000
01000000
00010000
,
00200000
00000000
00000000
00000000
10000000
00000000
00000000
00000000
00310000
00000000
00000000
10000000
00000000
00000000
00200000
00000000
,
00000000
01300000
10000000
01000000
00010000
00100000
00001000
00010000
,
00000010
00000100
00000100
00000010
00010000
00001000
00001000
00200000
,
00000000
01300000
00010000
00001000
00020000
00000000
00031000
00000000
,
00011000
00000000
00001001
00000000
00021000
00000000
00031000
00000100
,
00000010
00001000
00000100
00000001
00000100
00001000
00000010
00000100
,
00000002
00000000
00000010
00000000
00002003
00000000
00003010
00000020
,
00000000
00000000
00000130
00000000
00001000
00000000
00010000
00000000
00000100
00000000
00010000
00001000
00010000
00000000
00001000
00010000
,
00001000
00000000
10010000
00000000
00012000
00000000
00013000
00100000
,
01000000
00010000
00100000
10000000
00200000
00000000
00310000
10000000
,
00020000
00000000
00100000
00000000
20030000
00000000
30100000
00200000
,
00000000
00000000
01300000
00000000
10000000
00000000
01000000
00000000
00010000
00000000
00100000
00001000
00100000
00000000
00001000
00010000
,
00001000
00000000
00000000
00000000
00010000
00000000
00001000
00000000
00000100
00000000
00000000
00000100
00000010
00000000
00002000
00000000
,
00000000
00003001
00000010
00000100
00000010
00001000
00000010
00000001
,
00000100
00000000
00000000
00000000
00000102
00000000
00000000
00000000
00001003
00000000
00000000
00001000
00000010
00000000
00000100
00000000
,
00001000
00010000
00001000
00010000
00000100
00000010
00001000
00010000
,
00001000
00000000
00000000
00000000
00001000
00000000
01000000
00000000
00100000
00000000
00000000
00100000
01000000
00000000
00020000
00000000
,
00000000
10030000
01000000
00100000
01000000
00010000
01000000
10000000
,
00100000
01000000
00100000
01000000
00010000
00100000
00001000
00000020
,
00000000
00000032
00000000
00000203
00000020
00000000
00000330
00000000
,
00002002
00000000
00003003
00000001
00000100
00001000
00010000
00100000
,
10000000
00000000
00000000
10000000
01000000
00010000
00001000
00000010
,
00000001
00000000
00001000
00000001
00001000
00000010
00000100
00002000
,
00000000
00010000
00000000
00010000
00013000
00000000
00011000
00000000
,
00001000
00100000
01000000
00200000
00000000
00302000
00000000
00013000
,
00100000
10000000
01000000
00200000
00000000
00310000
01000000
00010000
,
00100000
00001000
00010000
00002000
00000000
00003200
00000000
00000310
,
00001000
00000001
00000010
00000200
00000000
00010300
00002000
00000000
,
00013000
00000010
00000100
00000110
00000000
00002010
00000000
00003100
,
00010000
00001000
00100000
00020000
00000000
10030000
00100000
01000000
,
00010000
00100000
01000000
01100000
00000000
00102000
00000000
00013000
,
00000010
00000100
00000001
00002000
00000000
00003100
00000020
00000000
,
00000032
00000203
00002300
00023000
,
00230000
23300000
32000000
03320000
,
00032000
00000000
00003020
00000000
00000331
00001000
00000001
00000100
,
00001000
00000000
00000000
00010000
00000000
00000000
00011000
00000000
00000000
00000000
00000000
00000000
00000000
00000000
00000000
00000000
;

//---------------dance-double - ----------------
#NOTEDATA:;
#CHARTNAME:;
#STEPSTYPE:dance-double;
#DESCRIPTION:;
#CHARTSTYLE:;
#DIFFICULTY:Medium;
#METER:9;
#RADARVALUES:0.487091,0.546922,0.404032,0.827774,0.024636,346.000000,305.000000,41.000000,84.000000,0.000000,0.000000,0.000000,0.000000,0.000000,0.487091,0.546922,0.404032,0.827774,0.024636,346.000000,305.000000,41.000000,84.000000,0.000000,0.000000,0.000000,0.000000,0.000000;
#CREDIT:Ben Speirs;
#NOTES:
00000000
00000000
00000000
00000000
,
00000000
00000000
00000000
00000000
,
00000000
00000000
00000000
00000000
,
00000000
00000000
00000000
00000000
,
00012000
00000000
00103000
00000000
00010000
01000000
00010000
00000000
,
00100000
00000000
00220000
00000000
00330000
00202000
00000000
00303000
,
00021000
00000000
00030100
00000000
00001000
00000010
00001000
00000000
,
00000100
00000000
00002200
00000000
00003300
00020200
00000000
00030300
,
00012000
00000000
00103000
00000000
00120000
00000000
10030000
00200000
,
00000000
02300000
00000000
03020000
20000000
00000000
30030000
00000000
,
20000000
32000000
03200000
00320000
,
00032000
00003200
00000320
00000032
,
00001003
00000010
00000100
00000000
00000202
00000000
00000303
00000000
,
00000001
00000010
00000100
00000000
00002200
00000000
00003300
00000000
,
00010000
00001000
00100000
00000000
00001000
00010000
00000010
00000000
,
00010000
00001000
01000000
00100000
02000000
00000000
03010000
00000000
,
10000000
01000000
00100000
01000000
20000000
00000000
30100000
00000000
,
10000000
00010000
01000000
00010000
00200000
00000000
00301000
00000000
,
00010000
00001000
00100000
00000000
00001000
00010000
00000010
00000000
,
00010000
00000100
00000010
00000100
00002000
00000000
00003001
00000000
,
00000101
00000000
00000000
00000100
00000000
00000000
00000020
00000000
00000000
00000000
00001030
00000000
00000100
00000000
00000000
00000000
,
00010000
00000000
00000000
00010000
00000000
00000000
00002000
00000000
00000000
00000000
01003000
00000000
00100000
00000000
00000000
00000000
,
10000000
00010000
02000000
00000000
03010000
10000000
02000000
00000000
,
13000000
00010000
01000000
00100000
10000000
00010000
10000000
00000000
,
01010000
00000000
00000000
00010000
00000000
00000000
20000000
00000000
00000000
00000000
30010000
00000000
00100000
00000000
00000000
00000000
,
00001000
00000000
00000000
00001000
00000000
00000000
00020000
00000000
00000000
00000000
00030010
00000000
00000100
00000000
00000000
00000000
,
00000001
00001000
00000020
00000000
00001030
00000001
00000020
00000000
,
00000031
00001000
00000010
00000100
00000002
00000000
00001003
00000000
,
00001100
00000000
00000000
00000001
00000100
00000000
00000000
00000010
,
00000000
00000010
00000000
00010000
00001000
00000000
00100000
00010000
,
01000000
00000000
00000000
00010000
10000000
00000000
01100000
00000000
,
10000000
00010000
10000000
00010000
20000000
00000000
30010000
00000000
,
10000000
11000000
00010000
01010000
,
10000000
01000000
00100000
00000000
00010000
01000000
00001000
00000000
,
00010000
00010000
00000100
00000100
,
00000010
00000000
00000010
00000000
00000001
00000000
00001000
00000001
,
00000100
00000000
00000000
00000010
00000010
00000000
00001000
00000001
,
00000000
00001000
00000100
00010000
00002000
00000000
00013000
00000000
,
00011000
00000000
00011000
00000000
00011000
00000000
01000000
00020000
,
00000000
10030000
01000000
10000000
00010000
00000000
10000000
00100000
,
02000000
00000000
03020000
00000000
00230000
00000000
00301000
00010000
,
00000000
00010000
00000010
00000000
00010010
00000000
00101000
00000000
,
00011000
00000000
00011000
00000000
00011000
00000000
00000010
00002000
,
00000000
00003001
00000010
00000001
00001000
00000000
00000001
00000100
,
00000020
00000000
00002030
00000000
00003200
00000000
00010300
00001000
,
00000000
00001000
01000000
00000000
01020000
00000000
10030000
00000000
,
20020000
00000000
30030000
00000000
10000000
01000000
00100000
00010000
,
02000000
00000000
03000000
00000000
00001000
00010000
00001000
00010000
,
00002000
00003000
00010000
00000100
,
00000010
00000100
00000010
00000000
00000001
00001000
00000001
00001000
,
00000020
00000000
00000030
00000000
00000100
00000001
00000100
00000001
,
00002000
00000000
00003000
00000000
00000100
00010000
00000100
00010000
,
00002000
00000000
00203000
00000000
00310000
00000000
10000000
00200000
,
00000000
02300000
00000000
03020000
20000000
00000000
30030000
00000000
,
02020000
03030000
00001000
00010000
,
00002200
00003300
00000001
00000100
,
00000010
00000000
00000010
00000000
00001000
00000000
00000100
00010000
,
00000000
00000000
00000000
00000000
,
00011000
00101000
00000000
00101000
,
00011000
00010010
00000000
00010010
,
00011000
01001000
00000000
01001000
,
00011000
00010100
00000000
00010100
,
00010000
00001000
00010000
00002000
00000000
00000000
00103000
00000000
,
00001000
00010000
00001000
00020000
00000000
00000000
00030010
00000000
,
00010000
00001000
00010000
00002000
00000000
00000000
01003000
00000000
,
00001000
00010000
00001000
00020000
00000000
00000000
00030100
00000000
,
00020000
00032000
00203000
00300020
,
00020030
00032000
02003000
03000200
,
00020300
00032000
00203000
00300020
,
00010030
00000000
00000000
00001000
00000000
00000000
00011000
00000000
00000000
00000000
00000000
00000000
00000000
00000000
00000000
00000000
;

//---------------dance-double - ----------------
#NOTEDATA:;
#CHARTNAME:;
#STEPSTYPE:dance-double;
#DESCRIPTION:;
#CHARTSTYLE:;
#DIFFICULTY:Easy;
#METER:6;
#RADARVALUES:0.301265,0.410191,0.177380,0.384324,0.000000,214.000000,196.000000,18.000000,39.000000,0.000000,0.000000,0.000000,0.000000,0.000000,0.301265,0.410191,0.177380,0.384324,0.000000,214.000000,196.000000,18.000000,39.000000,0.000000,0.000000,0.000000,0.000000,0.000000;
#CREDIT:Ben Speirs;
#NOTES:
00000000
00000000
00000000
00000000
,
00000000
00000000
00000000
00000000
,
00000000
00000000
00000000
00000000
,
00000000
00000000
00000000
00000000
,
10010000
10000000
00100000
01000000
,
00001000
00000000
00011000
00000000
00000000
00011000
00000000
00000000
,
00011000
00010000
00000100
00000010
,
00000001
00000000
00001001
00000000
00000000
00001001
00000000
00000000
,
00002002
00000000
00003003
00000000
00002002
00000000
00003003
00000010
,
00000000
00000100
00000000
00000010
00000200
00000000
00000300
00000000
,
00002002
00003003
00001000
00000100
,
00020000
00030000
00001000
01000000
,
00010000
10000000
02000000
03000000
,
10000000
00010000
02000000
03000000
,
00010000
10000000
00100000
01000000
,
00001000
00010000
00002000
00003000
,
00010000
00000100
00000020
00000030
,
00000100
00001000
00000020
00000030
,
00000100
00000001
00000010
00000100
,
00001000
00000010
00020000
00030000
,
00001000
00000000
00000000
00001000
00000000
00000000
00000000
00000000
,
01000000
00000000
00000000
01000000
00000000
00000000
00000000
00000000
,
00010000
01000000
00100000
00000000
,
10000000
01000000
00100000
00000000
,
00001000
00000000
00000000
00001000
00000000
00000000
00000000
00000000
,
00010000
00000000
00000000
00010000
00000000
00000000
00000000
00000000
,
00000100
00001000
00000010
00000000
,
00000100
00000001
00000010
00000000
,
00000002
00000003
00000001
00000000
,
00002000
00003000
00001000
00000000
,
00000200
00000300
00020000
00030000
,
00001000
01000000
00200000
00300000
,
10000000
00010000
10000000
00000000
,
00010000
00100000
00010000
00000000
,
01000000
01000000
00001000
00001000
,
00010000
00010000
00000100
00000100
,
00000010
00000000
00000010
00000000
,
00000001
00001000
00000001
00000000
,
00002002
00003003
00000001
00000100
,
00000010
00001000
00000200
00000300
,
00010000
00010000
00001000
00001000
,
01000000
00100000
01100000
01100000
,
20020000
30030000
10000000
00010000
,
00100000
00100000
00010000
01000000
,
00001000
00001000
00010000
00010000
,
00000100
00000010
00000001
00000000
,
00002002
00003003
00000001
00001000
,
00000200
00000300
00010000
00001000
,
02000000
03000000
00010000
10000000
,
01000000
01000000
00100000
00100000
,
00020000
00030000
00100000
00001000
,
00020000
00030000
00000100
00001000
,
00000010
00000000
00000010
00000000
00000100
00000000
00000100
00000001
,
00000000
00001000
00000000
00000001
00001000
00000000
00000000
00000000
,
00002002
00003003
00000000
00000000
,
00022000
00033000
00000000
00000000
,
20020000
00000000
30030000
00000000
00000000
00000000
00000000
01100000
,
00000000
00000000
00000000
00000000
,
10000000
01000000
10000000
01000000
,
00010000
01000000
00010000
01000000
,
00100000
01000000
00100000
01000000
,
00100000
00001000
00010000
00000100
,
00001000
00000010
00001000
00000010
,
00000001
00000010
00000001
00000010
,
00000100
00000010
00000100
00000010
,
00001000
00000001
00000010
00000100
,
00020000
00000000
00000000
00000000
,
00032000
00000000
00000000
00000000
,
00203000
00000000
00000000
00000000
,
01300000
00000000
00000000
01000000
00000000
00000000
00000000
00000000
;

//---------------dance-double - EN Ver----------------
#NOTEDATA:;
#CHARTNAME:;
#STEPSTYPE:dance-double;
#DESCRIPTION:EN Ver;
#CHARTSTYLE:;
#DIFFICULTY:Edit;
#METER:12;
#MUSIC:Idol EN.ogg;
#RADARVALUES:0.616607,0.649470,0.325197,0.827774,0.093617,438.000000,405.000000,33.000000,84.000000,0.000000,0.000000,0.000000,0.000000,0.000000,0.616607,0.649470,0.325197,0.827774,0.093617,438.000000,405.000000,33.000000,84.000000,0.000000,0.000000,0.000000,0.000000,0.000000;
#CREDIT:Ben + Keek [EN Ver];
#NOTES:
00000000
00000000
00000000
00000000
,
00000000
00000000
00000000
00000000
,
00000000
00000000
00000000
00000000
,
00000000
00000000
00000000
00000000
,
00102000
00000000
00023000
00000000
00031000
00000100
00000001
00000100
,
00000010
00000000
00002020
00000000
00003030
00022000
00000000
00033000
,
00020100
00000000
00032000
00000000
00013000
01000000
10000000
01000000
,
00100000
00000000
00220000
00000000
00330000
00022000
00000000
00033000
,
00102000
00000000
00013000
00000000
00021000
00000000
00030010
00000100
,
00000000
00000110
00000000
00002000
00000002
00000000
00003003
00000000
,
00001001
00000000
00000000
00001000
00000000
00000000
00000200
00000000
00000000
00000000
00020300
00000000
00000000
00000000
00031000
00000000
,
01000000
00000000
00000000
01000000
00000000
00000000
00200000
00000000
00000000
00000000
10300000
00000000
00020000
00000000
00000000
00000000
,
10030000
01000000
00010000
01000000
00200000
00000000
00310000
10000000
,
00010000
01000000
10000000
01000000
00200000
00000000
10300000
00010000
,
00100000
00001000
00100000
00001000
00010000
00000010
00010000
00000010
,
00001000
00000100
00000001
00000100
00002000
00000000
00003010
00000100
,
00000001
00000010
00001000
00000010
00000200
00000000
00001300
00000001
,
00001000
00000010
00000001
00000010
00000200
00000000
00000301
00001000
,
00000100
00010000
00000100
00010000
00001000
01000000
00001000
01000000
,
00010000
00100000
10000000
00100000
00020000
00000000
01030000
00100000
,
20000000
00000000
00000000
31000000
00000000
00000000
12000000
00000000
00000000
00000000
03100000
00000000
00010000
00000000
10000000
00000000
,
00020000
00000000
00000000
01030000
00000000
00000000
02010000
00000000
00000000
00000000
03100000
00000000
10000000
00000000
00010000
00000000
,
10000000
01000000
00020000
00000000
00031000
00000010
00000002
00000000
,
00001003
00000000
00000010
00000000
00000100
00000000
00000010
00000000
00000001
00000000
00000010
00000100
00000010
00000000
00001000
00000000
,
00000001
00000000
00000000
00000011
00000000
00000000
00002001
00000000
00000000
00000000
00003100
00000000
00000001
00000000
00000100
00000000
,
00001000
00000000
00000000
00001010
00000000
00000000
00001002
00000000
00000000
00000000
00000103
00000000
00001000
00000000
00000100
00000000
,
00000001
00000000
00000010
00000000
00001000
00000000
00000000
00001000
00010000
00000000
00100000
00000000
10000000
00000000
00020000
00000000
,
00000000
10030000
01000000
00100000
00010000
00000000
10000000
00100000
,
20000000
00000000
00000000
01000000
31000000
00000000
11000000
00020000
,
00000000
01030000
00100000
00010000
00002000
00000000
00013000
00000000
,
00000200
00000000
00000000
00001000
00001300
00000000
00001100
00000000
,
00000001
00000000
00000100
00000000
00000010
00000000
00001000
00000000
00000100
00010000
00000100
00010000
00001000
00000000
00000000
00000000
,
00010000
00001000
00101000
00000000
00001000
00010000
00010010
00000000
,
00010000
00001000
00010000
01000000
10000000
00100000
01000000
00010000
,
00200000
00000000
00000000
00000000
10000000
00000000
00000000
00000000
00310000
00000000
00000000
10000000
00000000
00000000
00200000
00000000
,
00000000
01300000
10000000
01000000
00010000
00100000
00001000
00010000
,
00000010
00000100
00000100
00000010
00010000
00001000
00001000
00200000
,
00000000
01300000
00010000
00001000
00020000
00000000
00031000
00000000
,
00011000
00000000
00001001
00000000
00021000
00000000
00031000
00000100
,
00000010
00001000
00000100
00000001
00000100
00001000
00000010
00000100
,
00000002
00000000
00000010
00000000
00002003
00000000
00003010
00000020
,
00000000
00000000
00000130
00000000
00001000
00000000
00010000
00000000
00000100
00000000
00010000
00001000
00010000
00000000
00001000
00010000
,
00001000
00000000
10010000
00000000
00012000
00000000
00013000
00100000
,
01000000
00010000
00100000
10000000
00200000
00000000
00310000
10000000
,
00020000
00000000
00100000
00000000
20030000
00000000
30100000
00200000
,
00000000
00000000
01300000
00000000
10000000
00000000
01000000
00000000
00010000
00000000
00100000
00001000
00100000
00000000
00001000
00010000
,
00001000
00000000
00000000
00000000
00010000
00000000
00001000
00000000
00000100
00000000
00000000
00000100
00000010
00000000
00002000
00000000
,
00000000
00003001
00000010
00000100
00000010
00001000
00000010
00000001
,
00000100
00000000
00000000
00000000
00000102
00000000
00000000
00000000
00001003
00000000
00000000
00001000
00000010
00000000
00000100
00000000
,
00001000
00010000
00001000
00010000
00000100
00000010
00001000
00010000
,
00001000
00000000
00000000
00000000
00001000
00000000
01000000
00000000
00100000
00000000
00000000
00100000
01000000
00000000
00020000
00000000
,
00000000
10030000
01000000
00100000
01000000
00010000
01000000
10000000
,
00100000
01000000
00100000
01000000
00010000
00100000
00001000
00000020
,
00000000
00000032
00000000
00000203
00000020
00000000
00000330
00000000
,
00002002
00000000
00003003
00000001
00000100
00001000
00010000
00100000
,
10000000
00000000
00000000
10000000
01000000
00010000
00001000
00000010
,
00000001
00000000
00001000
00000001
00001000
00000010
00000100
00002000
,
00000000
00010000
00000000
00010000
00013000
00000000
00011000
00000000
,
00001000
00100000
01000000
00200000
00000000
00302000
00000000
00013000
,
00100000
10000000
01000000
00200000
00000000
00310000
01000000
00010000
,
00100000
00001000
00010000
00002000
00000000
00003200
00000000
00000310
,
00001000
00000001
00000010
00000200
00000000
00010300
00002000
00000000
,
00013000
00000010
00000100
00000110
00000000
00002010
00000000
00003100
,
00010000
00001000
00100000
00020000
00000000
10030000
00100000
01000000
,
00010000
00100000
01000000
01100000
00000000
00102000
00000000
00013000
,
00000010
00000100
00000001
00002000
00000000
00003100
00000020
00000000
,
00000032
00000203
00002300
00023000
,
00230000
20300000
32000000
03020000
,
00032000
00000000
00003020
00000000
00000031
00001000
00000001
00000100
,
00001000
00000000
00000000
00010000
00000000
00000000
00011000
00000000
00000000
00000000
00000000
00000000
00000000
00000000
00000000
00000000
;

//---------------dance-single - EN Ver.----------------
#NOTEDATA:;
#CHARTNAME:;
#STEPSTYPE:dance-single;
#DESCRIPTION:EN Ver.;
#CHARTSTYLE:;
#DIFFICULTY:Edit;
#MUSIC:Idol EN.ogg
#METER:12;
#RADARVALUES:0.639131,0.717835,0.404032,0.729229,0.113326,454.000000,413.000000,41.000000,74.000000,0.000000,0.000000,0.000000,0.000000,0.000000,0.639131,0.717835,0.404032,0.729229,0.113326,454.000000,413.000000,41.000000,74.000000,0.000000,0.000000,0.000000,0.000000,0.000000;
#CREDIT:Ben + Keek [EN Ver.];
#NOTES:
// measure 0
0000
0000
0000
0000
,  // measure 1
0000
0000
0000
0000
,  // measure 2
0000
0000
0000
0000
,  // measure 3
0000
0000
0000
0000
,  // measure 4
2001
0000
3010
0000
1000
0100
0001
0100
,  // measure 5
1000
0000
2020
0000
3030
0220
0000
0330
,  // measure 6
1002
0000
0103
0000
0001
0010
1000
0010
,  // measure 7
0001
0000
0202
0000
0303
0220
0000
0330
,  // measure 8
2001
0000
3010
0000
1020
0000
0130
0002
,  // measure 9
0000
2003
0000
3200
0020
0000
0330
0000
,  // measure 10
1001
0000
0000
0001
0000
0000
0200
0000
0000
0000
0310
0000
0000
0000
0010
0000
,  // measure 11
1000
0000
0000
1000
0000
0000
0200
0000
0000
0000
0310
0000
0002
0000
0000
0000
,  // measure 12
1003
0010
0001
0010
0200
0000
0301
1000
,  // measure 13
0001
0010
1000
0010
0200
0000
1300
0001
,  // measure 14
0100
1000
0100
1000
0100
0010
0100
0010
,  // measure 15
1000
0100
0001
0100
2000
0000
3010
0000
,  // measure 16
1001
1000
0100
1000
0020
0000
0130
0001
,  // measure 17
0010
0001
1000
0100
0020
0000
0130
1000
,  // measure 18
0010
0001
0010
0001
0010
0100
0010
0100
,  // measure 19
0010
1000
0001
0010
0100
1000
0001
0000
,  // measure 20
2000
0000
0000
3100
0000
0000
1100
0000
0000
0000
1000
0000
0010
0000
0100
0000
,  // measure 21
0002
0000
0000
0013
0000
0000
0011
0000
0000
0000
0001
0000
0100
0000
0010
0000
,  // measure 22
1000
0100
0001
0000
0001
0100
1000
0000
,  // measure 23
0001
0000
0100
0000
1000
0000
0100
0000
0010
0000
1000
0001
1000
0000
0100
0000
,  // measure 24
1100
0000
0000
0110
0000
0000
2001
0000
0000
0000
3010
0000
0100
0000
0001
0000
,  // measure 25
0011
0000
0000
0110
0000
0000
1002
0000
0000
0000
0103
0010
0100
0000
0001
0000
,  // measure 26
1000
0000
0010
0000
0001
0000
0000
0001
0010
0000
1000
0000
0001
0000
0020
0000
,  // measure 27
0000
0000
0130
0000
1000
0000
0001
1000
0001
0000
0100
0000
0010
0000
0000
0000
,  // measure 28
2000
0000
0000
0010
3010
0000
0101
0002
,  // measure 29
0000
1003
0100
0010
0001
0000
1100
0000
,  // measure 30
0002
0000
0000
0100
0103
0000
0101
0000
,  // measure 31
2000
0000
0000
0000
3020
0000
0000
0000
1030
0001
1000
0001
0100
0000
0000
0000
,  // measure 32
0001
1000
1100
0000
1000
0001
0101
0000
,  // measure 33
1000
0001
1000
0100
0010
0001
1000
0010
,  // measure 34
0200
0000
0000
0000
1000
0000
0000
0000
0302
0000
0000
0023
0000
0000
0230
0000
,  // measure 35
0000
1300
0100
0001
0100
1000
0010
0100
,  // measure 36
0001
0010
0010
0100
1000
0010
0010
0200
,  // measure 37
0000
0301
0100
0010
1000
0000
0001
0010
,  // measure 38
1000
0000
1020
0000
0031
0100
0010
2000
,  // measure 39
0000
3001
0010
0100
0001
0100
1000
0010
,  // measure 40
0001
0000
0021
0000
1030
0100
0010
0001
,  // measure 41
1000
0000
0010
0000
1000
0000
0100
0000
0010
0000
0001
0100
0001
0000
1000
0001
,  // measure 42
1000
0000
0110
0000
2001
0000
3001
0100
,  // measure 43
0010
0100
0001
0010
0100
1000
0010
1000
,  // measure 44
0200
0000
0310
0001
2000
0000
3010
0010
,  // measure 45
0100
0000
0001
0000
1000
0000
0100
0000
0100
0000
1000
0010
1000
0000
0001
1000
,  // measure 46
0001
0000
0000
0000
0001
0000
1000
0000
0100
0000
0000
0100
0010
0000
2000
0000
,  // measure 47
0000
3010
0100
0010
1000
0010
0001
1000
,  // measure 48
0010
0000
0000
0000
2010
0000
0000
0000
3001
0000
0000
0001
0010
0000
0100
0000
,  // measure 49
1000
0010
0001
0010
1000
0100
0010
0001
,  // measure 50
1000
0000
0000
0000
1000
0000
0001
0000
0100
0000
0000
0100
0010
0000
0002
0000
,  // measure 51
0000
0013
0100
0010
0001
0010
1000
0001
,  // measure 52
0010
0100
0010
1000
0010
0100
0010
0002
,  // measure 53
0000
2003
0000
3010
0220
0000
0330
0000
,  // measure 54
2002
0000
3003
1000
0100
1000
0001
1000
,  // measure 55
0020
0000
0130
0001
0010
0001
1000
0001
,  // measure 56
0200
0000
0301
0010
1000
0010
0001
1000
,  // measure 57
0000
0000
0000
0000
0000
0000
0000
0000
0010
0000
1000
0001
1000
0000
0001
1000
,  // measure 58
0001
0100
0001
0101
0000
2010
0000
3001
,  // measure 59
0010
0100
1000
0020
0000
0031
0010
0100
,  // measure 60
0001
1000
0100
1100
0000
0012
0000
1003
,  // measure 61
0100
0001
0100
2000
0000
3001
1001
0000
,  // measure 62
0001
0100
0010
0110
0000
1020
0000
1030
,  // measure 63
0001
0010
1000
0020
0000
0130
0001
0100
,  // measure 64
0010
0001
0100
0101
0000
0210
0000
0310
,  // measure 65
0001
0010
0100
0002
0000
1003
0100
0000
,  // measure 66
2001
3200
0320
0032
,  // measure 67
2003
3020
0032
0023
,  // measure 68
2030
0000
3200
0000
0310
0001
1000
0001
,  // measure 69
0100
0000
0000
0010
0000
0000
0110
0000
0000
0000
0000
0000
0000
0000
0000
0000
;
