#TITLE:Ice Ice Baby vs U Can't Touch This;
#SUBTITLE:;
#ARTIST:Vanilla Ice vs MC Hammer;
#CREDIT:;
#MUSIC:Vanilla Ice vs MC Hammer - Ice Ice Baby vs U Cant Touch This.ogg;
#SELECTABLE:YES;
#BACKGROUND:;
#BANNER:;
#CDTITLE:;
#DISPLAYBPM:63.500:127.000;
#OFFSET:-0.00208617;
#SAMPLESTART:7.561;
#SAMPLELENGTH:14.174;
#BPMS:0.000000=126.999992
,23.000000=123.720001
,24.000000=126.999992
,30.000000=507.999969
,30.750000=253.999985
,32.000000=126.999992
,38.000000=253.999985
,40.000000=130.453995
,41.000000=126.999992
,46.000000=253.999985
,47.500000=126.999992
,75.000000=507.999969
,75.750000=126.999992
,79.000000=507.999969
,79.750000=126.999992
,88.000000=63.499996
,92.000000=126.999992
,123.000000=128.628006
,124.000000=63.499996
,129.000000=63.511005
,130.000000=126.999992
,146.000000=253.999985
,147.000000=126.999992
,150.000000=253.999985
,155.000000=126.999992
,158.000000=253.999985
,162.000000=126.999992
,176.000000=63.499996
,180.000000=63.343998
,181.000000=126.999992
,195.500000=253.999985
,197.000000=126.999992
,203.000000=507.999969
,203.750000=126.999992
,204.000000=253.999985
,205.000000=126.999992
,211.000000=253.999985
,213.000000=126.999992
,220.000000=253.999985
,221.000000=126.999992
,228.000000=253.999985
,229.000000=126.999992
,236.000000=253.999985
,237.000000=126.999992
,244.000000=127.119995
,245.000000=126.999992
,273.000000=507.999969
,273.750000=126.999992
;
#STOPS:30.750000=0.325000,
31.000000=0.059000,
31.250000=0.059000,
31.500000=0.059000,
31.750000=0.060000,
38.000000=0.118000,
38.500000=0.117000,
39.000000=0.059000,
39.250000=0.059000,
39.500000=0.059000,
39.750000=0.059000,
46.000000=0.119000,
46.500000=0.059000,
46.750000=0.059000,
47.000000=0.059000,
47.250000=0.059000,
75.750000=0.256000,
79.750000=0.275000,
146.000000=0.237000,
150.000000=0.118000,
150.500000=0.118000,
151.000000=0.118000,
151.500000=0.119000,
152.000000=0.059000,
152.250000=0.058000,
152.500000=0.059000,
152.750000=0.059000,
153.000000=0.059000,
153.250000=0.059000,
153.500000=0.059000,
153.750000=0.059000,
154.000000=0.237000,
158.000000=0.118000,
158.500000=0.118000,
159.000000=0.118000,
159.500000=0.118000,
160.000000=0.059000,
160.250000=0.059000,
160.500000=0.059000,
160.750000=0.060000,
161.000000=0.059000,
161.250000=0.059000,
161.500000=0.059000,
161.750000=0.059000,
195.500000=0.119000,
196.000000=0.059000,
196.250000=0.059000,
196.500000=0.059000,
196.750000=0.059000,
203.750000=0.265000,
204.000000=0.059000,
204.250000=0.059000,
204.500000=0.059000,
204.750000=0.059000,
211.000000=0.118000,
211.500000=0.119000,
212.000000=0.059000,
212.250000=0.059000,
212.500000=0.059000,
212.750000=0.058000,
220.000000=0.118000,
220.500000=0.059000,
220.750000=0.060000,
228.000000=0.059000,
228.250000=0.059000,
228.500000=0.059000,
228.750000=0.059000,
236.000000=0.118000,
236.500000=0.059000,
236.750000=0.059000,
273.750000=0.266000
;

//---------------dance-single - ----------------
#NOTES:
     dance-single:
     :
     Challenge:
     14:
     0.000,0.000,0.000,0.000,0.000:
0000
0000
0000
0000
,
0000
0000
0000
0000
,
0000
0000
0000
0000
,
0000
0000
0000
0000
0000
0000
0000
0000
0000
0000
0000
0000
0000
0000
0000
0000
0000
MMMM
0000
0000
0000
0000
0000
0000
,
1001
0000
1100
0001
1000
0010
0110
1000
,
0020
0000
0000
0000
0031
0000
0000
0000
0020
0000
0000
0000
0130
0000
0000
0000
0001
0000
0000
0000
0000
0000
0000
MMMM
0000
0000
0000
0000
0000
0000
0000
0000
,
1001
0000
0011
1000
0001
0100
0110
0001
,
0200
0000
1300
0000
0200
0000
0310
0000
1000
0000
0000
0000
0001
0100
0010
0100
,
0001
0000
0011
1000
0010
0100
0101
0010
,
0200
0000
1300
0000
0200
0000
0301
0000
1000
0000
0001
0000
0010
0100
0001
0100
,
1000
0000
1100
0001
0100
0010
1010
0100
,
0010
0000
0010
0000
1001
0000
1000
0000
0001
0000
0010
0100
1000
0001
0100
0000
,
0110
0000
0000
0000
1000
0100
1000
0001
0010
0000
0001
0000
2000
3000
0002
0003
,
0000
0000
0000
0000
0000
0000
1000
0000
0000
0000
0000
0000
0001
0000
0000
0000
0010
0000
0000
0000
0000
0000
0000
0000
0000
0000
0000
0000
00M0
0000
0000
0000
0000
0000
0000
0000
0000
1000
0000
0000
0000
0000
0000
0000
0001
0000
0000
0000
0010
0000
0000
0000
0000
0000
0000
0000
0010
0000
0000
0000
0000
0000
0000
0000
,
0001
0000
1000
0000
1001
0000
0001
0100
0010
1000
0100
0000
1000
0000
0001
0000
,
0010
0000
0001
0010
0001
0000
1000
0100
1000
0010
0001
0010
0100
0000
0100
0000
,
0010
0100
0010
1000
0010
0000
1000
0000
0001
1000
0001
0000
0100
0000
0100
0000
,
0001
1000
0000
1000
0100
0000
0100
0000
1000
0001
1000
0000
0100
0000
0100
0000
,
1000
0100
0010
0100
0000
1000
0001
0100
0010
0000
0100
0001
0010
0000
0000
0000
,
0001
1000
0001
0100
0000
0010
1000
0001
1000
0000
0010
1000
0100
0000
0000
0000
,
2001
3010
1002
0013
2001
3010
1002
0013
,
0001
0000
2100
3001
1000
0000
0002
0003
,
1MM0
0000
1000
0000
1000
0000
1000
0000
1000
1002
0013
2001
3010
1000
0001
0000
,
M1M1
0000
0001
0000
1000
0000
0001
0010
0M00
0010
1000
0000
0100
0000
1000
0010
,
0M00
0010
0001
0000
0100
0000
0001
0010
0M00
0010
1000
0000
0001
0000
0000
0000
,
1010
0000
1000
0000
0001
0000
1000
0100
00M0
0100
0001
0000
0010
0000
0001
0100
,
00M0
0100
1000
0000
0010
0000
1000
0100
00M0
0100
0001
0000
MMMM
0000
0000
0000
,
1001
0000
1000
0000
0010
0000
1000
0100
00M0
0100
0001
0000
1000
0000
0001
0010
,
0M00
0010
1000
0000
0001
0000
1000
0100
00M0
0100
0001
0000
1000
0000
0000
0000
,
0011
0000
0010
0000
0001
0000
1000
0010
0M00
0010
0001
0000
1000
0000
0001
0100
,
00M0
0100
1000
0000
1001
0000
0000
0000
0000
0000
0001
0010
0100
0000
0000
0000
,
M04M
0000
0000
0000
0000
0000
0000
0000
0000
0000
0000
0000
0030
0000
0000
0000
0001
0000
0000
0010
0100
0000
0M00
0000
0001
0000
0000
0010
0100
0000
0M00
0000
,
0001
0010
0100
0000
0M01
0010
0100
0000
0M01
0000
1000
0001
1000
0000
0000
0000
1MM1
0000
0000
0000
1000
0000
0001
0000
1000
0000
0000
0000
0010
0000
0000
0000
,
0100
0000
0010
1000
0001
0010
0001
0100
0010
0000
1000
0010
1000
0000
0001
0100
,
0010
1000
0001
0000
1000
0000
0001
0000
0011
0000
0000
0000
1000
0000
0010
0000
,
0100
0000
0001
0100
0001
0000
1000
0000
0001
0000
0010
0001
1000
0010
1000
0001
,
0010
0100
1000
0010
0100
0000
0001
1000
0001
0000
0000
0000
1001
0000
0000
0000
,
1000
0100
0010
0000
10M0
0100
0010
0000
0100
0000
0100
0000
1001
0000
1001
0000
,
0001
0010
0100
0001
0100
0010
0001
1000
0010
0000
0000
0000
1010
0000
0000
0000
,
0120
1030
0210
0301
1000
1000
0001
0001
,
1000
0100
0010
1000
0010
0100
1000
0001
0100
0000
0000
0000
0110
0000
1000
0000
,
0010
1000
1001
0010
0001
0001
1100
1000
,
0001
0000
0000
0000
0000
0000
0000
MMMM
0000
0000
0000
0000
0000
0000
0000
0000
0101
0000
0000
0000
0000
0000
0000
0000
0110
0000
0000
0000
0001
0000
0000
0000
,
0100
0001
1001
0100
1000
1000
0011
0001
,
4MM0
0000
0000
0000
0000
0000
3000
0000
0001
0010
0100
0010
0001
0000
0100
0M00
1000
0100
0010
0100
1000
0000
0010
00M0
0001
0010
0100
0010
0001
0010
0100
0010
,
0001
0010
0100
0010
0100
1000
0100
1000
0MM1
0000
0000
0000
0000
0000
0000
0000
1001
0000
0000
0000
0100
0000
0000
0000
1000
0000
0000
0000
0010
0000
0000
0000
,
0110
0000
0000
0000
1000
0000
0000
0000
0020
0000
0000
0000
0031
0000
0000
0000
0020
0000
0000
0000
1030
0000
0000
0000
0001
0000
0000
0000
0000
0000
0000
MMMM
,
0000
0000
0101
0000
1001
0010
0001
0100
,
0110
0001
0200
1300
0200
0301
1000
0010
,
1000
0010
0100
0001
0010
0000
0000
0000
1100
0000
0001
0000
0010
0000
0001
0000
,
0101
1000
0020
0031
0020
1030
0001
0000
,
0001
0100
0010
1000
0100
0000
0000
0000
0011
0000
1000
0000
0100
0000
1000
0000
,
1010
0001
0200
1300
0200
0300
0001
0001
,
0010
0001
1000
0001
0010
0000
0001
0000
1001
0000
1000
0100
00M0
0100
0010
0000
,
1000
0000
0001
0100
M000
0100
0010
0000
0001
0000
1000
0100
00M0
0100
0010
0000
,
1000
0000
0010
1000
0100
0000
1000
0000
0010
0000
1000
0010
000M
0010
0100
0000
,
1000
0000
0001
0010
0M00
0010
0100
0000
0001
0000
1000
0010
000M
0010
0100
0000
,
1000
0001
0010
0001
1000
0000
0010
0000
1000
0000
0001
0010
0M00
0010
0100
0000
,
0001
0000
1000
0100
00M0
0100
0010
0000
1000
0000
0001
0010
0M00
0010
0100
0000
,
0001
0000
0100
0001
0010
0000
0001
0000
1000
0000
0001
0010
0M00
0010
0100
0000
,
0001
0000
1000
0010
0100
0000
0100
0000
0100
0000
0000
0000
0001
0000
0001
0000
,
0001
0000
1000
0000
1100
0000
1000
0000
0001
0000
0100
0001
0100
0000
0010
0000
,
1010
0000
0000
0000
0000
0000
1000
0000
0000
0001
0000
0000
1000
0000
0000
0000
0000
0000
0001
0000
0000
0000
0000
0000
0011
0000
0000
0000
0000
0000
0010
0000
0000
0001
0000
0000
1000
0000
0000
0000
0000
0000
0000
0000
0000
0000
0000
MMMM
,
0000
0000
0000
0000
0011
0000
0001
0000
1000
0000
0010
1000
0010
0000
0100
0000
,
0101
0000
0000
0000
0000
0000
0001
0000
0000
1000
0000
0000
0001
0000
0000
0000
0000
0000
1000
0000
0000
0000
0000
0000
1100
0000
0000
0000
0000
0000
0100
0000
0000
1000
0000
0000
0001
0000
0000
0000
0000
0000
0000
0000
0000
0000
0000
MMMM
,
0000
0000
0000
0000
1001
0000
0010
0000
1001
0000
1000
0100
1000
0000
0001
0000
,
0011
0000
0000
0000
0000
0000
0010
0000
0000
0001
0000
0000
0010
0000
0000
0000
0000
0000
0100
0000
0000
0000
0000
0000
1100
0000
0000
0000
0000
0000
1000
0000
0000
0001
0000
0000
1000
0000
0000
0000
0000
0000
0000
0000
0000
0000
0000
MMMM
,
0000
0000
0000
0000
1001
0000
0100
0000
1001
0000
0001
0010
0001
0000
1000
0000
,
1100
0000
0100
1000
0010
0000
0000
0000
0100
0000
0000
0000
0000
0000
0000
0000
,
0000
0000
0000
0000
,
0000
0000
0000
0000
;
