#VERSION:0.83;
#TITLE:Ice Cream Odyssey;
#SUBTITLE:;
#ARTIST:Ian Tsuchiura;
#TITLETRANSLIT:;
#SUBTITLETRANSLIT:;
#ARTISTTRANSLIT:;
#GENRE:;
#ORIGIN:;
#CREDIT:;
#BANNER:;
#BACKGROUND:;
#PREVIEWVID:;
#JACKET:;
#CDIMAGE:;
#DISCIMAGE:;
#LYRICSPATH:;
#CDTITLE:;
#MUSIC:Ice Cream Odyssey.ogg;
#OFFSET:-0.001000;
#SAMPLESTART:18.807127;
#SAMPLELENGTH:16.695650;
#SELECTABLE:YES;
#BPMS:0.000=57.500,
17.000=115.000,
51.000=57.500,
52.000=115.000,
82.000=57.500,
97.000=115.000,
131.000=57.500,
132.000=115.000;
#STOPS:;
#DELAYS:;
#WARPS:;
#TIMESIGNATURES:0.000=4=4;
#TICKCOUNTS:0.000=4;
#COMBOS:0.000=1;
#SPEEDS:0.000=1.000=0.000=0;
#SCROLLS:0.000=1.000,
17.000=0.000,
17.500=1.000,
18.000=0.000,
18.500=1.000,
51.500=2.000,
52.000=1.000,
97.000=0.000,
97.250=1.000,
98.000=0.000,
98.500=1.000,
131.500=2.000,
132.000=1.000;
#FAKES:;
#LABELS:0.000=Song Start;
#BGCHANGES:;
#KEYSOUNDS:;
#ATTACKS:
;

//---------------dance-single - ----------------
#NOTEDATA:;
#CHARTNAME:;
#STEPSTYPE:dance-single;
#DESCRIPTION:;
#CHARTSTYLE:;
#DIFFICULTY:Challenge;
#METER:13;
#RADARVALUES:0.488385,0.723247,0.046074,0.451526,0.594355,371.000000,366.000000,5.000000,49.000000,5.000000,0.000000,0.000000,0.000000,0.000000,0.488385,0.723247,0.046074,0.451526,0.594355,371.000000,366.000000,5.000000,49.000000,5.000000,0.000000,0.000000,0.000000,0.000000;
#CREDIT:Kingly;
#NOTES:
// measure 0
0000
0000
0000
0000
,  // measure 1
0000
0000
0000
0000
,  // measure 2
0000
0000
0000
0000
0000
0000
0000
0000
0000
0000
0000
0001
2000
0000
0000
0000
3010
0000
0000
0100
0000
0000
0001
0000
1000
0000
0000
0100
0000
0000
1000
0000
,  // measure 3
0010
0000
0000
0100
0000
0000
0001
0000
1000
0000
0000
0001
0000
0000
0010
0000
0100
0000
1000
0100
1000
0000
0001
0100
0001
0000
1000
0010
1000
0000
0001
0010
,  // measure 4
0100
1000
0100
1000
0001
0100
0001
0200
M010
0000
0000
0000
0000
0000
0000
0000
0310
0000
0000
0000
0000
0000
0000
0000
1000
0000
0000
0000
0100
0000
0000
0000
,  // measure 5
0001
0000
0100
0000
0010
0000
0010
0001
0000
1000
0100
0010
0001
0000
0001
0000
,  // measure 6
1000
0000
0010
0000
0001
0000
0010
0100
0000
0001
0100
0001
1000
0000
0100
0000
,  // measure 7
0001
0000
0100
0000
0010
0000
0010
0001
0000
1000
0100
0010
0001
0000
0001
0000
,  // measure 8
0010
0000
1000
0000
0010
0000
0001
2000
0000
0000
3010
0100
0001
0000
0100
0000
,  // measure 9
1000
0000
0100
0000
0010
0000
0010
1000
0000
0001
0100
0010
1000
0000
0100
0000
,  // measure 10
0010
0000
0100
0000
0001
0000
0100
1000
0000
0002
0000
0000
0013
0000
0100
0000
,  // measure 11
0001
0000
0100
0000
1000
0000
0010
0001
0000
0020
0000
0130
0001
0000
1000
0100
,  // measure 12
0000
0010
0000
0001
0000
0100
0000
0001
0000
1000
0010
0100
M001
0000
2001
0000
,  // measure 13
3001
0000
0001
0100
0000
0001
0010
0100
1000
0000
1000
0000
0010
0000
0100
0000
,  // measure 14
1000
0000
0100
0001
0000
1000
0100
0010
0001
0000
0010
0000
1000
0000
0010
0000
,  // measure 15
0100
0000
0100
1000
0000
0001
0100
0010
1000
0000
1000
0000
0010
0000
0001
0000
,  // measure 16
0010
0000
1000
0002
0000
0000
0103
0010
1000
0000
0010
0000
0001
0000
0010
0000
,  // measure 17
0100
0000
0100
0001
0000
1000
0100
0010
0100
0000
0002
0000
0203
0000
0320
0000
,  // measure 18
0032
0000
1003
0010
0000
1000
0100
0010
0001
0000
0010
0000
1000
0000
0010
0000
,  // measure 19
0001
0000
0100
1000
0000
0100
0010
0100
0001
0000
1000
0000
0100
0000
0001
0000
,  // measure 20
0100
0000
0000
0000
0000
0000
2000
0000
0000
0000
0000
0000
3001
0000
0100
0000
00M1
0000
0000
0000
1000
0000
0000
0000
0100
0010
0000
0001
0000
0100
0001
0000
,  // measure 21
1000
0000
0000
0000
0001
0000
0000
0000
0100
0010
0000
1000
0000
0100
1000
0000
0001
0000
0000
0000
1000
0000
0000
0000
0100
0010
0000
0001
0000
0100
0001
0000
,  // measure 22
2000
0000
3200
0000
0320
0000
0032
0000
2003
0000
3020
0000
0230
0000
0000
0000
0301
0000
0000
1000
0000
0000
0100
0000
0000
1000
0010
0000
0100
0000
0000
0001
,  // measure 23
1000
0000
0000
0001
0000
0000
0100
0000
0000
0001
0010
0000
0100
0000
1000
0100
1000
0000
0001
0100
0001
0000
1000
0010
1000
0000
0001
0010
0001
0000
1000
0100
,  // measure 24
0010
0001
0010
0001
1000
0010
1000
0010
010M
0000
0000
0000
0000
0000
0001
0000
1000
0000
0000
0000
0000
0000
0000
0000
1002
0000
0000
0000
0000
0000
0000
0000
,  // measure 25
0103
0010
1000
0100
0001
0200
0000
0310
,  // measure 26
0001
2000
0000
3100
1000
0010
0100
0001
,  // measure 27
0100
0001
0100
1000
0100
0020
0000
1030
,  // measure 28
0100
1000
0001
0100
0000
0001
0010
0000
0100
0000
0001
0000
0200
0000
0000
0000
,  // measure 29
1300
0001
0100
2000
0000
3100
0010
0100
,  // measure 30
0001
1000
0200
0000
0320
0030
0012
0000
,  // measure 31
2003
3000
1010
0001
0100
0020
0000
0000
,  // measure 32
2030
0000
0000
0000
3002
0000
0000
0000
0023
0000
0000
0000
M130
0100
2001
0000
,  // measure 33
3100
0010
0001
0200
0000
0301
2000
0000
,  // measure 34
3200
0000
0000
0000
0301
0100
0010
0100
2000
0000
3002
0000
0203
0000
0000
0000
,  // measure 35
0310
0000
1000
0000
0100
0000
2000
0000
0000
0000
3001
0000
0002
0000
0000
0013
,  // measure 36
0100
1000
0100
1000
0001
0100
0001
0100
0020
0000
0000
0000
0130
0000
1000
0000
,  // measure 37
0200
0000
0310
2000
0000
0001
3002
0000
,  // measure 38
1003
0100
0010
0100
1000
0001
0100
0001
1000
0000
0100
0000
0020
0000
0000
0000
,  // measure 39
0031
0100
0010
2000
0000
3100
0001
0200
,  // measure 40
0000
1300
0100
0010
0001
0000
0000
0000
0000
0000
0000
0000
0000
0000
0000
0000
;
