#VERSION:0.83;
#TITLE:インターネットサバイバー;
#SUBTITLE:;
#ARTIST:COOL&CREATE;
#TITLETRANSLIT:INTERNET SURVIVOR;
#SUBTITLETRANSLIT:;
#ARTISTTRANSLIT:;
#GENRE:;
#CREDIT:;
#MUSIC:INTERNET SURVIVOR.ogg;
#BANNER:INTERNET SURVIVOR.png;
#BACKGROUND:INTERNET SURVIVOR-bg.png;
#CDTITLE:;
#SAMPLESTART:68.357;
#SAMPLELENGTH:15.000;
#SELECTABLE:YES;
#OFFSET:1.397;
#BPMS:0.000=172.000
,167.000=86.000
,175.000=172.000
,255.000=86.000
,259.000=172.000
;
#STOPS:103.750=0.349
,323.000=1.725
;
#TIMESIGNATURES:0.000=4=4,
104.000=3=4,
107.000=4=4
;
#DISPLAYBPM:172.000;
#BGCHANGES:4.100=INTERNET SURVIVOR.mp4=1.000=0=0=0=StretchNoLoop====,
99999.000=-nosongbg-=1.000=0=0=0=StretchNoLoop====
;
#FGCHANGES:;

//--------------- dance-single - forcednature ----------------
#NOTEDATA:;
#STEPSTYPE:dance-single;
#DESCRIPTION:forcednature;
#CREDIT:forcednature;
#DIFFICULTY:Beginner;
#METER:5;
#RADARVALUES:0,0,0,0,0;
#NOTES:
0000
0000
0000
0000
,
0000
0000
0000
0000
,
0000
0000
0000
0000
,
0000
0000
0000
0000
,
0000
0000
0000
0000
,
0000
0000
0000
0000
,
0001
0000
0000
0000
,
0000
0000
0000
0000
,
1000
0000
0000
0000
,
0010
0000
0000
0000
,
0100
0000
0000
0000
,
0001
0000
0000
0000
,
1000
0000
0000
0000
,
0001
0000
0000
0000
,
0010
0000
0000
0000
,
0100
0000
0000
0000
,
1000
0000
0000
0000
,
0100
0000
0000
0000
,
0010
0000
0000
0000
,
0000
0000
0000
0000
,
0001
0000
0000
0000
,
1000
0000
0000
0000
,
0010
0000
0000
0000
,
0000
0000
0000
0000
,
1000
0000
0000
0000
,
0001
0000
0000
0000
,
0000
0000
0000
0100
,
0000
0000
0000
0000
,
0000
0000
0000
0010
,
0000
0000
0000
0000
,
0000
0000
0000
1000
,
0000
0000
0000
0000
,
0000
0000
0000
0001
,
0000
0000
0000
1000
,
0000
0000
0000
0001
,
0000
0000
0000
1001
,
0000
0000
0000
0000
,
0000
0000
0000
0001
,
0000
0000
0000
1000
,
0000
0000
0000
1001
,
0000
0000
0000
0000
,
0000
0000
0000
1000
,
0000
0000
0000
0001
,
0000
0000
0000
0100
,
0000
0000
0000
0010
,
0000
0000
0000
1000
,
0000
1000
0000
0001
,
0000
0000
0000
1001
,
0000
0000
0000
1000
,
0000
0000
0000
0100
,
0000
0000
0000
1000
,
0000
0000
0000
0001
,
0000
0000
0000
0100
,
0000
0000
0000
0001
,
0000
0000
0000
0010
,
0000
0000
0000
0100
,
0000
0000
0000
1000
,
0000
0000
0000
0001
,
0000
0000
0000
0100
,
0000
0000
0000
0010
,
0000
0000
0000
1000
,
0000
0000
0000
0001
,
0000
0001
0000
0000
,
0000
0000
0000
1001
,
0000
0000
0000
1000
,
0000
0000
0000
0010
,
0000
0000
0000
0100
,
0000
0000
0000
0001
,
0000
0000
0000
1000
,
0000
0000
0000
0100
,
0000
0000
0000
0010
,
0000
0000
0000
0001
,
0000
0000
0000
0100
,
0000
0000
0000
0010
,
0000
0000
0000
1000
,
0000
0000
0000
0001
,
0000
0000
0000
0010
,
0000
0000
0000
0100
,
0000
0000
0000
1000
,
0000
0000
0000
0001
,
0000
0000
0000
2002
,
0000
0000
0000
0000
,
0000
0000
0000
0000
,
0000
0000
0000
0000
,
0000
0000
0000
0000
,
0000
3003
0000
0000
;

//--------------- dance-single - forcednature ----------------
#NOTEDATA:;
#STEPSTYPE:dance-single;
#DESCRIPTION:forcednature;
#CREDIT:forcednature;
#DIFFICULTY:Easy;
#METER:9;
#RADARVALUES:0,0,0,0,0;
#NOTES:
0000
0000
0000
0000
,
0000
0000
0000
0000
,
0000
0000
0000
0000
,
0000
0000
0000
0000
,
0000
0000
0000
0000
,
0000
0000
0000
0000
,
1000
0000
1000
0100
,
1000
0000
0001
0100
,
0001
0000
0001
0010
,
0100
0000
1000
0000
,
1001
0000
0001
0000
,
0100
0001
0100
0000
,
0010
0000
1000
0000
,
0010
1000
0010
1000
,
0100
0000
1000
0000
,
0100
1000
0100
0000
,
0010
0000
0001
0000
,
0010
0001
0010
0000
,
1001
0000
0001
0000
,
0000
0100
0001
0000
,
1000
0000
0100
0000
,
1000
0001
1000
0000
,
0010
0000
0100
0000
,
0001
0001
1000
0000
,
0100
0010
0100
0000
,
1000
0000
0000
1000
0000
0000
2002
0000
,
3003
0001
0100
0010
,
1000
0002
0003
1000
,
0100
1000
0000
0010
,
0010
0200
0300
0001
,
1000
0001
0000
0010
,
0100
1000
0000
0001
,
0100
0001
1000
0100
,
1000
0020
0030
0100
,
0100
0010
0010
1000
,
1000
0001
0001
0010
,
0000
0000
0100
1001
,
0000
0000
0000
1000
,
1000
0100
1000
0001
,
0100
0100
0010
1000
,
0000
0000
0100
1001
,
0000
0000
0000
2000
,
0000
3000
0002
0000
0000
0003
0200
0000
,
0320
0230
0300
1001
,
0000
0000
0000
0110
,
0000
0000
0000
1000
,
0000
0001
0000
0000
1000
0000
0001
0000
,
2002
0000
3003
1001
,
0010
1001
0100
1000
,
0001
1000
0001
0000
0010
0000
0110
0000
,
1000
0000
0110
0000
0001
0000
1000
0001
,
1000
0000
0001
1000
0001
0000
1001
0000
,
0100
1001
0010
0001
,
1000
0001
1000
0000
0010
0000
0110
0000
,
1000
0110
0001
2002
,
0000
3003
0000
0011
,
1000
1010
0001
0100
,
0010
0100
0010
0000
1000
0000
1100
0000
,
0001
0000
0101
0000
1000
0000
0001
1000
,
0001
0000
1000
0001
1000
0000
0110
0000
,
0001
0000
0110
0000
0000
1001
0000
1001
,
0000
0010
0000
0000
0000
0000
1000
0001
,
0000
0000
0001
1000
0000
0000
0000
1000
,
0001
1000
0001
0000
0000
0000
0220
0000
,
0000
0000
0330
1000
,
0001
0200
0301
1000
,
0100
2000
3001
0010
,
0001
2000
3010
0100
,
0010
0000
2000
0000
3001
1000
0001
0000
,
0010
0200
1300
0010
,
0100
0002
1003
0200
,
0320
0032
2003
3020
,
0230
0000
0302
0000
0003
0000
1000
0001
,
1000
0000
0100
0000
0010
0000
0001
1000
,
0001
0000
0100
0000
0010
0000
1000
0100
,
1000
0000
0001
0000
0010
0000
0001
0100
,
0001
0000
1000
0000
1001
0000
0001
0010
,
0001
0000
1000
0000
0100
0000
1000
0010
,
1000
0000
0001
0000
0100
0000
0010
0100
,
0010
0000
0100
0010
0100
0000
0001
1000
,
0001
0010
0100
1001
,
0000
0000
0000
MMMM
0000
0000
0000
0000
;

//--------------- dance-single - forcednature ----------------
#NOTEDATA:;
#STEPSTYPE:dance-single;
#DESCRIPTION:forcednature;
#CREDIT:forcednature;
#DIFFICULTY:Medium;
#METER:13;
#RADARVALUES:0,0,0,0,0;
#NOTES:
0000
0000
0000
0000
,
0000
0000
0000
0000
,
0000
0000
0000
0000
,
0000
0000
0000
0000
,
0000
0000
0000
0000
,
0000
0000
0000
0000
,
0001
0100
0001
1000
,
0010
0100
0110
0000
0001
1000
0010
0000
,
1000
0001
0010
0000
0100
0000
1000
0000
,
0001
0000
0001
0000
0100
0000
0100
0000
0010
0000
0000
0010
0000
0000
1000
0000
,
0001
0000
0010
0000
0100
0000
1000
0000
0100
0000
0000
0010
0000
0000
0001
0000
,
1000
0000
0010
0000
0100
0000
0001
0000
0100
0000
0000
0010
0000
0000
1000
0000
,
0001
0000
1000
0000
0100
0000
0010
0000
0100
0000
0000
1000
0000
0000
0001
0000
,
1000
0000
0010
0000
0100
0000
0001
0000
0010
0000
0000
0010
0100
0000
0100
0000
,
1000
0000
0001
0000
0100
0000
0010
0000
0110
0000
0000
0010
0000
0000
1000
0000
,
0001
0000
1000
0000
0100
0000
0010
0000
0110
0000
0000
0010
0000
0000
0001
0000
,
1000
0000
0010
0000
0100
0000
0001
0000
1001
0000
0000
0001
0000
0000
0100
0000
,
0010
0000
0010
0000
1000
0000
1000
0000
0100
0000
0000
0110
0000
0000
0000
0000
,
0001
1000
0001
1000
0020
0000
0130
0001
,
0000
1000
0000
0100
0001
0000
0100
0000
,
0010
0001
1000
0000
0010
1000
0001
0000
,
1001
0110
2002
3003
,
1000
0100
0010
0000
0100
0010
0001
0000
,
0101
1100
0101
0000
,
2000
3020
0032
0023
,
0130
0100
0000
0110
0000
0010
2002
0000
,
3003
0000
0001
1000
0010
0100
0001
0000
,
1100
0000
0202
0000
0303
0000
1000
0100
,
0010
0001
1000
0000
0010
0000
0110
0000
,
0001
0001
2000
0000
3000
0000
0010
0100
,
0001
1000
0001
0000
0010
0000
0110
0000
,
0100
1000
0001
0000
0100
0000
0010
1000
,
0001
0000
0010
0001
1000
0000
0010
0010
,
0000
0110
0000
1001
0000
0000
1000
0100
,
0010
0100
1000
0001
0100
0001
1000
0010
,
0100
0010
1000
0001
0010
0001
0100
0000
,
0000
0000
0000
0000
0010
1000
0001
0010
,
0000
0000
0000
0000
0000
0000
0001
0100
,
0010
1000
0001
0001
0101
0000
1000
0100
,
0010
0001
0100
0001
0010
0100
1000
0000
,
0000
0000
0000
0000
0010
0100
0001
1000
,
0000
0000
0000
0002
,
0013
0000
0100
0000
2000
0000
0000
0000
3010
0000
0100
0000
0002
0000
0000
0003
,
2000
0000
0000
3000
0220
0000
0000
0330
0000
0000
0000
0000
1000
0000
1001
0000
,
0000
0000
0000
0000
0000
0000
0001
1001
,
0000
0000
0000
0000
0000
0000
1000
0100
,
0100
0001
0100
0100
0010
0000
0110
0000
,
1001
0000
0001
0100
1000
0000
0101
0000
,
0011
0000
0010
0100
1000
0001
0000
0100
,
0010
1000
0001
0000
0011
0000
1010
0000
,
1100
0000
0100
0010
0001
1000
0000
0010
,
0100
1000
0100
0001
1000
0000
0101
0000
,
0011
0000
0010
0100
1000
0010
0000
0100
,
0001
1000
0100
0000
0110
0000
0010
0001
,
0100
0001
1000
0100
1000
0010
0200
0000
,
0001
0000
0310
1000
0001
0010
0100
1000
,
1010
0000
0001
0010
0100
1000
0000
0010
,
0100
0001
1000
0000
1010
0000
0010
0100
,
0101
0000
0001
0010
0100
1000
0010
0100
,
1001
0000
0100
0010
1001
0000
0110
0000
,
1001
0000
0001
0010
0100
1100
0000
1001
,
0000
1010
0000
0010
0100
0001
0010
0110
,
0000
0000
0100
0110
0000
0000
0000
1000
,
1000
0001
0001
0000
0010
0000
2002
0000
,
0000
0000
0000
0000
3003
0000
0001
0100
,
0010
0000
1000
0000
0001
0000
0000
0001
0010
0000
0100
0000
1000
0000
0100
0000
,
0010
0000
0001
0000
1000
0000
0000
1000
0010
0000
0100
0000
0001
0000
0010
0000
,
0100
0000
0010
0000
0001
0000
0000
0001
0100
0000
0010
0000
1000
0000
0100
0000
,
0010
0000
0100
0000
1000
0000
0000
1000
0010
0000
0010
0000
0100
0000
0001
0000
,
1000
0000
0100
0000
0010
0000
0000
0010
0100
0000
1000
0000
0010
0000
1000
0000
,
0001
0000
0010
0000
0100
0000
0000
0100
0010
0000
0001
0000
0100
0000
0010
0000
,
0100
0010
1000
0001
1000
0001
0010
0100
,
0010
0100
2000
0000
3001
0100
0010
1000
,
0001
0000
0010
0000
0100
1000
0000
0100
1000
0000
0100
0000
0010
0000
0001
0000
,
1000
0000
0010
0000
0100
0001
0000
0100
0001
0000
0100
0000
0010
0000
1000
0000
,
0001
0000
0010
0000
0001
0100
0000
0001
0100
0000
0010
0000
1000
0000
0001
0000
,
0100
0000
0001
0000
1000
0100
0000
1000
0100
0000
0100
0000
0010
0000
0001
0000
,
0100
0000
0001
0000
0010
0100
0000
1000
0100
0000
0010
0000
0001
0000
0100
0000
,
0010
0000
0100
0000
0001
1000
0000
0001
0200
0000
0000
0000
0301
1000
0001
0000
,
0010
0000
0100
0000
1000
0001
1000
0000
0010
0000
0100
0000
0001
0000
0001
0000
,
1000
0000
1000
0000
0100
0000
0000
0110
0000
0000
0010
0000
1001
0000
0000
0000
,
0000
0000
0000
MMMM
0000
0000
0000
0000
;

//--------------- dance-single - forcednature ----------------
#NOTEDATA:;
#STEPSTYPE:dance-single;
#DESCRIPTION:forcednature;
#CREDIT:forcednature;
#DIFFICULTY:Hard;
#METER:16;
#RADARVALUES:0,0,0,0,0;
#NOTES:
0000
0000
0000
0000
,
0000
0000
0000
0000
,
0000
0000
0000
0000
,
0000
0000
0000
0000
,
0000
0000
0000
0000
,
0000
0000
0000
0000
,
1001
1000
0100
0010
,
0001
1000
2002
3003
1000
0001
0100
0010
,
1000
0001
2002
3003
1000
1000
0001
0001
,
0100
0010
0100
0010
1000
0000
0001
0000
0010
0000
0000
1001
0000
0000
1000
0000
,
0001
0100
0001
0100
0001
0000
1000
0000
0010
0000
0000
0100
0000
0000
0001
0000
,
1000
0100
1000
0100
1000
0000
0001
0000
0010
0000
0000
0100
0000
0000
1000
0000
,
0001
0100
0001
0100
0001
0000
1000
0000
0010
0000
0000
0100
0000
0000
0001
0000
,
1000
0100
1000
0100
1000
0000
0001
0000
0010
0000
0000
0000
0001
0000
1001
0000
,
1000
0010
1000
0010
0100
0000
0001
0000
0010
0000
0000
0001
0000
0000
1000
0000
,
0001
0010
0001
0010
0100
0000
1000
0000
0010
0000
0000
1000
0000
0000
0001
0000
,
0010
0100
0010
0100
1000
0000
0001
0000
0100
0000
0000
0010
0000
0000
1000
0000
,
0001
0100
0001
0000
1000
0100
1000
0100
0010
0000
0000
1001
0000
0000
1000
0000
,
0010
0100
0001
0100
0020
0000
1030
0001
,
0000
0011
0000
0100
1000
0000
0011
0000
,
1000
0100
0001
0100
1000
0010
0001
0010
,
0100
0001
0100
0000
2002
0000
3003
0000
,
1000
0100
0110
0000
0001
0100
0010
1000
,
1100
0101
0011
0000
,
1000
0010
0000
0000
0010
1000
0000
0000
0001
0010
0000
0000
0010
0001
0000
0000
,
0100
0000
0110
0000
0000
0000
1001
0000
0000
0000
0010
0000
0110
0000
0001
2000
,
3001
0100
0010
0100
1000
0100
0001
0010
,
0110
0000
2002
0000
3003
0000
1000
0100
,
0001
0100
2000
0000
3010
0000
0120
0000
,
0130
0010
2002
0000
3003
0000
1000
0010
,
0100
1000
1100
0000
0101
0000
0021
0000
,
0130
0001
0100
1000
0010
0000
0100
0001
,
0010
1000
0001
0100
1000
0010
0100
0101
,
0000
0000
1100
0000
0000
0000
1001
0000
0000
0000
1000
0000
0001
0000
1000
0100
,
1000
0000
0001
0100
0001
0000
1000
0010
1000
0000
0001
0010
0001
0000
0100
0010
,
0100
0000
0001
1000
0001
0000
0010
0100
0010
0000
0001
0000
1000
0000
0010
0100
,
0000
0010
0000
1000
0000
0100
0000
0010
0100
0000
1000
0000
0001
0000
0010
0000
,
0100
0000
0010
0001
0000
0200
0000
0000
0310
0000
0010
0000
1000
0000
0001
0000
,
0100
0001
0000
0001
1000
0100
1000
0100
0010
0000
0000
0000
0001
0000
1000
0010
,
1000
0000
0100
0000
0001
0000
0100
0000
1000
0000
0001
0000
0100
0000
0010
1000
,
0000
0001
0000
0010
0000
0100
0000
0010
0001
0000
1000
0000
0010
0000
0100
0000
,
0001
0000
1000
0100
0000
0020
0000
0000
0031
0000
0000
0000
2001
0000
0000
0001
,
3002
0000
0203
0000
0320
0000
0000
1000
2030
0000
3200
0000
0320
0000
0000
0000
,
0200
0000
0330
0000
2002
0000
0000
3003
0000
1000
0001
0100
0020
0030
0110
0000
,
0000
0000
0000
0001
1000
0100
0010
0110
,
0000
0000
0000
0000
0000
0000
0000
0000
0000
0000
1000
0001
1000
0000
0001
0100
,
0001
0000
1000
0000
0001
0010
0001
0000
1000
0010
1000
0010
1000
0000
0000
0000
,
0110
0000
0000
0000
0001
1000
0001
1000
0010
0000
0000
0000
0100
0000
0001
0000
,
0010
0001
0010
0000
0100
0000
1000
0000
0010
1000
0010
0000
0100
0000
0001
0000
,
1000
0000
0100
0000
0110
0000
0000
0000
1001
0000
0000
0000
1000
0100
1000
0000
,
0001
0100
0001
0000
0010
0100
0010
0000
0001
0000
1000
0000
0010
0100
0010
0100
,
0001
0000
0000
0000
0010
0100
0010
0100
2000
0000
0000
0000
3001
0000
0010
0000
,
0100
1000
0100
0000
1000
0000
0010
0000
0100
0001
0100
0000
0010
0000
0001
0000
,
0010
0000
1000
0000
1001
0000
0000
0000
0110
0000
0000
0000
1000
0000
0010
1000
,
0001
0000
0100
0000
0001
0000
0010
0001
1000
0000
0100
0000
1000
0001
1000
0001
,
0100
0000
0100
0000
0001
1000
0001
1000
0100
0010
0100
0000
0010
0000
0001
0000
,
0100
0010
0100
0000
0010
1000
0001
0000
0010
0100
0010
0000
0001
0000
1000
0000
,
0010
0000
0100
0000
0110
0000
0000
0000
1001
0000
0000
0000
1000
0010
0100
0000
,
0010
0100
0001
0000
1000
0001
0010
0000
0100
0000
1000
0000
0001
0100
0010
0100
,
0001
0000
0000
0000
1000
0100
0010
0100
2000
0000
0000
0000
3001
0000
0100
0000
,
0010
1000
0010
0000
1000
0100
0010
0000
0001
0010
0001
0000
0000
0000
0100
0000
,
0010
0000
1001
0000
0000
0000
1000
0010
1000
0010
0100
0000
0001
0000
0101
0000
,
0000
0000
1000
1100
0000
0000
0000
0010
,
0110
0000
0100
0000
0110
0000
0000
0000
1001
0000
0000
0000
0220
0330
0000
0001
,
0002
0000
1003
1000
0000
2002
0000
0000
0000
0000
3003
0000
0001
0100
0001
0100
,
0010
0000
1000
0000
1100
0000
0000
0100
1000
0000
0010
0000
1000
0100
1000
0100
,
0010
0000
0001
0000
0101
0000
0000
0100
0010
0000
1000
0000
0001
0010
0001
0010
,
0100
0000
1000
0000
1010
0000
0000
0010
1000
0000
0100
0000
1000
0010
1000
0010
,
0100
0000
0001
0000
0011
0000
0010
0100
1000
0000
1000
0000
0001
0100
0010
1000
,
0001
0000
0010
0000
0110
0000
0000
0100
1000
0000
0010
0000
1000
0100
0010
0001
,
1000
0000
0010
0000
0110
0000
0000
0100
0001
0000
0010
0000
0001
0000
0100
0001
,
0100
0000
0010
0100
0010
0000
1000
0010
1000
0000
0001
1000
0010
0000
1000
0001
,
0010
0000
0100
0000
1000
0001
1000
0001
0100
0010
0100
0000
0001
1000
0001
1000
,
0100
0010
0100
0010
0001
0000
0000
0001
1000
0000
0010
0000
1000
0001
1000
0001
,
0100
0010
0100
0010
1000
0000
0000
1000
0001
0000
0010
0000
0100
1000
0100
1000
,
0001
0100
0001
0100
0010
0000
0000
0010
1000
0000
0001
0000
0100
0001
0100
0001
,
1000
0100
1000
0100
0010
0000
0001
0010
0001
0000
0001
0000
1000
0010
0100
0001
,
0100
0010
1000
0001
0010
0000
0000
0010
0100
0000
1000
0000
0001
0010
0100
1000
,
0100
0010
0001
1000
0010
0000
0000
0010
0200
0000
0000
0000
0301
0010
0001
0010
,
0100
1000
0100
0000
1000
0010
1000
0010
0100
0001
0100
0000
0001
1000
0001
1000
,
0100
0010
0100
0010
0001
0000
0000
1001
0000
0000
1000
0010
0100
0000
0000
0000
,
0000
0000
0000
MMMM
0000
0000
0000
0000
;

//--------------- dance-single - forcednature ----------------
#NOTEDATA:;
#STEPSTYPE:dance-single;
#DESCRIPTION:forcednature;
#CREDIT:forcednature;
#DIFFICULTY:Challenge;
#METER:18;
#RADARVALUES:0,0,0,0,0;
#NOTES:
0000
0000
0000
0000
,
0000
0000
0000
0000
,
0000
0000
0000
0000
,
0000
0000
0000
0000
,
0000
0000
0000
0000
,
0000
0000
0000
0000
,
1001
0001
0100
0010
,
1000
0001
2002
3003
1000
0100
0010
0001
,
0100
0010
0220
0330
0001
0001
1000
1000
,
0100
0010
0100
0010
0001
0010
0001
0010
0100
0000
0000
0110
0000
0000
1000
0000
,
0001
0100
0010
1000
0010
0100
0001
1000
0100
0000
0000
0100
0010
0000
0001
0000
,
1000
0100
0010
0001
0010
0100
1000
0001
0100
0000
0000
0100
0010
0000
1000
0000
,
0100
0010
0100
1000
0001
0100
0010
0100
0001
0000
0000
0001
1000
0000
0010
0000
,
0100
0010
0100
0001
1000
0100
0010
0100
1000
0000
0001
0100
0010
0000
0010
0000
,
1000
0100
1000
0001
0010
0001
1000
0100
1000
0000
0000
1000
0010
0000
1000
0000
,
0001
0100
0001
1000
0010
1000
0001
0100
0001
0000
0000
0001
0010
0000
0001
0000
,
0100
0010
0100
0001
1000
0001
0010
0100
0010
0000
0000
0010
0001
1000
0001
1000
,
0010
0100
0001
0100
0010
1000
0001
1000
0100
0000
0000
0110
0000
0000
0010
0001
,
1000
0010
0001
0010
0200
0000
0301
1000
,
0000
0110
0000
0010
1001
0000
0110
0000
,
1000
0100
0110
0010
0001
0100
0110
0010
,
1000
0001
1001
0000
0110
0000
MMMM
0000
,
0001
0100
1010
0000
1000
0100
0011
0000
,
0001
0100
1000
0000
1000
0100
0001
0000
1001
0000
0000
0000
0000
0000
0000
0000
,
1000
0010
0000
0000
1100
0000
0000
0000
0001
0010
0000
0000
0101
0000
0000
0000
,
1001
0000
1001
0000
0000
0000
0110
0000
0000
0000
0010
0000
1001
0000
1000
0200
,
0310
0000
0001
0100
0001
0000
0100
0010
0100
0000
0010
1000
0020
0000
0230
0000
,
0302
0000
0003
0000
0022
0000
0000
0000
0033
0000
0000
0000
0010
0100
0010
0000
,
0001
0000
1000
0000
0010
0100
0010
0000
1000
0000
0000
0000
1200
0000
0000
0000
,
1000
0000
0010
0000
0002
0000
0000
0000
0303
0000
0000
0000
0100
0010
0001
0000
,
0100
0000
0001
0000
1000
0010
0100
0010
1000
0000
0000
0000
0201
0000
0000
0000
,
2300
3002
0023
2030
3002
0003
0010
0100
,
1100
1000
0010
0100
0101
0001
0011
1010
,
0000
0000
0110
0000
0000
0000
1000
0100
0020
0000
0032
0000
0103
0000
1000
0100
,
0001
0000
0010
0100
1000
0000
0001
0100
0010
0000
0001
0010
1000
0000
0100
0010
,
0001
0000
1000
0010
0100
0000
1000
0100
0001
0000
0010
0100
1000
0100
0010
0001
,
0000
0100
0000
1000
0000
0100
0000
0010
1000
0000
0001
0000
0101
0000
1010
0000
,
0001
0000
0010
0100
0000
2000
0000
0000
3010
0000
0010
0000
0100
0000
0001
0010
,
0001
1000
0000
0100
0001
0100
0010
0100
2000
0000
0000
0000
3010
0000
0100
0001
,
2000
0000
0010
0000
3002
0000
0010
0000
0103
0000
0110
0000
1001
0000
0001
0010
,
0100
1000
0000
0010
0000
0001
0000
0010
0100
0000
0001
0000
0011
0000
1100
0000
,
1000
0000
0001
0100
0000
0020
0000
0000
1030
0000
0000
0000
1200
0000
0000
0010
,
0320
0000
0032
0000
0203
0000
0000
0010
0320
0000
1030
0000
0202
0000
0303
0000
,
2200
0000
3300
0000
2002
0000
0000
3003
0000
1000
0100
0010
0022
0033
0011
0000
,
0000
0000
0000
0000
0000
0000
0001
0000
1000
0000
0001
0100
0010
0000
1010
0000
,
0000
0000
0000
0000
0000
0000
0000
0000
0000
0000
1000
0100
0010
0000
0001
0010
,
0100
0000
0110
0000
0010
0001
1000
0001
0100
0010
1000
0010
0200
0000
0300
0000
,
0220
0000
0330
0000
1001
0000
0110
0000
1001
0000
0000
0000
1000
0100
1000
0000
,
0001
0100
0001
0000
0010
0000
0100
1000
0001
0000
0101
0000
0000
0000
0100
0010
,
1000
0000
0001
0000
0011
0000
0000
0000
1100
0000
0000
0000
1000
0010
1000
0000
,
0001
0010
0001
0000
0100
0010
1000
0010
0100
0000
0001
0000
1000
0100
0010
0001
,
0100
0000
0000
0000
0001
0100
0010
1000
0200
0000
0000
0000
0310
0001
1000
0000
,
0010
1000
0001
0000
0010
0000
0100
1000
0001
0000
0101
0000
0000
0000
0001
0010
,
0100
0000
1000
0000
1010
0000
0000
0000
0101
0000
0000
0000
0001
0010
0100
0000
,
1000
0010
0100
0000
0001
0010
0001
0100
0010
0000
1000
0000
0100
0010
0001
0100
,
0001
0000
1000
0001
0100
0010
1000
0010
0100
0001
1000
0000
0100
0010
0001
0000
,
0100
0010
1000
0000
0001
0000
0010
0100
1000
0000
1100
0000
0000
0000
1000
0010
,
0100
0000
0001
0000
0011
0000
0000
0000
1010
0000
0000
0000
1000
0001
0100
0000
,
0001
1000
0100
0000
0010
0001
0010
0001
1000
0000
0010
1000
0100
0010
0001
0100
,
1000
0000
0000
0000
0100
0010
1000
0100
0002
0000
0000
0000
0103
1000
0001
0000
,
0100
0001
1000
0000
0100
0000
0010
0001
0100
0000
0101
0000
0000
0000
1100
0000
,
1000
0000
1010
0000
0000
0000
0001
0100
0010
0100
0001
0100
0010
0000
1001
0000
,
0000
0000
0110
1001
0000
0200
0000
0001
,
0010
0000
1300
0000
0110
0000
0000
0000
0010
0000
0000
0000
2002
3003
0000
1000
,
2000
0000
0000
0000
3020
0000
0230
0000
0000
0000
0302
0000
0000
0000
0000
0000
0013
0100
0010
0100
0010
0100
0010
0100
2000
0000
3100
0000
0010
0000
0001
0000
,
0100
0001
0010
0100
1000
0000
0000
1000
0010
0000
0100
0000
0001
0100
0010
1000
,
0100
1000
0010
0100
0001
0000
0000
0001
0010
0000
0100
0000
0010
0001
0100
0001
,
1000
0100
1000
0010
0100
0000
0000
0100
0001
0000
1000
0000
0100
1000
0010
1000
,
0001
0010
0001
0100
0010
0000
0100
0000
0110
0000
1001
0000
0001
0100
0010
0100
,
1000
0100
0010
0100
0001
0000
0000
0001
1000
0000
0010
0000
1000
0100
0010
0100
,
0001
0100
0010
0100
1000
0000
0000
1000
0001
0000
0010
0000
0002
0000
0103
0001
,
2000
0000
3100
1000
0002
0000
0013
0100
2000
0000
3010
0100
0001
1000
0001
0010
,
0200
0000
0310
0001
1000
0010
1000
0010
0100
0001
1000
0000
0001
0010
0100
0010
,
0001
0010
0100
1000
2100
0000
0000
3100
0010
0000
0001
0000
1000
0010
0100
0010
,
1000
0010
0100
0001
0102
0000
0000
0103
0010
0000
1000
0000
0100
0010
0001
0010
,
0100
1000
0001
0100
0210
0000
0000
0310
1000
0000
0001
0000
0100
0010
1000
0010
,
0100
0001
1000
0100
0210
0000
0310
0001
1000
0000
1001
0000
0001
1000
0010
0100
,
1000
0100
0010
1000
2010
0000
0000
3010
0100
0000
0001
0000
1000
0001
0010
0100
,
0001
0100
0010
0001
0012
0000
0000
0013
0200
0000
0000
0000
1300
0010
0100
0010
,
1000
0001
0100
0001
1000
0100
0010
0100
1000
0001
0010
0001
0200
0320
2030
3200
,
0320
0000
0000
0032
0000
0000
0203
0000
0000
0320
0000
0000
1030
0000
0000
0000
0000
0000
0000
0000
0000
1001
0000
0000
0000
0000
0000
0000
0000
0000
0001
0000
0010
0000
0100
0000
1000
0000
0000
0000
0000
0000
0000
0000
0000
0000
0000
0000
,
0000
0000
0000
MMMM
0000
0000
0000
0000
;

//--------------- dance-double - forcednature ----------------
#NOTEDATA:;
#STEPSTYPE:dance-double;
#DESCRIPTION:forcednature;
#CREDIT:forcednature;
#DIFFICULTY:Easy;
#METER:9;
#RADARVALUES:0,0,0,0,0;
#NOTES:
00000000
00000000
00000000
00000000
,
00000000
00000000
00000000
00000000
,
00000000
00000000
00000000
00000000
,
00000000
00000000
00000000
00000000
,
00000000
00000000
00000000
00000000
,
00000000
00000000
00000000
00000000
,
00001000
00000000
00001000
01000000
,
00001000
00000000
00010000
00000100
,
00010000
00000000
00001000
00100000
,
00010000
00000000
10000000
00000000
,
10010000
00000000
00010000
00000000
,
01000000
00000000
00001000
00000000
,
00010000
00000000
00000100
00000000
,
00001000
00000000
00000001
00000001
,
00000001
00000000
00000100
00000000
,
00000010
00000000
00010000
00000000
,
00001000
00000000
00100000
00000000
,
01000000
01000000
01000000
00000000
,
10010000
00000000
00010000
00000000
,
00000000
01000000
00010000
00000000
,
00100000
00000000
00001000
00000000
,
00010000
00010000
00001000
00000000
,
00010000
00000000
00000010
00000000
,
00000100
00000100
00000001
00000000
,
00001000
00000001
00001000
00000000
,
00000100
00000000
00000000
00000100
00000000
00000000
00002000
00000000
,
00003000
00000010
00010000
00001000
,
00010000
00000200
00000300
00010000
,
00001000
00010000
00000000
00001000
,
00001000
02000000
03000000
00010000
,
10000000
00010000
00000000
00100000
,
01000000
10000000
00000000
00010000
,
01000000
00001000
00010000
00000100
,
00001000
00000020
00000030
00000100
,
00000100
00000001
00000001
00000100
,
00000100
00000010
00000010
00001000
,
00000000
00000000
00000100
00001001
,
00000000
00000000
00000000
00001000
,
00001000
00000100
00010000
00001000
,
01000000
01000000
00010000
10000000
,
00000000
00000000
01000000
10010000
,
00000000
00000000
00000000
00020000
,
00000000
00030000
02000000
00000000
00000000
03000000
00002000
00000000
,
00023000
00032000
00003000
00011000
,
00000000
00000000
00000000
00011000
,
00000000
00000000
00000000
00000100
,
00000000
00010000
00000000
00000000
00001000
00000000
01000000
00000000
,
02000000
00000000
03000000
10010000
,
00100000
10010000
01000000
00001000
,
00010000
00001000
00010000
00000000
00000100
00000000
00000110
00000000
,
00001000
00000000
00000110
00000000
00000001
00000000
00000100
00000010
,
00000100
00000000
00000001
00001000
00000001
00000000
00001001
00000000
,
00000100
00001001
00000010
00000001
,
00001000
00000001
00001000
00000000
00000100
00000000
00011000
00000000
,
00010000
00011000
00001000
00022000
,
00000000
00033000
00000000
10010000
,
00100000
10010000
01000000
10000000
,
00010000
10000000
00010000
00000000
01000000
00000000
00011000
00000000
,
00010000
00000000
00011000
00000000
00001000
00000000
00010000
00000100
,
00010000
00000000
00001000
01000000
00001000
00000000
00011000
00000000
,
00000010
00000000
00011000
00000000
00000000
00000100
00000000
00000100
,
00000000
00000110
00000000
00000000
00000000
00000000
00010000
00001000
,
00000000
00000000
00001000
00010000
00000000
00000000
00000000
00001000
,
00010000
00001000
00010000
00000000
00000000
00000000
20020000
00000000
,
00000000
00000000
30030000
10000000
,
01000000
00200000
00310000
01000000
,
00001000
00020000
00030100
00001000
,
00000010
00020000
00031000
00100000
,
00010000
00000000
20000000
00000000
30010000
10000000
00010000
00000000
,
00100000
00002000
00013000
00000010
,
00001000
00000002
00000013
00000200
,
00020300
00032000
02003000
03020000
,
00230000
00000000
00302000
00000000
00003000
00000000
00010000
00001000
,
00010000
00000000
00000010
00000000
00001000
00000000
00000001
00001000
,
00000001
00000000
00001000
00000000
00000100
00000000
00010000
00001000
,
00010000
00000000
00001000
00000000
01000000
00000000
00010000
10000000
,
00010000
00000000
00100000
00000000
01100000
00000000
00010000
10000000
,
00010000
00000000
01000000
00000000
00001000
00000000
00010000
00001000
,
00010000
00000000
00000100
00000000
00001000
00000000
00000001
00001000
,
00000001
00000000
00001000
00000001
00001000
00000000
00000010
00000100
,
00000010
00000100
00000100
00001001
,
00000000
00000000
00000000
MMMMMMMM
00000000
00000000
00000000
00000000
;

//--------------- dance-double - forcednature ----------------
#NOTEDATA:;
#STEPSTYPE:dance-double;
#DESCRIPTION:forcednature;
#CREDIT:forcednature;
#DIFFICULTY:Medium;
#METER:13;
#RADARVALUES:0,0,0,0,0;
#NOTES:
00000000
00000000
00000000
00000000
,
00000000
00000000
00000000
00000000
,
00000000
00000000
00000000
00000000
,
00000000
00000000
00000000
00000000
,
00000000
00000000
00000000
00000000
,
00000000
00000000
00000000
00000000
,
00001000
01000000
00001000
00010000
,
00000100
00001000
00001100
00000000
00000001
00000010
00000100
00000000
,
00001000
00000100
00010000
00000000
00001000
00000000
01000000
00000000
,
00010000
00000000
00010000
00000000
10000000
00000000
10000000
00000000
01000000
00000000
00000000
01000000
00000000
00000000
00100000
00000000
,
00010000
00000000
00100000
00000000
00001000
00000000
00010000
00000000
00000100
00000000
00000000
00000100
00000000
00000000
00000100
00000000
,
00001000
00000000
00000010
00000000
00010000
00000000
00001000
00000000
01000000
00000000
00000000
01000000
00000000
00000000
01000000
00000000
,
00010000
00000000
00100000
00000000
00001000
00000000
00010000
00000000
00000010
00000000
00000000
00000010
00000000
00000000
00000010
00000000
,
00001000
00000000
00000100
00000000
00010000
00000000
00001000
00000000
01000000
00000000
00000000
01000000
00100000
00000000
00100000
00000000
,
10000000
00000000
01000000
00000000
00010000
00000000
00001000
00000000
00000010
00000000
00000000
00000010
00000000
00000000
00000010
00000000
,
00000001
00000000
00000100
00000000
00001000
00000000
00010000
00000000
00100000
00000000
00000000
00100000
00000000
00000000
00100000
00000000
,
10000000
00000000
01000000
00000000
00010000
00000000
00001000
00000000
00000010
00000000
00000000
00000100
00000000
00000000
00000010
00000000
,
00000001
00000000
00000001
00000000
00000001
00000000
00000001
00000000
00000100
00000000
00000000
00000110
00000000
00000000
00000000
00000000
,
00000010
00010000
00000010
00010000
00002000
00000000
00103000
00010000
,
00000000
10000000
00000000
01000000
00010000
00000000
00001000
00000000
,
00000010
00000001
00000100
00000000
00000010
00001000
00000100
00000000
,
00000110
00011000
02200000
03300000
,
10000000
01000000
00010000
00000000
00001000
00010000
01000000
00000000
,
20000000
30020000
00031000
00000000
,
00000020
00002030
00023000
02030000
,
03100000
00100000
00000000
01100000
00000000
01000000
20020000
00000000
,
30030000
00000000
10000000
01000000
00010000
00001000
00010000
00000000
,
00010100
00000000
00020020
00000000
00030030
00000000
00000010
00000100
,
00001000
00000100
00000001
00000000
00000010
00000000
00000110
00000000
,
00000100
00010000
00002000
00000000
00003000
00000000
01000000
00010000
,
00100000
01000000
10000000
00000000
00100000
00000000
01100000
00000000
,
01000000
00001000
00010000
00000000
00000100
00000000
00000010
00000001
,
00000100
00000000
00000010
00001000
00000100
00000000
00010000
00010000
,
00000000
00011000
00000000
01001000
00000000
00000000
01000000
00100000
,
01000000
00010000
00100000
01000000
00100000
00010000
00001000
00000100
,
00000010
00000100
00001000
00000010
00000100
00000010
00000001
00000000
,
00000000
00000000
00000000
00000000
00000010
00001000
00010000
01000000
,
00000000
00000000
00000000
00000000
00000000
00000000
00100000
10000000
,
01000000
10000000
00100000
00010000
00001000
00000000
00000010
00000100
,
00001000
00000010
00000001
00000010
00001000
00010000
01000000
00000000
,
00000000
00000000
00000000
00000000
00100000
00010000
00001000
00000100
,
00000000
00000000
00000000
00000002
,
00000103
00000000
00001000
00000000
00020000
00000000
00000000
00000000
00130000
00000000
10000000
00000000
02000000
00000000
00000000
03000000
,
00020000
00000000
00000000
00030000
00022000
00000000
00000000
00033000
00000000
00000000
00000000
00000000
00010000
00000000
00010100
00000000
,
00000000
00000000
00000000
00000000
00000000
00000000
00001000
01001000
,
00000000
00000000
00000000
00000000
00000000
00000000
00001000
00010000
,
00100000
00010000
00001000
00000010
00001000
00000000
00010100
00000000
,
01001000
00000000
01000000
00100000
00010000
00000000
00011000
00000000
,
00010100
00000000
00000100
00000010
00000001
00000100
00000000
00000010
,
00010000
00001000
01000000
00000000
01100000
00000000
10100000
00000000
,
11000000
00000000
01000000
00010000
00001000
00100000
00000000
00010000
,
01000000
00001000
00010000
00000010
00001000
00000000
00001100
00000000
,
00000110
00000000
00000010
00000001
00000100
00000001
00000000
00000010
,
00001000
00010000
01000000
00000000
01100000
00000000
00100000
00001000
,
01000000
00001000
00010000
00000100
00010000
00000010
00002000
00000000
,
00000100
00000000
00003010
00001000
00000100
00000010
00000001
00000100
,
00000110
00000000
00000010
00010000
00001000
01000000
00000000
00010000
,
00100000
01000000
10000000
00000000
10010000
00000000
00010000
01000000
,
01001000
00000000
00010000
00000100
00001000
00000100
00000010
00001000
,
00011000
00000000
00100000
00010000
00011000
00000000
01001000
00000000
,
00010100
00000000
00000100
00000010
00001000
00011000
00000000
01001000
,
00000000
01010000
00000000
00010000
00100000
01000000
00100000
00011000
,
00000000
00000000
00000010
00011000
00000000
00000000
00000000
00100000
,
00010000
00001000
00000100
00000000
00000110
00000000
00002002
00000000
,
00000000
00000000
00000000
00000000
00003003
00000000
00000001
00000010
,
00000100
00000000
00001000
00000000
00000010
00000000
00000000
00000010
00010000
00000000
00001000
00000000
01000000
00000000
00010000
00000000
,
00100000
00000000
01000000
00000000
10000000
00000000
00000000
10000000
00100000
00000000
01000000
00000000
00001000
00000000
00010000
00000000
,
00000100
00000000
00010000
00000000
00001000
00000000
00000000
00001000
00000010
00000000
00000100
00000000
00001000
00000000
00000010
00000000
,
00000100
00000000
00000001
00000000
00000010
00000000
00000000
00000010
00000100
00000000
00000100
00000000
00010000
00000000
00001000
00000000
,
01000000
00000000
00001000
00000000
00100000
00000000
00000000
00100000
00010000
00000000
10000000
00000000
00100000
00000000
01000000
00000000
,
00010000
00000000
00100000
00000000
01000000
00000000
00000000
01000000
00100000
00000000
00001000
00000000
00010000
00000000
00000010
00000000
,
00010000
00000010
00000100
00001000
00000100
00001000
00010000
01000000
,
00010000
01000000
20000000
00000000
30020000
00000000
01030000
00001000
,
00010000
00000000
00000010
00000000
00001010
00000000
00000000
00001000
00000100
00000000
00000010
00000000
00000001
00000000
00000100
00000000
,
00000010
00000000
00010000
00000000
00011000
00000000
00000000
00001000
01000000
00000000
00010000
00000000
00100000
00000000
01000000
00000000
,
00100000
00000000
00010000
00000000
10010000
00000000
00000000
10000000
00100000
00000000
01000000
00000000
00001000
00000000
00010000
00000000
,
00000100
00000000
00010000
00000000
00011000
00000000
00000000
00001000
01000000
00000000
01000000
00000000
00001000
00000000
00010000
00000000
,
00001000
00000000
00000010
00000000
00000110
00000000
00000000
00000100
00001000
00000000
00000001
00000000
00000100
00000000
00000010
00000000
,
00000100
00000000
00000001
00000000
00000011
00000000
00000000
00000010
00000200
00000000
00000000
00000000
00010300
00000000
00001000
00000000
,
00000100
00000010
00001000
00000100
00000010
00000001
00000100
00001000
,
00010000
00000000
01000000
00000000
00100000
00000000
00000000
01100000
00000000
00000000
01000000
00000000
10010000
00000000
00000000
00000000
,
00000000
00000000
00000000
MMMMMMMM
00000000
00000000
00000000
00000000
;

//--------------- dance-double - forcednature ----------------
#NOTEDATA:;
#STEPSTYPE:dance-double;
#DESCRIPTION:forcednature;
#CREDIT:forcednature;
#DIFFICULTY:Hard;
#METER:16;
#RADARVALUES:0,0,0,0,0;
#NOTES:
00000000
00000000
00000000
00000000
,
00000000
00000000
00000000
00000000
,
00000000
00000000
00000000
00000000
,
00000000
00000000
00000000
00000000
,
00000000
00000000
00000000
00000000
,
00000000
00000000
00000000
00000000
,
00011000
00010000
00100000
10000000
,
01000000
00100000
02200000
03300000
00100000
00010000
00001000
00000100
,
00010000
00001000
00022000
00033000
00010000
00010000
00000010
00000010
,
00001000
00000010
00001000
00000010
00000100
00000000
00000001
00000000
00000010
00000000
00000000
00000110
00000000
00000000
00000100
00000000
,
00010000
00001000
00010000
00001000
00010000
00000000
00001000
00000000
01000000
00000000
00000000
00010000
00000000
00000000
00100000
00000000
,
01000000
10000000
01000000
10000000
01000000
00000000
00100000
00000000
00001000
00000000
00000000
00010000
00000000
00000000
00000010
00000000
,
00001000
00000100
00001000
00000100
00001000
00000000
00000001
00000000
00000100
00000000
00000000
00001000
00000000
00000000
00010000
00000000
,
00001000
01000000
00001000
01000000
00001000
00000000
01000000
00000000
00010000
00000000
00000000
00000000
00100000
00000000
01100000
00000000
,
01000000
10000000
01000000
10000000
00010000
00000000
01000000
00000000
00001000
00000000
00000000
00010000
00000000
00000000
00000010
00000000
,
00001000
00000100
00001000
00000100
00010000
00000000
00001000
00000000
00000010
00000000
00000000
00000100
00000000
00000000
00001000
00000000
,
00000001
00000100
00000001
00000100
00000010
00000000
00010000
00000000
00001000
00000000
00000000
00100000
00000000
00000000
01000000
00000000
,
10000000
00010000
10000000
00000000
00010000
01000000
00010000
01000000
00001000
00000000
00000000
00011000
00000000
00000000
00010000
00000000
,
00000100
00000010
00000100
00010000
00002000
00000000
00003100
00000010
,
00000000
00001001
00000000
00010000
00001000
00000000
10010000
00000000
,
10000000
01000000
00010000
00001000
00000100
00001000
00010000
01000000
,
10000000
00100000
00010000
00000000
00022000
00000000
00033000
00000000
,
00001000
00000010
00001000
00000000
00010000
00100000
00010000
00001000
,
01001000
00011000
00010100
00000000
,
00000020
00002030
00203000
20300000
,
31000000
00000000
01000000
00000000
00000000
00000000
00011000
00000000
00000000
00000000
00000100
00000000
00001000
00000000
00000001
00000200
,
00001300
00010000
00100000
01000000
00100000
00010000
00001000
00100000
,
01000000
00000000
20020000
00000000
30030000
00000000
10000000
01000000
,
00010000
00001000
00000020
00000000
00000031
00000000
00000201
00000000
,
00001300
00010000
00200000
00000000
00300000
00000000
10000000
01000000
,
00010000
00001000
00101000
00000000
00011000
00000000
00010020
00000000
,
00000130
00001000
00000100
00000001
00000010
00000000
00000100
00010000
,
00100000
00010000
00000010
00001000
00010000
01000000
00100000
10100000
,
00000000
00000000
11000000
00000000
00000000
00000000
01010000
00000000
00000000
00000000
00010000
00000000
00001000
00000000
00010000
00000010
,
00010000
00000000
00001000
00100000
00001000
00000000
00010000
00000100
00010000
00000000
00001000
01000000
00001000
00000000
00010000
00000010
,
00001000
00000000
00000100
00010000
00001000
00000000
01000000
00010000
00100000
00000000
01000000
00000000
10000000
00000000
00100000
01000000
,
00000000
00100000
00000000
00010000
00000000
00001000
00000000
00010000
00000100
00000000
00000010
00000000
00000001
00000000
00000100
00000000
,
00001000
00000000
00010000
00001000
00000000
02000000
00000000
00000000
03010000
00000000
00010000
00000000
10000000
00000000
01000000
00000000
,
00010000
00001000
00000000
00001000
00100000
00010000
00100000
00010000
10000000
00000000
00000000
00000000
00100000
00000000
01000000
00010000
,
01000000
00000000
00100000
00000000
00010000
00000000
00100000
00000000
01000000
00000000
00001000
00000000
00010000
00000000
00000100
00001000
,
00000000
00000001
00000000
00001000
00000000
00000010
00000000
00000100
00000001
00000000
00000010
00000000
00000100
00000000
00010000
00000000
,
00001000
00000000
00100000
01000000
00000000
20000000
00000000
00000000
30100000
00000000
00000000
00000000
20010000
00000000
00000000
01000000
,
32000000
00000000
03020000
00000000
00032000
00000000
00000000
00000100
00003200
00000000
00000302
00000000
00000023
00000000
00000000
00000000
,
00000200
00000000
00000330
00000000
00022000
00000000
00000000
00033000
00000000
01000000
00010000
10000000
02000000
03000000
01100000
00000000
,
00000000
00000000
00000000
00100000
00001000
00010000
00000010
00000110
,
00000000
00000000
00000000
00000000
00000000
00000000
00000000
00000000
00000000
00000000
00000001
00000100
00000001
00000000
00001000
00000100
,
00001000
00000000
00000010
00000000
00010000
00001000
00010000
00000000
00001000
00100000
00010000
00100000
01000000
00000000
00000000
00000000
,
01100000
00000000
00000000
00000000
10000000
00010000
10000000
00010000
00100000
00000000
00000000
00000000
01000000
00000000
10000000
00000000
,
00010000
01000000
00010000
00000000
01000000
00000000
00001000
00000000
00010000
00000010
00010000
00000000
00001000
00000000
00000010
00000000
,
00000100
00000000
00000010
00000000
00000011
00000000
00000000
00000000
00000101
00000000
00000000
00000000
00000100
00000010
00000100
00000000
,
00000001
00001000
00000001
00000000
00000010
00000100
00000010
00000000
00001000
00000000
00010000
00000000
00001000
01000000
00010000
01000000
,
00001000
00000000
00000000
00000000
00010000
00000100
00001000
00000100
00020000
00000000
00000000
00000000
00031000
00000000
01000000
00000000
,
00010000
10000000
00010000
00000000
00100000
00000000
01000000
00000000
10000000
00010000
10000000
00000000
00100000
00000000
00010000
00000000
,
00001000
00000000
00000100
00000000
00000110
00000000
00000000
00000000
00001001
00000000
00000000
00000000
00001000
00000000
00000100
00010000
,
00001000
00000000
00100000
00000000
00010000
00000000
01000000
00001000
00010000
00000000
00000010
00000000
00001000
00000100
00001000
00000100
,
00010000
00000000
00010000
00000000
00001000
01000000
00001000
01000000
00010000
10000000
00010000
00000000
00100000
00000000
01000000
00000000
,
10000000
00100000
10000000
00000000
01000000
10000000
00010000
00000000
00100000
00010000
00100000
00000000
00001000
00000000
00010000
00000000
,
00000010
00000000
00001000
00000000
00001100
00000000
00000000
00000000
00000011
00000000
00000000
00000000
00000001
00000100
00000010
00000000
,
00001000
00000010
00010000
00000000
00001000
00100000
00010000
00000000
01000000
00000000
00001000
00000000
00010000
00000010
00000100
00000010
,
00010000
00000000
00000000
00000000
00001000
00100000
01000000
00100000
00002000
00000000
00000000
00000000
01003000
00000000
00010000
00000000
,
10000000
01000000
10000000
00000000
01000000
00100000
00010000
00000000
00100000
00001000
00010000
00000000
00000000
00000000
00000010
00000000
,
00000100
00000000
00001001
00000000
00000000
00000000
00001000
00000010
00001000
00000010
00010000
00000000
00001000
00000000
01001000
00000000
,
00000000
00000000
00010000
00010100
00000000
00000000
00000000
00000010
,
00001000
00000000
00010000
00000000
01000000
00000000
00000000
00000000
01100000
00000000
00000000
00000000
00022000
00033000
00000000
00010000
,
00020000
00000000
00030100
00000200
00000000
00000020
00000000
00000000
00000000
00000000
00000330
00000000
00000010
00000001
00000010
00000001
,
00001000
00000000
00000010
00000000
00010000
00000000
00000000
00010000
00001000
00000000
01000000
00000000
00010000
00100000
00010000
00100000
,
01000000
00000000
10000000
00000000
00100000
00000000
00000000
00100000
01000000
00000000
00001000
00000000
00010000
00000100
00010000
00000100
,
00001000
00000000
00000001
00000000
00000100
00000000
00000000
00000100
00000010
00000000
00001000
00000000
00000100
00010000
00000100
00010000
,
00001000
00000000
01000000
00000000
00010000
00000000
00100000
01000000
10000000
00000000
10000000
00000000
00010000
01000000
00001000
00010000
,
00001000
00000000
00100000
00000000
00010000
00000000
00000000
00010000
01000000
00000000
00001000
00000000
00010000
00000010
00001000
00000010
,
00010000
00000000
00001000
00000000
00000010
00000000
00000000
00000010
00000100
00000000
00001000
00000000
00000001
00000000
00000100
00000001
,
00000100
00000000
00000010
00000100
00000010
00000000
00001000
00000010
00001000
00000000
00000010
00010000
00001000
00000000
00010000
00001000
,
01000000
00000000
00010000
00000000
00100000
01000000
00100000
01000000
10000000
00010000
10000000
00000000
00010000
01000000
00010000
01000000
,
00001000
00010000
00001000
00010000
00000010
00000000
00000000
00000010
00001000
00000000
00000010
00000000
00001000
00000100
00001000
00000100
,
00010000
00001000
00010000
00001000
00100000
00000000
00000000
00100000
00010000
00000000
00100000
00000000
00010000
01000000
00010000
01000000
,
00001000
00010000
00001000
00010000
00000100
00000000
00000000
00000100
00001000
00000000
00000100
00000000
00001000
00000010
00001000
00000010
,
00010000
00001000
00010000
00001000
00100000
00000000
01000000
00100000
01000000
00000000
01000000
00000000
10000000
00010000
00100000
00010000
,
01000000
00001000
00010000
00001000
00100000
00000000
00000000
00100000
01000000
00000000
00100000
00000000
00001000
00010000
00000010
00010000
,
00000100
00001000
00000100
00000010
00000001
00000000
00000000
00000001
00000200
00000000
00000000
00000000
00000310
00001000
00000010
00010000
,
00001000
00000000
01000000
00000000
00010000
00100000
00001000
00010000
00001000
00000000
01000000
00000000
00010000
10000000
00010000
10000000
,
01000000
00100000
01000000
00100000
00010000
00000000
00000000
00001000
00000000
00000000
00000100
00000010
00000001
00000000
00000000
00000000
,
00000000
00000000
00000000
MMMMMMMM
00000000
00000000
00000000
00000000
;

//--------------- dance-double - forcednature ----------------
#NOTEDATA:;
#STEPSTYPE:dance-double;
#DESCRIPTION:forcednature;
#CREDIT:forcednature;
#DIFFICULTY:Challenge;
#METER:18;
#RADARVALUES:0,0,0,0,0;
#NOTES:
00000000
00000000
00000000
00000000
,
00000000
00000000
00000000
00000000
,
00000000
00000000
00000000
00000000
,
00000000
00000000
00000000
00000000
,
00000000
00000000
00000000
00000000
,
00000000
00000000
00000000
00000000
,
00011000
00010000
01000000
10000000
,
00100000
01000000
02200000
03300000
00100000
00010000
00001000
00000100
,
00001000
00010000
02000000
03000000
10000000
00010000
01000000
00001000
,
00010000
00000010
00001000
00000010
00000100
00000010
00001000
00000010
00010000
00000000
00000000
00011000
00000000
00000000
00001000
00000000
,
00100000
00010000
00100000
01000000
10000000
01000000
00100000
00010000
01000000
00000000
00000000
01000000
00001000
00000000
00010000
00000000
,
00000010
00001000
00000010
00000100
00000001
00000100
00000010
00001000
00000100
00000000
00000000
00000100
00010000
00000000
00001000
00000000
,
01000000
00010000
10000000
01000000
10000000
00010000
01000000
00010000
00100000
00000000
00000000
00100000
01000000
00000000
00100000
00000000
,
00001000
00010000
00001000
01000000
00010000
01000000
00001000
00010000
00000100
00000000
00001000
00000001
00000010
00000000
00000010
00000000
,
00000100
00001000
00000100
00010000
00001000
00010000
00000010
00001000
00000010
00000000
00000000
00000010
00000100
00000000
00000001
00000000
,
00000010
00000100
00000010
00000001
00001000
00000001
00000100
00000010
00000100
00000000
00000000
00000100
00001000
00000000
00010000
00000000
,
00001000
01000000
00001000
00100000
00010000
00100000
01000000
10000000
01000000
00000000
00000000
01000000
00010000
00001000
00010000
00001000
,
00100000
00001000
00010000
00001000
01000000
00001000
00010000
00001000
00100000
00000000
00000000
01100000
00000000
00000000
01000000
10000000
,
00010000
00100000
01000000
00001000
02000000
00000000
03010000
00001000
,
00000000
00000110
00000000
00000001
00001000
00000000
00000110
00000000
,
00000001
00000100
00010000
00000100
00000001
00000010
00010000
00000010
,
00000100
00010000
00011000
00000000
01100000
00000000
MMMMMMMM
00000000
,
10000000
00010000
00001000
00000000
00010000
00001000
00000001
00000000
,
00000100
00000010
00001000
00000000
00010000
01000000
00100000
00000000
01100000
00000000
00000000
00000000
00000000
00000000
00000000
00000000
,
01000000
00001000
00000000
00000000
00100000
00010000
00000000
00000000
00001000
00000100
00000000
00000000
00010000
00000010
00000000
00000000
,
00000110
00000000
00000110
00000000
00000000
00000000
00011000
00000000
00000000
00000000
01100000
00000000
10010000
00000000
10000000
02000000
,
03010000
00000000
00001000
00010000
00000100
00000000
00001000
00000010
00010000
00000000
00001000
01000000
00020000
00000000
00230000
00000000
,
02300000
00000000
03000000
00000000
20020000
00000000
00000000
00000000
30030000
00000000
00000000
00000000
10000000
00100000
10000000
00000000
,
01000000
00000000
00010000
00000000
00001000
00100000
00001000
00000000
00010000
00000000
00000000
00000000
00000002
00000000
00000000
00000000
,
00002003
00023000
20030000
00000000
30000000
00000000
01000000
00010000
,
00001000
00000010
00000110
00000000
00001100
00000000
00001002
00000000
,
00000203
00002300
00203000
02300000
23000000
30000000
00100000
01000000
,
00010000
00000100
00000010
00001000
00010000
01000000
00010000
00100000
,
00000000
00000000
00011000
00000000
00000000
00000000
00000001
00001000
00000020
00000000
00000230
00000000
00000301
00000000
00001000
00000001
,
00000200
00000300
00000000
00000000
00000000
00000000
00000000
00000000
00000000
00000000
00000000
00000000
00000000
00000000
00000000
00000000
00000000
00000000
00000000
00000000
00000000
00000000
00000000
00000000
00000200
00000300
00000000
00000000
00000000
00000000
00000000
00000000
00000000
00000000
00000000
00000000
00001000
00000000
00000000
00000000
00000000
00000000
00000000
00000000
00000000
00000000
00000000
00000000
00000001
00000000
00000000
00000000
00000000
00000000
00000000
00000000
00000000
00000000
00000000
00000000
00000000
00000000
00000000
00000000
00000000
00000000
00000000
00000000
00000000
00000000
00000000
00000000
00000010
00000000
00000000
00000000
00000000
00000000
00000000
00000000
00000000
00000000
00000000
00000000
00000100
00000000
00000000
00000000
00000000
00000000
00000000
00000000
00000000
00000000
00000000
00000000
00001000
00000000
00000000
00000000
00000000
00000000
00000000
00000000
00000000
00000000
00000000
00000000
00000000
00000000
00000000
00000000
00000000
00000000
00000000
00000000
00000000
00000000
00000000
00000000
00000100
00000000
00000000
00000000
00000000
00000000
00000000
00000000
00000000
00000000
00000000
00000000
00010000
00000000
00000000
00000000
00000000
00000000
00000000
00000000
00000000
00000000
00000000
00000000
00001000
00000000
00000000
00000000
00000000
00000000
00000000
00000000
00000000
00000000
00000000
00000000
00000000
00000000
00000000
00000000
00000000
00000000
00000000
00000000
00000000
00000000
00000000
00000000
00010000
00000000
00000000
00000000
00000000
00000000
00000000
00000000
00000000
00000000
00000000
00000000
00000010
00000000
00000000
00000000
00000000
00000000
00000000
00000000
00000000
00000000
00000000
00000000
,
00001000
00000000
00000000
00000000
00000000
00000000
00000000
00000000
00000000
00000000
00000000
00000000
00000000
00000000
00000000
00000000
00000000
00000000
00000000
00000000
00000000
00000000
00000000
00000000
00000001
00000000
00000000
00000000
00000000
00000000
00000000
00000000
00000000
00000000
00000000
00000000
00001000
00000000
00000000
00000000
00000000
00000000
00000000
00000000
00000000
00000000
00000000
00000000
00000200
00000300
00000000
00000000
00000000
00000000
00000000
00000000
00000000
00000000
00000000
00000000
00000000
00000000
00000000
00000000
00000000
00000000
00000000
00000000
00000000
00000000
00000000
00000000
00000200
00000300
00000000
00000000
00000000
00000000
00000000
00000000
00000000
00000000
00000000
00000000
00000001
00000000
00000000
00000000
00000000
00000000
00000000
00000000
00000000
00000000
00000000
00000000
00001000
00000000
00000000
00000000
00000000
00000000
00000000
00000000
00000000
00000000
00000000
00000000
00000000
00000000
00000000
00000000
00000000
00000000
00000000
00000000
00000000
00000000
00000000
00000000
00000001
00000000
00000000
00000000
00000000
00000000
00000000
00000000
00000000
00000000
00000000
00000000
00000000
00000000
00000000
00000000
00000000
00000000
00000000
00000000
00000000
00000000
00000000
00000000
00000100
00000000
00000000
00000000
00000000
00000000
00000000
00000000
00000000
00000000
00000000
00000000
00000000
00000000
00000000
00000000
00000000
00000000
00000000
00000000
00000000
00000000
00000000
00000000
00001000
00000000
00000000
00000000
00000000
00000000
00000000
00000000
00000000
00000000
00000000
00000000
00010000
00000000
00000000
00000000
00000000
00000000
00000000
00000000
00000000
00000000
00000000
00000000
,
00000000
00001000
00000000
00100000
00000000
00100000
00000000
01000000
00010000
00000000
00001000
00000000
00010000
00000100
00000010
00000000
,
00000001
00000000
00000100
00000010
00000000
00002000
00000000
00000000
00003100
00000000
00000100
00000000
00010000
00000000
00001000
01000000
,
00010000
01000000
00000000
00100000
00010000
00100000
01000000
00100000
20000000
00000000
00000000
00000000
31000000
00000000
00010000
00001000
,
00100000
00000000
00001000
00000000
00000100
00000000
00001000
00000000
00010000
00000000
01000000
00000000
01100000
00000000
00100000
00010000
,
10000000
00100000
00000000
01000000
00000000
00001000
00000000
00010000
00000100
00000000
00000010
00000000
00000110
00000000
00001001
00000000
,
00000001
00000000
00000100
00001000
00000000
00020000
00000000
00000000
00130000
00000000
00000000
00000000
01200000
00000000
00000000
10000000
,
20300000
00000000
32000000
00000000
03020000
00000000
00000000
00001000
00032000
00000000
00003010
00000000
00000220
00000000
00000330
00000000
,
00022000
00000000
00033000
00000000
02200000
00000000
00000000
03300000
00000000
10000000
01000000
00010000
00022000
00033000
00011000
00000000
,
00000000
00000000
00000000
00000000
00000000
00000000
00000001
00000000
00000100
00000000
00001000
00010000
00001000
00000000
00011000
00000000
,
00000000
00000000
00000000
00000000
00000000
00000000
00000000
00000000
00000000
00000000
01000000
00001000
00010000
00000000
00000100
00010000
,
00001000
00000000
00011000
00000000
00001000
00100000
00010000
00100000
01000000
10000000
00010000
10000000
00200000
00000000
00300000
00000000
,
02200000
00000000
03300000
00000000
00100000
00000000
00001000
00000000
00000100
00000000
00000000
00000000
00000010
00000001
00000010
00000000
,
00000100
00001000
00000100
00000000
00010000
00000000
00001000
01000000
00010000
00000000
00110000
00000000
00000000
00000000
01000000
10000000
,
00010000
00000000
01000000
00000000
01001000
00000000
00000000
00000000
00010100
00000000
00000000
00000000
00000100
00001000
00000100
00000000
,
00010000
00001000
00010000
00000000
00000010
00001000
00000010
00000100
00000001
00000000
00001000
00000000
00000100
00010000
00001000
00100000
,
01000000
00000000
00000000
00000000
00100000
00001000
00010000
00000100
00000020
00000000
00000000
00000000
00000031
00001000
00000010
00000000
,
00001000
00000001
00000010
00000000
00000100
00000000
00010000
00001000
01000000
00000000
01010000
00000000
00000000
00000000
00010000
00100000
,
01000000
00000000
10000000
00000000
10010000
00000000
00000000
00000000
01001000
00000000
00000000
00000000
00001000
00010000
00000100
00000000
,
00010000
00001000
01000000
00000000
00010000
00100000
01000000
10000000
00100000
00000000
01000000
00000000
00001000
00100000
00010000
00100000
,
01000000
00000000
00100000
00010000
01000000
00010000
01000000
00001000
00010000
00000100
00001000
00000000
00000100
00000010
00000001
00000000
,
00000100
00000010
00001000
00000000
00000001
00000000
00000010
00000100
00010000
00000000
00011000
00000000
00000000
00000000
00001000
01000000
,
00010000
00000000
10000000
00000000
11000000
00000000
00000000
00000000
00011000
00000000
00000000
00000000
00000010
00010000
00001000
00000000
,
00100000
00001000
00010000
00000000
00000010
00001000
00000010
00001000
00000001
00000000
00000010
00000100
00010000
00001000
01000000
00001000
,
00100000
00000000
00000000
00000000
00001000
00010000
00000100
00010000
00000020
00000000
00000000
00000000
00000130
00000001
00001000
00000000
,
00000100
00001000
00000001
00000000
00000010
00000000
00000100
00001000
00010000
00000000
00011000
00000000
00000000
00000000
00000010
00000000
,
00010000
00000000
01000000
00000000
00000000
00000000
00100000
00010000
00100000
01000000
00100000
00010000
10000000
00000000
00010000
00000000
,
00000000
00000000
00001000
00000001
00000000
00000000
00000000
00000001
,
00000100
00000000
00010000
00000000
01000000
00000000
00000000
00000000
00100000
00000000
00000000
00000000
20020000
30030000
00000000
10000000
,
20000000
00000000
00000000
00000000
32000000
00000000
03020000
00000000
00000000
00000000
00032000
00000000
00000000
00000000
00000000
00000000
00003010
00000100
00000010
00000100
00000010
00000100
00000010
00000100
00002000
00000000
00003100
00000000
00010000
00000000
00000010
00000000
,
00010000
00000100
00001000
00000001
00000100
00000000
00000000
00000100
00001000
00000000
00010000
00000000
00001000
01000000
00010000
00100000
,
00010000
01000000
00001000
00010000
00001000
00000000
00000000
00001000
00100000
00000000
00010000
00000000
10000000
01000000
00100000
00001000
,
00010000
00000100
00000010
00000001
00001000
00000000
00000000
00001000
00000001
00000000
00000010
00000000
00000001
00000100
00000010
00010000
,
00001000
01000000
00100000
10000000
00010000
00000000
00100000
00000000
01100000
00000000
10010000
00000000
00001000
00010000
00000100
00000010
,
00000100
00010000
00001000
00010000
00000010
00000000
00000000
00000010
00001000
00000000
00000100
00000000
00010000
00001000
01000000
00100000
,
01000000
00001000
00010000
00001000
00100000
00000000
00000000
00100000
00010000
00000000
10000000
00000000
00200000
00000000
00310000
00001000
,
00000200
00000000
00001300
00010000
02000000
00000000
03010000
00001000
00000020
00000000
00001030
00010000
00000100
00001000
00000010
00010000
,
00002000
00000000
01003000
00010000
00100000
01000000
00100000
01000000
10000000
00100000
01000000
00000000
00010000
00100000
01000000
00010000
,
00001000
00000010
00000100
00001000
00000010
00000000
00000000
00000010
00001000
00000000
00000100
00000000
00001000
00000010
00000100
00001000
,
00010000
00100000
01000000
00010000
00100000
00000000
00000000
00100000
00010000
00000000
01000000
00000000
00100000
00010000
00001000
00010000
,
00000100
00010000
00001000
00010000
01000000
00000000
00000000
01000000
00010000
00000000
00001000
00000000
00000010
00001000
00010000
00001000
,
01000000
00001000
00010000
00001000
00000100
00000000
00000010
00001000
00000001
00000000
00001001
00000000
00000001
00000100
00000010
00001000
,
00010000
01000000
00100000
10000000
20100000
00000000
00000000
30100000
01000000
00000000
00010000
00000000
10000000
01000000
00100000
00010000
,
00001000
00000100
00000010
00000001
00000012
00000000
00000000
00000013
00000200
00000000
00000000
00000000
00001300
00000010
00000100
00001000
,
00010000
00100000
01000000
00010000
00100000
01000000
00010000
00001000
00000010
00000100
00001000
00000010
00000200
00002300
02003000
03002000
,
00203000
00000000
00000000
00302000
00000000
00000000
00003020
00000000
00000000
00002030
00000000
00000000
00013000
00000000
00000000
00000000
00000000
00000000
00000000
00000000
00000000
00011000
00000000
00000000
00000000
00000000
00000000
00000000
00000000
00000000
00001000
00000000
00010000
00000000
01000000
00000000
20000000
00000000
00000000
30000000
00000000
00000000
00000000
00000000
00000000
00000000
00000000
00000000
,
00000000
00000000
00000000
MMMM1001
00000000
00000000
00000000
00000000
;
