#TITLE:INSOMNIA;
#SUBTITLE:;
#ARTIST:ジャカルタファンクブラザーズ;
#TITLETRANSLIT:;
#SUBTITLETRANSLIT:;
#ARTISTTRANSLIT:Jakarta Funk Brothers;
#GENRE:FUNKOT;
#CREDIT:;
#BANNER:INSOMNIA.png;
#BACKGROUND:INSOMNIA-bg.png;
#LYRICSPATH:;
#CDTITLE:;
#MUSIC:INSOMNIA.ogg;
#OFFSET:4.379620;
#SAMPLESTART:25.158001;
#SAMPLELENGTH:15.000000;
#LASTBEATHINT:10.908988;
#SELECTABLE:YES;
#BPMS:0.000000=195.000000
;
#STOPS:
;
#BGCHANGES:2.500=INSOMNIA.mp4=1.000=1=0=1===CrossFade==,
99999=-nosongbg-=1.000=0=0=0 // don't automatically add -songbackground-
;
#KEYSOUNDS:;
#ATTACKS:;

//---------------dance-single - ----------------
#NOTES:
     dance-single:
     :
     Hard:
     16:
     0.826004,0.977122,0.507488,0.873544,0.320300,695.000000,634.000000,61.000000,105.000000,5.000000,0.000000,0.826004,0.977122,0.507488,0.873544,0.320300,695.000000,634.000000,61.000000,105.000000,5.000000,0.000000:
// measure 0
0000
0000
0000
0000
,  // measure 1
0000
0000
0000
0000
,  // measure 2
0000
0000
0000
0000
,  // measure 3
0000
0000
0000
0000
,  // measure 4
0000
0000
0000
0000
,  // measure 5
0000
0000
0000
0000
,  // measure 6
0000
0000
0000
0000
,  // measure 7
0000
0000
0000
0000
,  // measure 8
0001
0000
0100
0000
0101
0000
0001
0010
,  // measure 9
0000
0100
1000
0010
1000
0000
1010
0000
,  // measure 10
1000
0000
0100
0000
1100
0000
1000
0010
,  // measure 11
0100
0100
0002
0000
0013
0100
1000
0000
,  // measure 12
1100
0000
0101
0000
1100
0000
0010
0001
,  // measure 13
0101
0000
0000
0000
1100
0000
0000
0000
0101
0000
0000
0000
0010
0000
1000
0010
,  // measure 14
1000
0000
1100
0000
0101
0000
0001
0010
,  // measure 15
0210
0000
0000
0000
0301
0000
0000
0000
0100
0000
1000
0100
1000
0001
0010
0000
,  // measure 16
0001
0100
0010
1000
1000
0010
0100
0000
,  // measure 17
0002
0203
2300
3200
0302
0023
2030
3020
,  // measure 18
0032
0003
0100
0010
1000
0100
0010
0000
,  // measure 19
0001
0000
0100
0001
1000
0000
0010
0000
1000
0000
0100
1000
0001
0000
0000
0000
,  // measure 20
0010
0100
1000
0001
0001
1000
0100
0000
,  // measure 21
0020
2030
3020
0032
0203
2300
3200
0302
,  // measure 22
0013
0000
0110
0000
1001
0000
0100
0110
,  // measure 23
0000
0110
0000
0010
0100
0010
2002
0000
,  // measure 24
3003
0000
0001
0100
0010
0000
0010
0000
0010
0000
1000
0000
0010
0000
1000
0001
,  // measure 25
0100
0010
0100
0001
1000
0100
0001
0100
,  // measure 26
0010
0000
0000
0000
0001
0000
0100
0001
1000
0000
0001
0000
0100
0000
0001
0000
,  // measure 27
0010
0000
0002
0100
2003
0100
3002
0100
,  // measure 28
0003
0000
1000
0100
0010
0000
0100
0000
0010
0000
0001
1000
0001
0000
0010
0001
,  // measure 29
1000
0010
0100
1000
0100
0010
1000
0010
,  // measure 30
0001
0000
0000
0000
0010
0000
0100
0001
1000
0000
0100
0000
1000
0000
0010
0000
,  // measure 31
0200
0000
0301
0011
0000
0010
0100
0001
,  // measure 32
0000
0000
0100
1000
0001
0000
1000
0100
1000
0000
0001
0000
0010
0000
0001
1000
,  // measure 33
0001
0010
0100
0001
0100
1000
0001
0100
,  // measure 34
0010
0000
0000
0000
1000
0000
0100
1000
0001
0000
1000
0000
0100
0000
1000
0000
,  // measure 35
0010
0000
0000
2000
0000
0000
3100
0010
0001
2000
0000
0000
,  // measure 36
3010
0100
0010
0100
0001
0000
0000
0000
0010
0000
0001
1000
0001
0000
0010
0001
,  // measure 37
1000
0010
0100
1000
0100
0001
1000
0100
,  // measure 38
0120
0000
0031
0001
0100
0010
1000
0001
,  // measure 39
0010
0010
0100
0100
1000
0001
0100
0000
,  // measure 40
2010
0000
3100
0010
0012
0000
0103
0010
,  // measure 41
2010
0000
3100
0010
0012
0000
0103
0000
,  // measure 42
1010
1100
0101
0011
,  // measure 43
0001
0000
0010
0000
0100
0000
1000
0000
0001
0010
0100
1000
000M
0000
0000
0000
,  // measure 44
1000
0010
0001
0010
0100
0001
0011
0000
,  // measure 45
0001
0010
1000
0010
0100
1000
1010
0000
,  // measure 46
0210
0000
1000
0300
0102
0000
0010
0003
,  // measure 47
0011
0000
0000
0000
0110
0000
0000
0000
0001
1000
0001
1000
0020
0000
0000
0000
,  // measure 48
0130
1000
0100
0001
0010
0100
1100
0000
,  // measure 49
0100
0001
0100
1000
0010
0100
0101
0000
,  // measure 50
0021
0000
1000
0030
0210
0000
1000
0300
,  // measure 51
0100
0010
0100
0010
0001
0000
0100
0000
1001
0000
0100
0000
1001
0000
0000
0000
,  // measure 52
1000
0010
0001
1000
0100
0001
0011
0000
,  // measure 53
0001
0010
1000
0001
0100
1000
1010
0000
,  // measure 54
1200
0000
0001
0300
0201
0000
1000
0300
,  // measure 55
0110
0000
0000
0000
1001
0000
0000
0000
0001
0100
0010
1000
0002
0000
0000
0000
,  // measure 56
1003
0100
0001
1000
0010
0001
0101
0000
,  // measure 57
0001
0100
1000
0001
0010
1000
1100
0000
,  // measure 58
0012
0000
0100
0003
2010
0000
0100
3000
,  // measure 59
0001
0010
1000
1000
0010
0001
1000
0000
,  // measure 60
2100
0000
0010
3000
,  // measure 61
0102
0000
0013
000M
,  // measure 62
2020
3030
0202
0300
,  // measure 63
1000
0003
2002
3003
,  // measure 64
1200
0000
0010
0300
,  // measure 65
0201
0000
0010
0300
,  // measure 66
2020
3030
0022
0030
,  // measure 67
1000
0003
2002
3003
,  // measure 68
1010
0000
0010
0000
0001
0000
1000
0100
,  // measure 69
0001
0000
0000
0000
0010
0000
0000
0000
1000
0000
0010
0000
0001
0000
0010
0100
,  // measure 70
1000
0000
0100
0000
0001
0000
1000
0010
,  // measure 71
0001
0000
0000
0000
0100
0000
0000
0000
1000
0000
0001
0000
0010
0000
1000
0001
,  // measure 72
1000
0010
0100
0010
0001
0010
1000
1000
,  // measure 73
1000
0000
0100
0000
0010
0000
0100
0000
0001
0000
0001
0000
0001
0000
0100
1000
,  // measure 74
0001
0100
0010
0100
1000
0100
0001
0001
,  // measure 75
0001
0000
0010
0000
0100
0000
1000
0000
0001
0100
0001
0100
0010
1000
0010
1000
,  // measure 76
0002
0000
0000
0000
0003
0000
0000
0000
1000
0000
0001
0100
0001
0100
0001
0100
,  // measure 77
0001
0000
0010
0000
0100
1000
0100
1000
0002
0000
0000
0000
1003
0000
0002
0000
,  // measure 78
2003
3010
0200
0310
0002
0013
2000
3100
,  // measure 79
0020
0000
0130
0000
0001
0000
0100
1000
0001
0000
1000
0000
0001
0100
0001
0100
,  // measure 80
0020
0000
0030
0000
1000
0000
0100
0000
0010
0000
0001
1000
0100
0000
M100
0000
,  // measure 81
0001
0000
1000
0001
0010
0000
001M
0000
1000
0000
0010
0000
0001
0000
0010
0000
,  // measure 82
2000
3100
0020
0130
0002
0103
2000
3010
,  // measure 83
0200
0000
0310
0000
0002
0000
0013
1000
0001
0000
0010
0000
0100
0000
1000
0000
,  // measure 84
0002
0000
0000
0000
0103
0000
1000
0000
0100
0010
0100
0010
1000
0000
0001
0000
,  // measure 85
2000
0000
3100
0000
0002
0000
0103
0000
1000
0010
0100
0001
1000
0100
0010
0001
,  // measure 86
2000
3010
0200
0310
0002
0013
2000
3100
,  // measure 87
0020
0000
0130
0000
0002
0000
0103
1000
0001
0000
1000
0000
0001
0100
0010
0100
,  // measure 88
0002
0000
0000
0000
0013
0000
001M
0000
1000
0000
0001
0000
1000
0100
0010
0001
,  // measure 89
2000
0000
3000
0000
0001
0010
0100
1000
0002
0000
0203
0000
2300
0000
3100
0000
,  // measure 90
0102
0100
1003
0001
1000
0100
0002
0203
,  // measure 91
2300
0000
0100
0000
3001
0000
1000
0100
0010
0000
0001
0000
1000
0010
0100
0010
,  // measure 92
2000
0000
3010
0000
0002
0000
0023
0000
0130
0001
1000
0001
0020
0000
0230
0000
,  // measure 93
1300
0100
0010
0000
0001
0100
0010
0000
1000
0001
0010
0000
0001
1000
0010
0100
,  // measure 94
0002
0000
0000
0000
0013
0000
0001
1000
0002
0000
0000
0000
0103
0000
0001
1000
,  // measure 95
0020
0000
0000
0000
0130
0000
0010
1000
0020
0000
0000
0000
0130
0000
0010
0001
,  // measure 96
0020
1030
0200
1300
0002
1003
0020
1030
,  // measure 97
0001
0000
0010
0000
1000
0000
0010
0000
0001
1000
0001
1000
0200
0000
0300
0000
;

//---------------dance-single - ----------------
#NOTES:
     dance-single:
     :
     Medium:
     13:
     0.672688,0.773555,0.307820,0.507488,0.008319,566.000000,529.000000,37.000000,61.000000,6.000000,0.000000,0.672688,0.773555,0.307820,0.507488,0.008319,566.000000,529.000000,37.000000,61.000000,6.000000,0.000000:
0000
0000
0000
0000
,
0000
0000
0000
0000
,
0000
0000
0000
0000
,
0000
0000
0000
0000
,
0000
0000
0000
0000
,
0000
0000
0000
0000
,
0000
0000
0000
0000
,
0000
0000
0000
0000
,
1000
0100
0110
0110
,
0000
0000
0010
0000
0001
0000
0001
1000
,
0001
0100
0110
0110
,
0010
2000
3100
0002
,
0103
0000
1000
0000
1010
0000
1000
0010
,
0100
0000
0001
0000
0011
0000
0010
0001
,
1000
0000
0010
0000
0110
0000
0100
0001
,
1000
0000
1001
0000
0010
0010
0010
0000
,
1001
0000
0001
0100
0010
0100
0001
0000
,
0010
0100
1000
0010
0100
0010
1000
0100
,
0010
0000
0001
0100
0000
0100
0010
0000
,
1000
0100
1000
0001
0000
0100
0010
0000
,
1000
0000
0100
1000
0001
0010
0001
0000
,
0100
0001
0010
0100
0010
0001
0100
0010
,
0100
0000
0001
0000
0011
0000
0010
0100
,
0000
0100
1000
0010
1000
0001
0020
0000
,
0030
0100
0001
0100
1000
0100
0001
0100
,
1000
0001
0100
0010
1000
0001
0010
0100
,
1000
0000
0001
0100
0010
0000
1000
0100
,
0020
0001
1000
0031
,
0000
0010
1000
0010
0001
0010
1000
0010
,
0001
1000
0010
0100
0001
0100
0010
1000
,
0100
0000
0010
0001
0100
0000
0010
1000
,
0200
0000
0010
0320
0000
0001
0031
1000
,
0000
0010
0001
0010
1000
0010
0001
0010
,
1000
0001
0010
0100
0010
0001
1000
0010
,
0100
0000
0010
1000
0100
0000
0010
0001
,
0100
0000
0020
0000
1030
1000
0002
0000
,
0013
0010
0010
0100
0001
0100
1000
0100
,
0001
0100
1000
0001
0100
0010
1000
0001
,
0010
0000
0100
1000
0010
0000
0100
0001
,
0010
0010
0100
0100
1000
0001
1000
0000
,
2200
3300
0202
0303
,
0022
0033
2020
3030
,
1100
0101
0011
1010
,
1000
0100
0010
0001
0100
0100
0010
0000
,
2000
0000
3100
0010
0001
0100
0010
0100
,
0002
0000
0013
0100
1000
0010
0100
0010
,
2000
0000
3100
0001
0200
0000
1300
0010
,
2000
0000
3001
0010
0001
1000
0020
0000
,
0230
0000
0301
0010
0100
0010
0001
1000
,
0020
0000
0130
0001
0010
0100
1000
0010
,
0200
0000
0301
1000
0200
0000
0310
0001
,
1000
1000
0010
0100
1000
0100
0001
0000
,
0021
0000
0130
1000
0001
0100
0010
0000
,
2010
0000
3100
0010
0001
0100
0010
0000
,
2100
3010
0102
0013
,
1200
0000
0301
0000
0100
0100
2000
0000
,
3020
0000
0130
0001
0010
0100
0001
0000
,
2100
0000
3010
0100
0001
1000
0100
0000
,
0012
0103
2010
3100
,
0021
0000
1030
0010
0001
1000
0010
0000
,
2100
0000
0010
3000
,
0102
0000
0013
000M
,
2020
3030
0202
0300
,
1000
0003
2002
3003
,
2010
0000
0100
3000
,
0012
0000
0103
000M
,
2200
3300
0022
0030
,
1000
0003
2002
3003
,
0001
0000
0100
0000
1000
0000
0100
0001
,
1000
0000
0001
0000
1000
0100
0010
0001
,
1000
0000
0010
0000
0001
0000
0010
1000
,
0001
0000
1000
0000
0001
0010
0100
1000
,
0001
0000
0100
0000
1000
0000
0001
0010
,
1000
0000
0001
0000
1000
0100
0010
0001
,
1000
0000
0010
0000
0001
0000
1000
0100
,
0001
0010
0100
1000
0001
0100
0010
1000
,
0002
0003
2000
3100
,
1000
0010
0010
0100
0002
0000
1003
0001
,
1000
0100
1000
0001
1000
0010
1000
0100
,
0010
0001
0010
0100
1000
0010
0100
0001
,
2000
0000
3001
1000
0001
0010
0100
0100
,
1000
0010
0100
0100
0001
0010
0100
1000
,
0001
0100
0001
1000
0001
0100
0010
1000
,
0010
0100
0001
1000
0001
0010
0100
1000
,
0002
0000
0013
1000
0010
0001
0100
0010
,
1000
0100
0010
0100
0001
0100
1000
0001
,
1000
0010
0100
0010
0001
0010
1000
0100
,
0010
0100
0001
0100
1000
0010
0100
0001
,
2000
0000
3001
1000
0001
0010
1000
0010
,
0001
0100
1000
0100
0001
0100
0010
1000
,
0001
0010
0100
0010
1000
0010
0001
0100
,
0010
0100
1000
0100
0001
0010
0100
1000
,
0002
0000
0103
1000
0100
0001
0010
0100
,
1000
0010
0001
0010
1000
0100
0001
0100
,
0010
M000
0010
1000
0100
000M
0100
0001
,
0010
M000
0010
1000
0100
000M
0100
0001
,
1000
0100
0010
0100
0001
0100
0010
0100
,
1000
0000
0010
0000
0100
0000
0001
0000
1000
0001
1000
0001
2000
0000
3000
0000
;

//---------------dance-single - ----------------
#NOTES:
     dance-single:
     :
     Beginner:
     4:
     0.270977,0.365953,0.008319,0.191348,0.000000,228.000000,227.000000,1.000000,23.000000,0.000000,0.000000,0.270977,0.365953,0.008319,0.191348,0.000000,228.000000,227.000000,1.000000,23.000000,0.000000,0.000000:
0000
0000
0000
0000
,
0000
0000
0000
0000
,
0000
0000
0000
0000
,
0000
0000
0000
0000
,
0000
0000
0000
0000
,
0000
0000
0000
0000
,
1000
0000
1000
0000
,
0001
0001
0001
0000
,
0100
0000
0010
0010
,
0000
0000
1000
1000
,
0000
0000
0001
0001
,
0000
0000
0010
0010
,
0000
0100
0100
0100
,
0000
1000
1000
1000
,
0000
0001
0001
0001
,
0002
0003
0000
0000
,
1000
0000
0010
0000
,
0100
0100
0100
0100
,
0100
0000
0001
0000
,
0010
0010
0010
0010
,
0010
0000
0100
0000
,
1000
1000
1000
1000
,
1000
1000
0000
0001
,
0000
0100
0100
0100
,
0000
0010
0010
0010
,
0010
0000
0100
0000
,
0001
0000
1000
0000
,
0100
0000
0010
0000
,
0000
0100
0100
0100
,
0100
0000
1000
0000
,
0001
0000
0100
0000
,
0010
0000
1000
0000
,
0000
0001
0001
0001
,
0001
0000
0010
0000
,
0100
0000
1000
0000
,
0010
0000
0100
0000
,
0000
0001
0001
0001
,
0001
0000
0010
0000
,
1000
0000
0010
0000
,
0001
0000
0100
0000
,
0020
0030
0020
0030
,
0020
0030
0020
0030
,
0100
0100
0100
0100
,
0100
0100
0100
0200
,
0300
0000
1000
0000
,
0001
0000
0100
0000
,
0010
0000
1000
0000
,
0001
0000
0010
0010
,
0010
0000
0100
0000
,
1000
0000
0001
0000
,
0100
0000
0010
0000
,
1000
0000
0001
0001
,
0001
0000
0010
0000
,
0100
0000
1000
0000
,
0001
0000
0100
0000
,
0010
0000
1000
1000
,
1000
0000
0001
0000
,
0010
0000
0100
0000
,
1000
0000
0001
0000
,
0100
0000
0010
0010
,
0020
0030
0000
0000
,
0200
0300
0000
0000
,
0002
0003
0002
0003
,
0000
0000
0020
0030
,
0200
0300
0000
0000
,
2000
3000
0000
0000
,
0020
0030
0020
0030
,
0000
0000
0200
0300
,
0001
0001
0001
0000
,
0010
0010
0010
0000
,
0100
0100
0100
0000
,
1000
1000
1000
0000
,
0001
0001
0001
0000
,
0100
0100
0100
0000
,
0010
0010
0010
0000
,
1000
1000
1000
1000
,
1000
0000
0001
0000
,
0010
0010
0010
0000
,
0100
0100
0100
0100
,
0100
0100
0100
0100
,
0100
0000
1000
0000
,
0001
0000
0100
0000
,
0010
0010
0010
0010
,
0010
0010
0010
0010
,
0010
0000
1000
0000
,
0001
0000
0010
0000
,
0100
0100
0100
0000
,
1000
1000
1000
1000
,
1000
0000
0010
0000
,
0100
0000
0001
0000
,
0010
0010
0010
0000
,
0100
0100
0100
0100
,
0100
0000
1000
0000
,
0001
0000
0010
0010
,
0020
0030
0020
0030
,
0200
0300
0200
0300
,
2000
3000
2000
3000
,
0002
0003
1000
1001
;

//---------------dance-single - ----------------
#NOTES:
     dance-single:
     :
     Easy:
     9:
     0.496791,0.611481,0.515807,0.399334,0.000000,418.000000,356.000000,62.000000,48.000000,0.000000,0.000000,0.496791,0.611481,0.515807,0.399334,0.000000,418.000000,356.000000,62.000000,48.000000,0.000000,0.000000:
0000
0000
0000
0000
,
0000
0000
0000
0000
,
0000
0000
0000
0000
,
0000
0000
0000
0000
,
0000
0000
0000
0000
,
0000
0000
0000
0000
,
0000
0000
0000
0000
,
0000
0000
0000
0000
,
0001
1000
0010
0010
,
0000
1000
0001
0010
,
0001
1000
0100
0100
,
0000
1000
0001
0100
,
0110
0010
1000
0100
,
0010
0001
0100
0010
,
1000
0001
0100
0100
,
0010
2002
0000
3003
,
1000
0100
0010
0100
,
2000
3020
0230
0302
,
2003
3000
0001
0010
,
0100
0010
0001
1000
,
0010
0000
0100
0001
,
0020
0230
2300
3002
,
0203
0310
0110
0110
,
0000
1000
2002
3003
,
0001
1000
0001
0000
0100
0000
0010
0000
,
1000
0001
1000
0000
0100
0000
0010
0000
,
0110
0100
1000
0010
,
0110
0100
0001
0010
,
0001
1000
0001
0000
0100
0000
0010
0000
,
1000
0001
1000
0000
0100
0000
0010
0000
,
0110
0100
1000
0010
,
0110
0000
1000
0001
0000
0001
1000
0000
,
0010
0100
0010
0000
1000
0000
0001
0000
,
0010
0100
0010
0000
0001
0000
1000
0000
,
1001
0100
0001
0100
,
1001
0100
1000
0100
,
0000
0000
0010
0100
0010
0000
0010
0100
,
0010
0110
1000
0001
,
0010
0000
0010
0100
1000
0000
1000
0000
,
0010
0000
0010
0100
0001
0000
0010
0000
,
0110
0000
1001
0000
,
0110
0000
1001
0000
,
0110
1001
0110
1001
,
1000
0000
0001
0000
0010
0100
0010
0000
,
1001
1000
0100
0010
,
1001
0001
0100
0010
,
1000
0100
1000
0000
0001
0000
0010
0000
,
0100
1000
0100
0000
0010
0000
0000
0000
,
0101
1000
0010
1000
,
1100
0001
0010
0001
,
0100
0001
0100
0000
0010
0000
1000
0000
,
0001
0100
0001
0000
1000
0000
0010
0000
,
1001
0010
0100
1000
,
1001
0010
0100
0001
,
1000
0100
1000
0000
0001
0000
0010
0000
,
0001
0100
0001
0000
1000
0000
0010
0000
,
1100
0001
0010
1000
,
0101
1000
0010
0001
,
1000
0010
1000
0000
0001
0000
0010
0000
,
0001
0100
0001
0000
1000
0000
0100
0000
,
2200
0000
3300
0000
,
2020
0000
3030
0000
,
0202
0303
0022
0000
,
0033
0000
0220
0330
,
2002
0000
3003
0000
,
0220
0000
0330
0000
,
2200
3300
0202
0000
,
0303
0000
0220
0330
,
1000
0000
0001
0000
0100
0000
0010
0100
,
0001
0000
1000
0000
0100
0000
0010
0100
,
1000
0000
0001
0000
0010
0000
0100
0010
,
0001
0000
1000
0000
0010
0000
0100
0010
,
1000
1001
0100
0110
,
0001
1001
0100
0110
,
1000
1001
0001
1001
,
0010
0100
0010
0000
0100
0010
0100
0000
,
0220
0000
0330
0000
,
2002
0000
3003
0000
,
0001
0100
0001
0000
1000
0010
1000
0000
,
0001
0100
0001
0000
1000
0000
0010
0000
,
0100
1000
0100
0001
,
0100
0000
0010
0000
0010
0100
0010
0000
,
1000
0100
1000
0000
0001
0010
0001
0000
,
1000
0100
1000
0000
0001
0000
0100
0000
,
1010
0100
0101
0010
,
1010
0010
1000
0001
,
0010
0001
0010
0000
0100
1000
0100
0000
,
0010
0001
0010
0000
0100
0000
1000
0000
,
0001
0010
1000
0010
,
0001
0000
1000
0000
1000
0001
1000
0000
,
1100
1100
0001
0010
,
0101
0101
1000
0010
,
0100
0010
0100
0000
0001
1000
0001
0000
,
0010
0000
0100
0000
1000
0001
1000
0000
,
2020
3030
0022
0033
,
2020
3030
0022
0033
,
0101
0101
1100
1100
,
0001
1000
0001
1000
0010
0000
0220
0000
,
0330
0000
0000
0000
;
