#TITLE:INFERNO;
#SUBTITLE:;
#ARTIST:Caldeira feat.星野奏子;
#TITLETRANSLIT:;
#SUBTITLETRANSLIT:;
#ARTISTTRANSLIT:;
#GENRE:;
#CREDIT:;
#MUSIC:INFERNO.ogg;
#BANNER:INFERNO.png;
#BACKGROUND:INFERNO-bg.png;
#CDTITLE:;
#SAMPLESTART:65.325;
#SAMPLELENGTH:15.000;
#SELECTABLE:YES;
#OFFSET:1.358;
#BPMS:0.000=135.000;
#STOPS:147.000=1.333
,212.000=1.333
;
#BGCHANGES:-1.000=INFERNO.mp4=1.000=0=0=0=StretchNoLoop====,
99999.000=-nosongbg-=1.000=0=0=0=StretchNoLoop====
;
#FGCHANGES:;

//--------------- dance-single - Extraordiberry ----------------
#NOTES:
     dance-single:
     Extraordiberry:
     Beginner:
     1:
     0,0,0,0,0:
0000
0000
0000
0000
,
0000
0000
0000
0000
,
0000
0000
0000
0000
,
0000
0000
0000
0000
,
0000
0000
0000
0000
,
1000
0000
0000
0000
,
0000
0000
0000
0000
,
0000
0000
0000
0000
,
0000
0000
0000
0000
,
0001
0000
0000
0000
,
0000
0000
0000
0000
,
0001
0000
0000
0000
,
0000
0000
0000
0000
,
1000
0000
0000
0000
,
0000
0000
0000
0000
,
0100
0000
0000
0000
,
0000
0000
0000
0000
,
0010
0000
0000
0000
,
0000
0000
0000
0000
,
0001
0000
0000
0000
,
0000
0000
0000
0000
,
1000
0000
0000
0000
,
0000
0000
0000
0000
,
0000
0000
0000
0000
,
0000
0000
0000
0000
,
0001
0000
0000
0000
,
0000
0000
0000
0000
,
0000
0000
0000
0000
,
0000
0000
0000
0000
,
1000
0000
0000
0000
,
0000
0000
0000
0000
,
0010
0000
0000
0000
,
0000
0000
0000
0000
,
0100
0000
0000
0000
,
0000
0000
0000
0000
,
0001
0000
0000
0000
,
0000
0000
0000
0000
,
0000
1000
0000
0000
,
0000
0000
0000
0000
,
0000
0100
0000
0000
,
0000
0000
0000
0000
,
0000
0010
0000
0000
,
0000
0000
0000
0000
,
0000
0001
0000
0000
,
0000
0000
0000
0000
,
0000
1000
0000
0000
,
0000
0001
0000
0000
,
0000
0010
0000
0000
,
0000
0100
0000
0000
,
0000
1000
0000
0000
,
0000
0001
0000
0000
,
0000
0100
0000
0000
,
0000
0010
0000
0000
,
0000
0000
1000
0000
,
0000
0000
0000
0000
,
0000
0000
0000
0000
,
0000
0000
0000
0000
,
0000
0000
0001
0000
,
0000
0000
0000
0000
,
0000
0000
1000
0000
,
0000
0000
0000
0000
,
0000
0000
0001
0000
,
0000
0000
0000
0000
,
0000
0000
0010
0000
,
0000
0000
0000
0000
,
0000
0000
0100
0000
,
0000
0000
0000
0000
,
0000
0000
1000
0000
,
0000
0000
0000
0000
,
1001
0000
0000
0000
;

//--------------- dance-single - Extraordiberry ----------------
#NOTES:
     dance-single:
     Extraordiberry:
     Easy:
     6:
     0,0,0,0,0:
0000
0000
0000
0000
,
0000
0000
0000
0000
,
0000
0000
0000
0000
,
0000
0000
0000
0000
,
0000
0000
0000
0000
,
1000
0100
1000
0000
,
0001
0010
0001
0000
,
1000
0010
1000
0000
,
0001
0100
0001
0000
,
2000
0000
3200
0000
,
0320
0000
0032
0000
,
1003
1000
1000
1000
,
0001
0001
0002
0000
,
1003
1000
0001
0000
,
1000
1000
0100
0000
,
0010
0010
0001
0000
,
0010
0010
0100
0000
,
0100
0100
0010
0000
,
0010
0010
0001
0000
,
1000
0000
0001
0000
,
1000
0001
1000
0001
,
1000
0000
0100
0000
,
0010
0000
0001
0001
,
0001
0000
1000
0000
,
0020
0000
1030
0000
,
0001
0000
0100
0000
,
0010
0000
1000
1000
,
1000
0000
0001
0000
,
0001
0001
1000
1000
,
0001
0000
0010
0000
,
0100
0000
1000
1000
,
0100
0000
0010
0000
,
0001
0000
0100
0100
,
0010
0000
1000
0000
,
0001
0000
0100
0000
,
0020
0000
2030
0000
,
3200
0000
0320
0000
,
0030
0001
0001
2000
,
0000
3100
0100
0020
,
0000
0031
0001
2000
,
0000
3010
0010
0200
,
0000
0301
0001
0200
,
0000
0301
0001
0020
,
0000
0032
0000
2003
,
0000
3001
1000
0001
,
1000
0001
0000
1000
,
0001
0000
0100
0010
,
0000
1000
0100
0000
,
0010
0001
0000
1000
,
0001
1000
0000
0010
,
0100
0000
0100
0001
,
0000
0001
0010
0000
,
0100
1000
0000
0001
,
2002
3003
2000
0000
,
0000
0000
0000
0000
,
3200
0000
0320
0000
,
0000
0000
0000
0000
,
0032
0000
0103
0000
,
0100
0000
0010
0000
,
0010
0000
1000
0000
,
0001
0000
1000
0001
,
1000
0001
1000
1000
,
0200
1300
0001
0001
,
0200
0000
0310
0010
,
2000
3001
0010
0010
,
0002
0000
0103
0100
,
0020
1030
0001
0001
,
0200
0000
0302
0000
,
2003
0000
3001
1000
,
0001
1001
0000
0000
;

//--------------- dance-single - Extraordiberry ----------------
#NOTES:
     dance-single:
     Extraordiberry:
     Medium:
     11:
     0,0,0,0,0:
0000
0000
0000
0000
,
0000
0000
0000
0000
,
0000
0000
0000
0000
,
0000
0000
0000
0000
,
0000
0000
0000
0000
,
2000
0100
0100
0100
,
3200
0010
0010
0010
,
0320
0001
0001
0001
,
0032
0100
0100
0100
,
0103
0000
0000
0010
0000
0000
1000
0000
0000
0000
1000
0000
0000
0100
0000
0000
,
0010
0000
0000
0001
0000
0000
1000
0000
0000
0000
0001
0000
0000
0100
0000
0000
,
0010
0010
1000
0000
0100
0100
0010
0000
,
0001
0001
0100
0100
0020
0000
0000
0000
,
1030
0000
0100
0000
0010
0000
0000
0001
0000
0001
0000
0000
1000
0000
0100
0000
,
1000
0000
0100
0000
0010
0000
0000
0001
0000
0001
0000
0000
1000
0000
0100
0000
,
1000
0000
0001
0000
0100
0000
0000
0010
0000
0010
0000
0000
1000
0000
0001
0000
,
1000
0000
0010
0000
0100
0000
0000
0010
0000
0010
0000
0000
1000
0000
0100
0000
,
1000
0000
0001
0000
0010
0000
0000
0001
0000
0001
0000
0000
1000
0000
0100
0000
,
1000
0000
0001
0000
0010
0000
0000
0001
0000
0001
0000
0000
0010
0000
0001
0000
,
0200
0001
0301
0000
0002
0100
0103
0000
,
0200
0302
2003
3200
2300
3002
0203
0300
,
0000
0000
0100
0000
0001
0000
0000
0001
0000
0000
0001
0000
0000
0000
0100
0000
,
0010
0000
1000
0000
0001
0000
0100
0000
0020
0000
0000
2030
0000
0000
3200
0000
,
0300
0000
0100
0000
0010
0000
0000
0010
0000
0000
0010
0000
0000
0000
0001
0000
,
2000
0001
0001
3001
,
0000
0000
0100
0000
0010
0000
0000
0110
0000
0000
0010
0000
0000
0000
1000
0000
,
0010
0000
0100
0000
0001
0000
1000
0000
0002
0000
0000
0023
0000
0000
0230
0000
,
0000
0300
1000
0000
0100
0000
0000
0100
0000
0000
0100
0000
0000
0000
0010
0000
,
0001
0000
1000
0000
0001
0000
0000
1000
0000
0001
0000
1000
0001
0000
0001
0000
,
2000
0000
0000
3020
0000
0000
0230
0000
0000
0300
0001
0000
0010
0000
0100
0000
,
1000
0000
0000
1000
0000
0000
0000
0000
1000
0000
0100
0000
0010
0000
0001
0000
,
2000
0000
0000
3200
0000
0000
0320
0000
0000
0030
0001
0000
0100
0000
0010
0000
,
1000
0000
0000
1000
0000
0000
0000
0000
1000
0000
0010
0000
0100
0000
0001
0000
,
2000
0000
0000
3200
0000
0000
0320
0000
0000
0000
0032
0000
0203
0000
0320
0000
,
2030
0000
0000
3020
0000
0000
2030
0000
0000
3000
0000
0000
0100
0000
0010
0000
,
0002
0203
0320
2030
,
3002
0023
0230
2300
,
3000
0000
0000
0000
0001
0000
0010
0000
0001
0000
0000
1000
0000
1000
0000
1000
,
0000
0000
1000
0000
0010
0000
0100
0000
0001
0000
0000
1000
0000
1000
0000
1000
,
0000
0000
0001
0000
0010
0000
0100
0000
1000
0000
0000
0001
0000
0001
0000
0001
,
0000
0000
0001
0000
1000
0000
0010
0000
0100
0000
0000
0001
0000
0001
0000
0001
,
0000
0000
0100
0000
0010
0000
1000
0000
1000
0000
0000
0010
0000
0010
0000
0010
,
0000
0000
1000
0000
0100
0000
0010
0000
0010
0000
0000
0100
0000
0100
0000
0100
,
0000
0010
0002
0100
0103
0000
0200
0001
,
0301
0000
0200
0302
2003
3200
2300
3002
,
0203
0300
0001
0010
0100
1000
0000
0001
,
0010
0100
1000
0010
0100
0001
0000
1000
,
0010
0000
0100
0000
0001
0000
1000
0000
0200
0300
0000
0000
0200
0300
0001
0000
,
1000
0000
0001
0000
1000
0000
0010
0000
0200
0300
0000
0000
0200
0300
1000
0000
,
0001
0000
1000
0100
0010
0001
1000
0100
,
0020
0030
0000
0000
0020
0030
1000
0000
0001
0000
0100
0000
0010
0000
1000
0000
,
0020
0030
0000
0000
0020
0030
0001
0000
1000
0000
0100
0000
0010
0000
0001
0000
,
1000
0100
0010
0001
0010
1000
0001
0100
,
2000
3000
0002
0000
,
0023
0000
0230
0000
,
2300
0000
3002
0000
,
0203
0000
0320
0000
,
2030
0000
0000
0000
3001
0010
0001
0000
,
0010
0100
0010
0000
0100
1000
0100
0000
,
1000
0001
1000
0000
0020
1000
1030
0000
,
2000
0010
3010
0000
2000
3020
2030
3002
,
0023
0000
0032
0000
2003
0000
3000
0000
0001
0000
0100
0000
0010
0100
0000
0100
,
0000
0100
0000
0100
0000
0000
0010
0000
1000
0000
0100
0000
0010
0100
0000
0100
,
0000
0100
0000
0100
0000
0000
0010
0000
0001
0000
1000
0000
0001
0100
0000
0100
,
0000
0100
0000
0100
0000
0000
0010
0000
1000
0000
0001
0000
1000
0100
0000
0100
,
0000
0100
0000
0100
0000
0000
0010
0000
0001
0000
0100
0000
0001
0100
0000
0001
,
0000
0100
0000
0001
0000
0000
0100
0000
0010
0000
1000
0000
0100
1000
0000
0100
,
0000
1000
0000
0100
0000
0000
0010
0000
0002
0000
0100
0000
0103
0000
0000
0000
,
0200
0001
0301
0000
0200
0302
2003
3200
,
2300
3002
0203
0300
0000
0000
0000
0000
;

//--------------- dance-single - Extraordiberry ----------------
#NOTES:
     dance-single:
     Extraordiberry:
     Hard:
     14:
     0,0,0,0,0:
0000
0000
0000
0000
,
0000
0000
0000
0000
,
0000
0000
0000
0000
,
0000
0000
0000
0000
,
0000
0000
0000
0000
,
1100
0000
0000
0000
0100
0000
0000
1000
0000
0000
0100
0000
0000
0000
0000
0000
,
0011
0000
0000
0000
0010
0000
0000
0001
0000
0000
0010
0000
0000
0000
0000
0000
,
0101
0000
0000
0000
0100
0000
0000
0001
0000
0000
0100
0000
0000
0100
0000
0000
,
1010
0000
0000
0000
0010
0000
0000
1000
0000
0000
0010
0000
0000
0000
0000
0000
,
2001
0010
0001
0010
,
3002
0010
1000
0010
,
1003
1000
0100
0100
0010
0010
0001
0001
,
1000
0100
1000
0100
0010
0001
0010
0001
0200
0000
0000
0000
0000
0000
0000
0000
,
0301
0000
0100
0000
0010
1000
0000
0001
0000
1000
0000
0001
0100
0000
0010
0000
,
1000
0000
0100
0000
0010
0001
0000
1000
0000
0001
0000
1000
0100
0000
0010
0000
,
0001
0000
0100
0000
0010
1000
0000
0100
0000
0010
0000
0100
1000
0000
0010
0000
,
1000
0000
0001
0000
0010
0001
0000
0100
0000
0010
0000
0100
0001
0000
1000
0000
,
1000
0000
0001
0000
1000
0002
0000
1000
0000
1000
0000
1003
0001
0000
0010
0000
,
0100
0000
1000
0000
0001
2000
0000
0001
0000
0001
0000
3001
1000
0000
0010
0000
,
0110
0100
0001
0010
0011
0001
1000
0010
,
2000
3200
0302
2003
3020
0032
2003
3000
,
1000
0000
0100
0000
0010
0001
0000
1000
0000
0000
0100
0000
0000
0000
0010
0000
,
0001
0000
0100
0000
0010
1000
0010
0000
0200
0000
0000
0001
0000
0000
0310
0000
,
0000
0000
1000
0000
0100
0010
0000
0001
0000
0000
1000
0000
0000
0000
0001
0000
,
0200
0000
0000
0000
0010
0000
0000
0000
1000
0000
0000
1000
0000
0000
0310
0000
,
0000
0000
1000
0000
0100
0010
0000
2000
0000
0000
3001
0000
0000
0000
0100
0000
,
1000
0000
0010
0000
0100
0001
0100
0000
0002
0000
0000
0010
0000
0000
0103
0000
,
0000
0000
0001
0000
0010
0100
0000
1000
0000
0000
0001
0000
0000
0000
0001
0000
,
1000
0000
1000
0000
1000
0100
0000
1000
0000
1000
0000
1000
0100
0010
0001
0000
,
1002
0000
0000
1000
0000
0000
1000
0000
0000
0000
0103
0000
0100
0000
0001
0000
,
2000
0000
0000
3100
0000
0010
0000
0001
0000
0010
0000
0010
0100
0000
1000
0000
,
2001
0000
0000
0001
0000
0000
0001
0000
0000
0000
3100
0000
0100
0000
1000
0000
,
0002
0000
0000
0103
0000
0010
0000
1000
0000
0010
0000
0010
0100
0000
0001
0000
,
2000
0000
0000
3200
0000
0000
0320
0000
0000
0000
2030
0000
3002
0000
0203
0000
,
2300
0000
0000
3020
0000
0000
0230
0000
0000
0300
0000
0000
0010
0000
0100
0000
,
0102
0013
2100
3010
,
1000
0100
0010
0001
1000
0100
0020
0000
0000
0032
0000
0000
,
0003
0000
0000
0000
1000
0000
0100
0010
0100
0020
0000
0100
0000
0100
0000
0130
,
0010
0000
0001
0000
0100
0000
0010
1000
0010
2000
0000
0010
0000
0010
0000
3010
,
1000
0000
0010
0000
0100
0000
0001
0010
0001
0020
0000
0100
0000
0100
0000
0130
,
0010
0000
0100
0000
1000
0000
0001
0100
0001
0200
0000
0010
0000
0010
0000
0310
,
0100
0000
0001
0000
0001
0000
1000
0100
1000
0200
0000
0010
0000
0010
0000
0310
,
0001
0000
0010
0000
0100
0000
1000
0010
1000
0020
0000
0100
0000
0100
0000
0130
,
0001
0000
0100
0000
0101
0000
0001
0100
0001
0000
1000
0000
1010
0000
0010
1000
,
0010
1000
0002
0203
2300
3002
0023
2030
,
3002
0000
0003
0000
1000
0000
0100
0000
0010
0001
1000
0100
0000
0010
0001
0000
,
1000
0100
0010
0001
0000
1000
0010
0000
0100
0001
1000
0010
0000
0100
0001
0000
,
1000
0010
0100
0001
2000
0000
0100
0000
0100
0000
0001
0000
3002
0000
0010
0000
,
0013
0100
0000
0010
0100
1000
0001
0000
0010
0100
0000
0010
0100
1000
0001
0000
,
0010
0100
0000
1000
0002
0000
0100
0000
0100
0000
0203
0000
0010
0000
0010
0000
,
0320
1000
1000
2030
0100
3100
0020
0001
,
0031
0000
2000
0000
3010
0100
0010
1000
0000
1000
0001
0100
0010
0100
0000
0100
,
0010
0100
0001
1000
0001
0100
0010
0100
0010
1000
0000
1000
0001
0100
0010
0100
,
0002
0003
2000
0100
,
0100
0000
0000
0100
0000
0000
0100
0000
3200
0000
0000
0000
0010
0000
0000
0010
,
0000
0000
0010
0000
0010
0000
0010
0000
0320
0000
0000
0000
0001
0000
0000
0100
,
0000
0100
0000
0100
0000
0000
0001
0000
0032
0000
0000
0000
0100
0000
0000
0100
,
0000
0000
1000
0000
1000
0000
1003
0000
2001
0000
0000
0000
3001
0020
0000
0000
,
0100
0000
0130
0010
0000
0010
0001
0000
1002
0000
0000
0000
1003
0020
0000
0000
,
0100
0000
0130
0010
0000
0010
1000
0000
1001
0000
0001
0010
0100
0000
1000
0000
,
1001
0000
0001
0100
0010
0000
1000
0000
0002
0000
0203
0000
2300
0000
3002
0000
,
0023
0000
2030
0000
3002
0000
0000
0000
0013
0000
0100
1000
0100
0020
0000
0100
,
0000
0100
0000
0130
1000
0000
0001
0000
0100
0000
0010
1000
0010
0200
0000
0010
,
0000
0010
0000
0310
1000
0000
0100
0000
0010
0000
0001
1000
0100
0020
0000
0100
,
0000
0001
0000
0130
0010
0000
0001
0000
0100
0000
0010
1000
0001
0200
0000
0010
,
0000
0001
0000
0310
0100
0000
0001
0000
0001
0000
0100
0010
1000
0200
0000
0001
,
0000
0010
0000
1300
0100
0000
1000
0000
0001
0000
0010
0100
1000
0020
0000
0001
,
0000
0100
0000
1030
0010
0000
0100
0000
0101
0000
0001
0100
0010
1000
0001
0000
,
1001
0000
0001
0010
0100
1000
0001
0000
2000
0000
3200
0000
0302
0000
2003
0000
,
3020
0032
2003
3000
0000
0000
0000
0000
;
