#TITLE:Improve;
#SUBTITLE:;
#ARTIST:Ryu☆;
#TITLETRANSLIT:;
#SUBTITLETRANSLIT:;
#ARTISTTRANSLIT:;
#GENRE:LUNAR DANCE SPEED;
#CREDIT:;
#BANNER:bn.png;
#BACKGROUND:bg.png;
#LYRICSPATH:;
#CDTITLE:cd-title.png;
#MUSIC:improve.ogg;
#OFFSET:-0.000000;
#SAMPLESTART:98.742996;
#SAMPLELENGTH:15.771000;
#SELECTABLE:YES;
#DISPLAYBPM:175.000000;
#BPMS:0.000000=175.000000
,284.000000=87.500000
,286.000000=175.000000
;
#STOPS:
;
#BGCHANGES:;
#KEYSOUNDS:;
#ATTACKS:;

//---------------dance-single - ----------------
#NOTES:
     dance-single:
     Beginner 5:
     Beginner:
     5:
     0.241179,0.313762,0.006753,0.276874,0.000000,250.000000,249.000000,1.000000,41.000000,0.000000,0.000000,0.241179,0.313762,0.006753,0.276874,0.000000,250.000000,249.000000,1.000000,41.000000,0.000000,0.000000:
// measure 0
0000
0000
0000
0000
,  // measure 1
0000
0000
0000
0000
,  // measure 2
0000
0000
0000
0000
,  // measure 3
0000
0000
0000
0000
,  // measure 4
0001
0000
0001
0000
,  // measure 5
1000
0000
1000
0000
,  // measure 6
0100
0010
0100
0010
,  // measure 7
0000
0000
0000
0000
,  // measure 8
0001
0000
0001
0000
,  // measure 9
1000
0000
1000
0000
,  // measure 10
0010
0000
0010
0000
,  // measure 11
0100
0000
0100
0001
,  // measure 12
0100
0000
0100
0000
,  // measure 13
0010
0000
0010
0000
,  // measure 14
1000
0000
1000
0000
,  // measure 15
0001
0000
0001
0010
,  // measure 16
0100
0000
1000
0000
,  // measure 17
0100
0000
0010
0000
,  // measure 18
0100
0000
1000
0000
,  // measure 19
0001
0000
1000
0000
,  // measure 20
0010
0000
0100
0000
,  // measure 21
0001
0000
1000
0000
,  // measure 22
0010
0010
0100
0100
,  // measure 23
0001
1000
0001
1000
,  // measure 24
0200
0000
0310
0001
,  // measure 25
0200
0000
0320
0000
,  // measure 26
2030
0000
3001
0010
,  // measure 27
0200
0000
0310
0001
,  // measure 28
2000
0000
3010
0100
,  // measure 29
0002
0000
2003
0000
,  // measure 30
3020
0000
0130
0001
,  // measure 31
0020
0000
0130
1000
,  // measure 32
0002
0000
0013
0100
,  // measure 33
2000
0000
3020
0000
,  // measure 34
0230
0000
0301
1000
,  // measure 35
0020
0000
0130
0001
,  // measure 36
0020
0000
0130
1000
,  // measure 37
0020
0000
0230
0000
,  // measure 38
0301
1000
0001
1000
,  // measure 39
0200
0000
0000
0000
,  // measure 40
0320
0000
0000
0000
,  // measure 41
0032
0000
2003
0000
,  // measure 42
0000
0000
3020
0000
,  // measure 43
0230
0000
0302
0000
,  // measure 44
0000
0000
0000
0000
,  // measure 45
0023
0000
0230
0000
,  // measure 46
0000
0000
2300
0000
,  // measure 47
3002
0000
0203
0000
,  // measure 48
0000
0000
0000
0000
,  // measure 49
0320
0000
2030
0000
,  // measure 50
0000
0000
3002
0000
,  // measure 51
0023
0000
0230
0000
,  // measure 52
0000
0000
0000
0000
,  // measure 53
2300
0000
3002
0000
,  // measure 54
0000
0000
0203
0000
,  // measure 55
0320
0000
2030
0000
,  // measure 56
3001
0000
0001
0010
,  // measure 57
0100
0000
1000
0010
,  // measure 58
0100
0000
0100
0001
,  // measure 59
0010
0000
0100
1000
,  // measure 60
0001
0000
0001
1000
,  // measure 61
0010
0000
0100
0001
,  // measure 62
0010
0000
0010
0100
,  // measure 63
1000
0100
0010
0001
,  // measure 64
1000
0000
1000
0001
,  // measure 65
0100
0000
0100
0010
,  // measure 66
1000
0000
0001
0010
,  // measure 67
0100
0000
0100
0010
,  // measure 68
0001
0000
1000
0001
,  // measure 69
0100
0000
0001
1000
,  // measure 70
0100
0010
0100
1000
,  // measure 71
0002
0000
1003
0000
,  // measure 72
0001
0000
0100
0100
,  // measure 73
0010
0010
1000
0000
,  // measure 74
0001
0000
0010
0100
,  // measure 75
1000
0100
0010
0000
,  // measure 76
0100
0000
0001
0001
,  // measure 77
1000
1000
0010
0000
,  // measure 78
0100
0000
0001
1000
,  // measure 79
0100
1000
0001
0000
,  // measure 80
0100
0000
0010
0010
,  // measure 81
1000
1000
0001
0000
,  // measure 82
0010
0000
0100
0100
,  // measure 83
1000
1000
0001
0100
,  // measure 84
1000
0000
0001
0001
,  // measure 85
0010
0010
1000
0100
,  // measure 86
0001
0000
1000
1000
,  // measure 87
0010
0010
0100
0000
,  // measure 88
0100
0000
0001
0000
,  // measure 89
0001
0000
1000
0000
,  // measure 90
1000
0000
0100
0000
,  // measure 91
0100
0010
0001
0000
,  // measure 92
0001
0000
1000
0000
,  // measure 93
1000
0000
0010
0000
,  // measure 94
0010
0000
0100
0000
,  // measure 95
0001
1000
0100
0000
,  // measure 96
0100
0010
0001
0000
,  // measure 97
1000
0010
0100
0000
,  // measure 98
0100
0001
1000
0000
,  // measure 99
0001
0010
0100
0000
,  // measure 100
1000
0001
0100
0000
,  // measure 101
0001
1000
0010
0100
,  // measure 102
0010
0100
0000
0000
,  // measure 103
0000
1001
0000
0000
;

//---------------dance-single - ----------------
#NOTES:
     dance-single:
     Light 11:
     Easy:
     11:
     0.470782,0.559150,0.060777,0.371416,0.114801,488.000000,479.000000,9.000000,55.000000,0.000000,0.000000,0.470782,0.559150,0.060777,0.371416,0.114801,488.000000,479.000000,9.000000,55.000000,0.000000,0.000000:
0000
0000
0000
0000
,
0000
0000
0000
0000
,
0000
0000
0000
0000
,
0000
0000
0000
0000
,
0001
1000
0100
0000
1000
0000
0001
0000
,
1000
0001
0010
0000
0001
0000
1000
0000
,
0100
0010
0100
0000
1000
0001
1000
0020
,
0000
0000
0000
0030
,
0100
0001
1000
0000
0010
0000
0010
0000
,
0100
0001
1000
0000
0100
0000
0100
0000
,
0010
0001
1000
0000
0010
0000
0010
0000
,
0100
0001
1000
0000
0001
0000
0010
0000
,
0001
1000
0010
0000
0100
0000
0100
0000
,
0001
1000
0100
0000
0010
0000
0010
0000
,
0001
0010
0100
0000
1000
0000
1000
0000
,
0010
0100
0001
0000
1000
0100
0010
0100
,
1000
0001
0100
0000
0010
0000
0001
0000
,
0010
1000
0100
0000
0001
0000
0100
0000
,
0010
0001
1000
0000
0010
0000
0001
0000
,
0010
0100
0001
0000
0010
0000
1000
0000
,
0010
0100
1000
0000
0001
0000
0100
0000
,
0010
1000
0001
0000
0100
0000
1000
0000
,
0100
0010
1000
0000
0100
0000
0001
0000
,
0100
0010
0100
0020
0000
0000
0000
0000
,
0031
0000
0000
1000
0000
0000
0010
0000
0100
0000
0000
0000
0001
0000
0000
0000
,
1000
0000
0000
0001
0000
0000
0010
0000
0100
0000
0000
0000
1000
0000
0000
0000
,
0100
0000
0000
0010
0000
0000
0001
0000
1000
0000
0000
0000
0001
0000
0000
0000
,
0100
0000
0000
0010
0000
0000
1000
0000
0001
0000
0000
0000
0010
0000
0000
0000
,
0001
0000
0000
0100
0000
0000
0010
0000
1000
0000
0000
0000
0001
0000
0000
0000
,
1000
0000
0000
0100
0000
0000
0010
0000
0100
0000
0000
0000
1000
0000
0000
0000
,
0001
0000
0000
1000
0000
0000
0010
0000
0100
0000
0000
0000
0001
0000
0000
0000
,
1000
0000
0000
0001
0000
0000
0010
0000
0100
0000
1000
0000
0100
0000
0010
0000
,
0001
0000
0000
1000
0000
0000
0010
0000
0100
0000
0000
0000
0100
0000
0000
0000
,
0001
0000
0000
1000
0000
0000
0100
0000
0010
0000
0000
0000
0010
0000
0000
0000
,
0001
0000
0000
1000
0000
0000
0010
0000
0001
0000
0000
0000
1000
0000
0000
0000
,
0100
0000
0000
0001
0000
0000
0010
0000
1000
0000
0000
0000
0001
0000
0000
0000
,
0100
0000
0000
1000
0000
0000
0001
0000
0100
0000
0000
0000
0100
0000
0000
0000
,
0010
0000
0000
1000
0000
0000
0001
0000
0010
0000
0000
0000
0010
0000
0000
0000
,
0100
1000
0100
0010
0100
1000
0001
1000
,
0010
0000
0000
0100
0000
0000
0001
0000
0010
0000
0100
0000
0010
0000
0100
0000
,
2000
0000
3002
0000
,
0203
0000
0320
0000
,
2030
0000
3002
0000
,
0023
0000
0230
0000
,
2300
0000
0000
0000
,
3002
0000
0203
0000
,
0320
0000
0230
0000
,
0302
0000
0023
0000
,
0230
0000
0000
0000
,
2300
0000
3002
0000
,
0203
0000
0320
0000
,
2030
0000
3002
0000
,
0023
0000
0000
0000
,
0230
0000
2300
0000
,
3200
0000
0320
0000
,
0032
0000
0203
0000
,
0301
0000
0000
1000
0000
0000
0100
0000
0010
0000
0000
0000
0001
0000
0000
0000
,
1000
0000
0000
0001
0000
0000
0100
0000
0010
0000
0000
0000
1000
0000
0000
0000
,
0010
0000
0000
0100
0000
0000
0001
0000
1000
0000
0000
0000
0001
0000
0000
0000
,
0010
0000
0000
0100
0000
0000
1000
0000
0001
0000
0000
0000
0100
0000
0000
0000
,
0001
0000
0000
0010
0000
0000
0100
0000
1000
0000
0000
0000
0001
0000
0000
0000
,
1000
0000
0000
0010
0000
0000
0100
0000
0010
0000
0000
0000
1000
0000
0000
0000
,
0001
0000
0000
1000
0000
0000
0100
0000
0010
0000
0000
0000
0001
0000
0000
0000
,
1000
0000
0000
0001
0000
0000
0100
0000
0010
0000
1000
0000
0010
0000
0100
0000
,
0002
0000
0000
2003
0000
0000
3200
0000
0310
0000
0000
0000
0010
0000
0000
0000
,
0002
0000
0000
2003
0000
0000
3020
0000
0130
0000
0000
0000
0100
0000
0000
0000
,
0002
0000
0000
2003
0000
0000
3020
0000
0130
0000
0000
0000
0100
0000
0000
0000
,
0002
0000
0000
2003
0000
0000
3200
0000
0310
0000
0000
0000
0010
0000
0000
0000
,
0002
0000
0000
0023
0000
0000
2030
0000
3010
0000
0000
0000
0001
0000
0000
0000
,
2000
0000
0000
3020
0000
0000
0032
0000
0013
0000
0000
0000
1000
0000
0000
0000
,
0002
0000
0000
0023
0000
0000
2030
0000
3002
0000
0000
0203
0000
0000
2300
0000
,
3001
0000
0000
1000
0010
0000
0000
0100
0001
0000
1000
0000
0100
0000
0000
0000
,
0010
0000
0101
0000
1000
0001
0100
0001
,
1000
0100
1000
0000
0001
0010
0100
0000
,
0010
0000
0101
0000
1000
0001
0100
0000
,
0010
0000
1100
0000
0001
1000
0100
0000
,
0010
0000
0101
0000
1000
0010
0100
0001
,
0010
0001
0100
0000
0010
1000
0100
0000
,
0010
0000
0101
0000
1000
0001
0100
0000
,
0010
0000
1100
0000
0001
0010
1000
0000
,
0010
0000
1100
0000
1000
0010
0100
1000
,
0100
0010
1000
0000
0001
0010
1000
0000
,
0010
0000
0011
0000
1000
0010
0001
0000
,
0010
0000
0110
0000
0001
0010
0100
0000
,
0001
0100
1000
0000
0010
0100
1000
0100
,
0010
1000
0001
0000
0010
0100
0001
0000
,
0100
1000
0010
0000
0100
0001
1000
0001
,
0010
0000
0000
0100
0000
0000
0010
0000
0100
0000
1000
0000
0001
0000
0000
0000
,
0010
0000
0010
0000
0100
1000
0001
0000
,
0100
0000
0100
0000
0010
1000
0001
0000
,
0010
0000
0010
0000
0100
1000
0001
0000
,
1000
0001
0010
0000
0001
1000
0100
0000
,
0010
0000
0010
0000
0001
1000
0010
0000
,
0100
0000
0100
0000
0001
1000
0100
0000
,
0010
0000
0010
0000
0001
1000
0100
0000
,
1000
0010
0001
0010
0100
0001
1000
0000
,
0010
0000
0010
0000
0100
0001
0010
0000
,
0100
0000
0100
0000
0010
0001
0100
0000
,
0010
0000
0010
0000
0100
0001
1000
0000
,
0100
0010
0001
1000
0001
1000
0010
0000
,
0100
0000
0100
0000
0001
1000
0100
0000
,
0010
0000
0010
0000
0001
0010
0001
1000
,
0100
1000
0010
0100
0001
0010
0100
0001
,
0000
1000
0010
0100
1000
0000
0000
0000
;

//---------------dance-single - ----------------
#NOTES:
     dance-single:
     Standard 15:
     Medium:
     15:
     0.642501,0.732111,0.081036,0.290380,0.384922,666.000000,654.000000,12.000000,43.000000,0.000000,0.000000,0.642501,0.732111,0.081036,0.290380,0.384922,666.000000,654.000000,12.000000,43.000000,0.000000,0.000000:
0000
0000
0000
0000
,
0000
0000
0000
0000
,
0000
0000
0000
0000
,
0000
0000
0000
0000
,
0001
0000
0000
0000
1000
0000
0000
1000
0100
0000
0010
0000
0100
0000
0000
0000
,
1000
0000
0000
0000
0001
0000
0000
0001
0100
0000
0010
0000
0100
0000
0000
0000
,
0001
0000
1000
0000
0001
0000
1000
0000
0100
0000
0010
0100
0010
0000
0002
0000
,
0000
0000
0000
1003
,
0010
0100
0001
0100
0010
1000
0001
0000
,
0100
0010
0100
0001
0010
0100
0010
0000
,
0100
1000
0100
0010
0001
1000
0010
0000
,
0100
0001
1000
0100
0010
0100
1000
0000
,
0001
1000
0010
1000
0001
0010
0100
0000
,
0010
0001
1000
0010
0100
0001
0010
0000
,
0100
1000
0001
1000
0010
0100
0001
0000
,
1000
0000
1000
0000
0001
0000
0001
0000
0010
0100
0010
0000
1000
0000
0001
0000
,
0100
1000
0100
0010
0001
0010
1000
0000
,
0010
0100
1000
0010
0100
0010
0001
0000
,
0010
0100
0001
1000
0100
0010
1000
0000
,
0010
0100
1000
0001
0100
0010
0001
0000
,
0010
0100
0001
1000
0100
0001
0100
0000
,
0010
0001
1000
0010
0100
1000
0100
0000
,
0011
1100
0101
1010
,
0001
0010
0001
0000
1000
0010
1000
0000
0000
0000
0001
0000
0100
0000
0010
0000
,
1000
0000
0000
1000
0100
0000
0010
0000
0100
0000
0000
0100
1000
0000
0001
0000
,
0100
0000
0000
0100
0010
0000
1000
0000
0001
0000
0000
0001
0010
0000
0100
0000
,
1000
0000
0000
1000
0001
0000
0100
0000
0010
0000
0000
0010
0100
0000
0001
0000
,
0020
0000
0000
0230
0000
0000
0320
0000
0000
2030
0000
0000
3002
0000
0203
0000
,
1300
0000
0000
1000
0010
0000
0100
0000
0001
0000
0000
0001
1000
0000
0010
0000
,
0100
0000
0000
0100
0001
0000
0010
0000
0100
0000
0000
0100
1000
0000
0001
0000
,
0100
0000
0000
0100
0010
0000
1000
0000
0001
0000
0000
0001
0010
0000
0100
0000
,
0010
0000
0010
0000
0001
0000
0001
0000
1000
0100
1000
0000
0001
0100
0001
0100
,
0010
0000
0000
1000
0100
0000
0010
0000
0100
0000
0000
1000
0010
0000
0001
0000
,
0010
0000
0000
0100
0001
0000
0010
0000
0100
0000
0000
0010
1000
0000
0010
0000
,
0100
0000
0000
1000
0001
0000
0100
0000
0010
0000
0000
0100
1000
0000
0100
0000
,
0020
0000
0000
2030
0000
0000
3002
0000
0000
0023
0000
0000
2030
0000
3020
0000
,
0031
0000
0000
1000
0010
0000
0100
0000
0001
0000
0000
0100
0010
0000
1000
0000
,
0001
0000
0000
0010
0100
0000
1000
0000
0100
0000
0000
0010
0001
0000
1000
0000
,
0001
0100
0001
0000
1000
0100
1000
0000
0010
0100
0010
0000
0100
0001
0100
0000
,
0010
0000
0000
1000
0000
0000
0001
0000
0000
0010
0000
0000
1000
0000
0010
0000
,
0002
0000
2003
0000
,
3020
0000
0230
0000
,
0302
0000
2003
0000
,
3200
0000
0320
0000
,
2030
0000
0000
0000
,
3020
0000
0230
0000
,
2300
0000
3002
0000
,
0203
0000
0320
0000
,
0032
0000
0000
0000
,
0023
0000
0230
0000
,
0302
0000
2003
0000
,
3200
0000
0320
0000
,
2030
0000
0000
0000
,
3002
0000
0203
0000
,
2300
0000
3002
0000
,
0203
0000
0320
0000
,
1030
0000
0000
0001
0010
0000
0001
0000
0100
0000
0000
0010
0000
0000
0100
0000
,
0001
0000
0000
1000
0100
0000
0010
0000
0100
0000
0000
1000
0000
0000
0001
0000
,
0100
0000
0000
0010
1000
0000
0001
0000
0010
0000
0000
0100
1000
0000
0001
0000
,
0100
0000
0000
0010
1000
0000
0001
0000
0010
0000
0000
0100
0000
0000
0010
0000
,
0001
0000
0000
0100
0010
0000
1000
0000
0001
0000
0000
1000
0000
0000
0100
0000
,
1000
0000
0000
0001
0100
0000
0010
0000
0100
0000
0000
0001
0000
0000
0010
0000
,
0100
0000
0000
1000
0001
0000
0100
0000
0010
0000
0000
1000
0001
0000
0010
0000
,
0100
0000
0000
0010
0001
0000
1000
0000
0010
0000
0000
0010
0100
0000
0001
0000
,
1000
0000
0000
0100
0010
0000
0100
0000
1000
0000
0000
1000
0000
0000
0001
0000
,
0100
0000
0000
0010
1000
0000
0001
0000
0010
0000
0000
0010
0000
0000
0100
0000
,
0100
0000
0000
1000
0001
0000
0100
0000
0010
0000
0000
0010
0000
0000
1000
0000
,
0001
0000
0000
0010
0100
0000
1000
0000
0010
0000
0000
0010
0000
0000
0100
0000
,
0100
0000
0000
0001
1000
0000
0100
0000
0010
0000
0000
0100
1000
0000
0001
0000
,
0100
0000
0000
0010
1000
0000
0001
0000
0010
0000
0000
0100
1000
0000
0001
0000
,
0100
0000
0000
0010
0001
0000
0010
0000
1000
0000
0000
0100
0001
0000
0100
0000
,
1000
0000
0000
1000
0000
0000
1000
0000
0001
0000
0000
0001
0000
0000
0001
0000
0100
0000
0000
0000
0000
0000
0100
0000
0010
0000
0000
0000
1000
0000
0000
0000
,
0001
0000
0000
0001
0010
0000
0100
0000
1100
0000
0000
1000
0010
0000
0100
0000
,
0101
0000
0000
0001
0010
0000
0100
0000
1000
0000
0000
1000
0010
0000
0100
0000
,
1000
0000
0000
0100
0001
0000
1000
0000
0001
0000
0000
0001
0010
0000
0100
0000
,
0001
0000
0000
0100
0010
0000
0001
1000
0001
0000
0000
0100
0010
0000
1000
0000
,
0001
0000
0000
0010
0100
0000
1000
0000
1100
0000
0000
0001
0010
0000
0001
0000
,
0101
0000
0000
1000
0010
0000
0100
0000
0001
0000
0000
0001
0010
0000
0100
0000
,
0001
0000
0000
0100
0010
0000
0001
0000
1000
0000
0000
1000
0010
0000
0100
0000
,
1000
0000
0100
0000
0001
0010
0000
0100
1000
0000
0000
0010
0100
0000
0010
0000
,
0001
0000
0000
0010
0100
0000
0001
0000
1000
0000
0000
0100
0010
0000
0100
0000
,
0001
0000
0000
0100
0010
0000
0100
1000
0001
0000
0000
0001
0100
0000
0010
0000
,
0001
0000
0000
0010
0100
0000
0001
0000
1000
0000
0000
1000
0100
0000
0010
0000
,
1000
0000
0000
0010
0100
0000
1000
0001
0100
0000
0000
0100
0010
0000
0010
0000
,
1000
0000
0000
1000
0001
0000
0010
0000
1100
0000
0000
1000
0100
0000
0010
0000
,
0101
0000
0000
0001
0100
0000
0010
0000
1010
0000
0000
1000
0010
0000
0001
0000
,
0010
0000
0000
1000
0100
0000
0001
0000
0100
1000
0100
0000
0010
0001
0010
0000
,
0100
0000
0000
0100
0000
0000
1000
0000
0001
0000
0100
0000
0001
0000
0100
0000
,
0001
0010
0100
0000
1000
0100
1000
0100
,
1000
0010
0100
0000
0001
0010
0001
0100
,
0010
1000
0100
0000
1000
0010
1000
0100
,
0010
0001
0100
0000
0001
1000
0100
0010
,
0100
1000
0001
0000
1000
0001
0100
0010
,
0100
0001
1000
0000
0001
0100
0001
0010
,
0001
0100
0010
0000
1000
0100
1000
0010
,
0100
0000
0100
0000
0001
1000
0001
1000
0001
0000
0010
0000
1000
0000
0010
0000
,
0001
0100
0010
0000
1000
0010
0001
0010
,
1000
0100
0010
0000
0001
0100
0010
0001
,
0010
1000
0001
0000
1000
0100
0010
1000
,
0010
0001
1000
0000
0010
0001
0010
1000
,
0001
1000
0100
0000
0010
1000
0010
0001
,
1000
0001
0100
0000
0001
0100
1000
0001
,
1000
0100
0001
1000
0200
0000
0000
0000
,
0300
1001
0000
0000
;

//---------------dance-single - ----------------
#NOTES:
     dance-single:
     Heavy 17:
     Hard:
     17:
     0.815185,1.013459,0.135060,0.216096,0.769844,845.000000,825.000000,20.000000,32.000000,0.000000,0.000000,0.815185,1.013459,0.135060,0.216096,0.769844,845.000000,825.000000,20.000000,32.000000,0.000000,0.000000:
0000
0000
0000
0000
,
0000
0000
0000
0000
,
0000
0000
0000
0000
,
0000
0000
0000
0000
,
0001
0000
1000
0000
0100
0000
0010
0100
0010
0000
0001
0010
0001
0000
1000
0000
,
0010
0000
0100
0000
0001
0000
1000
0100
1000
0000
0001
0100
0001
0000
1000
0000
,
0100
0010
0100
0010
0001
0100
0001
0100
0010
1000
0010
1000
0100
0010
0002
0000
,
0000
0000
0003
1001
,
1000
0000
0010
0000
0100
0000
0001
0000
1000
0001
1000
0000
0010
0000
1000
0000
,
0001
0000
0010
0000
0100
0000
1000
0000
0001
0010
0001
0000
1000
0000
0010
0000
,
0100
0000
0001
0000
0100
0000
0010
0000
1000
0100
1000
0000
0001
0000
0100
0000
,
0010
0000
1000
0000
0001
0000
0010
0000
0100
1000
0100
0000
0010
0001
0010
0000
,
0100
0000
1000
0000
0001
0000
0100
0000
0010
1000
0010
0000
0100
0000
1000
0000
,
0100
0000
0001
0000
0100
0000
0010
0000
1000
0001
1000
0000
0100
0000
0001
0000
,
0100
0000
1000
0000
0001
0000
0010
0000
0001
0100
0001
0000
0010
0000
1000
0000
,
0010
0000
0001
0000
1000
0000
0010
0000
0010
1000
0001
0000
0100
0001
0010
0000
,
0010
0000
0001
1000
0100
0000
0010
0000
0100
1000
0100
0000
0010
0000
0001
0000
,
1000
0000
0010
0100
0001
0000
1000
0000
0001
0010
0001
0000
1000
0000
0010
0000
,
0100
0000
0001
1000
0100
0000
0010
0000
0001
0100
0001
0000
1000
0000
0010
0000
,
0100
0000
0001
1000
0100
0000
0010
0000
0100
1000
0100
0000
0010
0000
0001
0000
,
1000
0000
0010
0100
0001
0000
1000
0000
0001
0010
0001
0000
0100
0000
1000
0000
,
0100
0000
0001
1000
0100
0000
0010
0000
0001
0100
0001
0000
0010
0000
1000
0000
,
1010
0110
0011
0101
,
1000
0001
1000
0001
1000
0001
1000
0001
0000
0000
0000
0000
0100
0000
0010
1000
,
0001
0000
1000
0010
0000
0100
0000
0000
0010
1000
0000
0000
1000
0000
0100
0000
,
0010
0000
0100
1000
0000
0001
0000
0000
0100
0001
0000
0000
0001
0000
0100
0000
,
0010
0000
1000
0100
0000
1000
0000
0000
0010
0100
0000
0000
0100
0000
0001
0000
,
1000
0000
0100
0010
0000
0100
0000
0000
1000
0001
0000
0000
0001
0000
0100
0000
,
1001
0000
1000
0010
0000
0100
0000
0001
1000
0100
0000
0000
0100
0000
0010
0000
,
0001
0000
1000
0010
0000
0100
0000
0001
1000
0010
0000
0000
0010
0000
1000
0000
,
1000
0000
0100
0010
0000
0001
0000
0010
0100
1000
0000
0000
1000
0000
0001
0000
,
0100
0000
0001
0010
0000
0001
0100
0001
1000
0100
0010
0100
0010
0001
1000
0001
,
1000
0000
0010
0100
0000
0000
0110
0000
0000
0010
0100
0000
0101
0000
0001
0000
,
0011
0000
0010
0100
0000
0000
1100
0000
0000
1000
0010
0000
0110
0000
0100
0000
,
0101
0000
0001
1000
0000
0000
1100
0000
0000
0100
0010
0000
0011
0000
0001
0000
,
0101
0000
0100
0010
0000
0000
1010
0000
0000
1000
0100
0000
0110
0000
0010
0001
,
0100
0000
0010
1000
0001
0000
1000
0100
0000
1000
0010
0000
0100
0000
0001
1000
,
0100
0000
0010
0001
0100
0000
0010
0100
0000
0001
0010
0000
0100
0000
1000
0001
,
0100
0010
0100
0010
1000
0001
1000
0001
0010
0100
0010
0100
1000
0001
1000
0001
,
0100
0000
0010
0100
0001
0000
0010
0100
1000
0001
0000
0020
1000
0000
0031
0000
,
1002
0000
0203
0000
,
0320
0000
0032
0000
,
2003
0000
3200
0000
,
0320
0000
2030
0000
,
3002
0000
0000
0000
,
0023
0000
0230
0000
,
0302
0000
2003
0000
,
3020
0000
0032
0000
,
0203
0000
0000
0000
,
0320
0000
0230
0000
,
2300
0000
3002
0000
,
0023
0000
0230
0000
,
0302
0000
0000
0000
,
2003
0000
3200
0000
,
0320
0000
2030
0000
,
3002
0000
0203
0000
,
1300
0000
0000
0001
0100
0000
0010
0000
1000
0000
0000
0001
0010
0000
0100
0000
,
1000
0000
0000
0100
0010
0000
0001
0000
1000
0000
0000
0010
0100
0000
0001
0000
,
0010
0000
0000
0100
1000
0000
0100
0000
0010
0000
0000
0100
1000
0000
0010
0000
,
0100
0000
0000
0001
0100
0000
0010
0000
1000
0000
0000
0001
0010
0000
0100
1000
,
0001
0000
0000
1000
0010
0000
0100
0000
0001
0000
0000
1000
0100
0000
0010
0000
,
0100
0000
0000
1000
0001
0000
0100
0000
0010
0000
0000
0100
0001
0000
0010
0000
,
0001
0000
0000
0100
0010
0000
1000
0000
0001
0000
0000
0010
0100
0000
1000
0000
,
0010
0000
0000
0100
0001
0000
1000
0000
0100
0000
0000
0010
0100
0000
0010
0000
,
0010
0000
0001
0100
0010
0000
0100
0000
0001
0000
1000
0100
0010
0000
0100
0000
,
1000
0000
0001
1000
0100
0000
1000
0000
0010
0000
0100
0001
1000
0000
0100
0000
,
0010
0000
0100
1000
0001
0000
0100
0000
0010
0000
1000
0001
0010
0000
0100
0000
,
1000
0000
0001
0010
0001
0000
0100
0000
0010
0000
1000
0100
1000
0000
0010
0000
,
0100
0000
0001
1000
0100
0000
0010
0000
0100
0000
1000
0001
0100
0000
0010
0000
,
1000
0000
0001
1000
0010
0000
0100
0000
0001
0000
1000
0001
0010
0000
0100
0000
,
1000
0000
0100
0010
0100
0000
1000
0000
0001
0000
0100
0010
0100
0000
0001
0000
,
0010
0000
0000
0010
0000
0000
0010
0000
0100
0000
0000
0100
0000
0000
0100
0000
1000
0000
0000
0000
0100
0000
0010
0000
0100
0000
0000
0000
1000
0000
0000
0000
,
0001
0000
0100
0010
0100
0000
0001
0000
1000
0100
0000
0010
0100
0000
1000
0000
,
0001
0100
0000
0010
0100
0000
0001
0000
1000
0000
0001
0010
0001
0000
0100
0000
,
0001
0000
1000
0010
1000
0000
0100
0000
0001
0000
0100
1000
0010
0000
0100
0000
,
1000
0000
0100
0001
0010
0000
0100
0000
1000
0000
0001
0100
0010
0000
1000
0000
,
0001
0000
1000
0100
0010
0000
0100
0000
1000
0010
0000
0100
0001
0000
0010
0000
,
0001
0100
0000
0010
1000
0000
0100
0000
1000
0000
0001
0010
0001
0000
0100
0000
,
0010
0000
1000
0100
1000
0000
0010
0000
0001
0000
0010
0100
0001
0000
0010
0000
,
1000
0000
0010
0100
1000
0001
0000
1000
0010
0100
0000
0100
0001
0000
0001
0000
,
0010
0100
0000
0100
1000
0000
1000
0000
0010
0100
0000
0001
0010
0000
1000
0000
,
0010
0100
0000
1000
0010
0000
0001
0000
0010
1000
0000
1000
0001
0000
1000
0000
,
0100
0010
0000
0010
0100
0000
0100
0000
1000
0001
0000
0001
0100
0000
0010
0000
,
0100
0001
0000
0001
0010
0000
0100
1000
0001
0100
0000
0100
0010
0000
0010
0000
,
1000
0100
0000
0100
0010
0000
0010
0000
1000
0010
0000
0100
1000
0000
0010
0000
,
0001
0010
0000
0100
0001
0000
1000
0001
0010
0000
0000
0110
0000
0000
0100
1000
,
0010
0000
0000
0110
0000
0000
0100
0001
0010
0100
0010
0100
1000
0001
1000
0001
,
0100
0010
0000
0100
0001
0000
1000
0100
0010
0000
0100
0000
1000
0000
0100
0000
,
0010
0001
0010
0000
0100
0000
0000
0000
1000
0000
0001
0000
0100
0000
0010
0000
,
0100
0001
0100
0000
0010
0000
0000
0000
1000
0000
0001
0000
0010
0000
0001
0000
,
0100
0010
0100
0000
0001
0000
0000
0000
1000
0000
0100
0000
0010
0000
0100
0000
,
1000
0100
1000
0000
0010
0000
0000
0000
1000
0000
0001
0000
0010
0000
0100
0000
,
0010
0001
0010
0000
1000
0000
0000
0000
0010
0000
0001
0000
1000
0000
0010
0000
,
0100
0001
0100
0000
1000
0000
0000
0000
0100
0000
0001
0000
1000
0000
0001
0000
,
0010
0100
0010
0000
1000
0000
0000
0000
0010
0000
0100
0000
1000
0001
1000
0001
,
0100
0000
0010
1000
0100
0010
0100
0010
0100
0000
0001
0000
0100
0000
1000
0000
,
0010
0100
0010
0100
0010
0000
0000
0000
0100
0000
1000
0000
0100
0000
0001
0000
,
0010
0100
0010
0100
0010
0000
0000
0000
0100
0000
0001
0000
1000
0000
0010
0000
,
0001
1000
0001
1000
0001
0000
0000
0000
0100
0000
1000
0000
0001
0000
0010
0000
,
1000
0001
1000
0001
1000
0000
0000
0000
0100
0000
0010
0001
1000
0000
0001
1000
,
0100
0010
0100
0010
0100
0000
0000
0000
0010
0000
0001
0100
0010
0000
1000
0100
,
0010
0100
0010
0100
0010
0000
0000
0000
0001
0100
0001
0100
0010
1000
0010
1000
,
0001
0010
0100
1000
0010
0100
0010
0100
0001
0000
1000
0000
0000
0000
1000
0000
,
0000
0100
0020
1000
0031
0000
0000
0000
;

//---------------dance-single - ----------------
#NOTES:
     dance-single:
     DS+++++ JA+++++ moment:
     Edit:
     18:
     0.851845,1.048406,0.060777,0.763091,1.077106,883.000000,874.000000,9.000000,113.000000,0.000000,0.000000,0.851845,1.048406,0.060777,0.763091,1.077106,883.000000,874.000000,9.000000,113.000000,0.000000,0.000000:
0000
0000
0000
0000
,
0000
0000
0000
0000
,
0000
0000
0000
0000
,
0000
0000
0000
0000
,
0000
0000
0000
0000
,
0000
0000
0000
0000
,
0002
0000
0000
0000
2003
0000
0000
0000
3010
0000
0100
0001
0010
0000
0200
0000
,
0000
0000
0300
1001
,
1000
0000
0100
0000
0010
0000
0100
0000
1000
0001
0100
0001
1000
0000
0000
0000
,
0001
0000
1000
0000
0100
0000
1000
0000
0001
0100
0010
0100
0001
0000
0000
0000
,
1000
0000
0100
0000
0001
0000
0100
0000
0010
0001
1000
0001
0100
0000
0000
0000
,
0001
0000
0100
0000
1000
0000
0100
0000
0010
1000
0001
1000
0100
0000
0000
0000
,
0010
0000
0100
0000
1000
0000
0100
0000
0010
0100
0010
0001
1000
0000
0000
0000
,
0010
0000
0100
0000
0001
0000
0100
0000
0010
0100
0001
1000
0100
0000
0000
0000
,
0010
0000
1000
0000
0010
0000
0001
0000
1000
0001
0010
0001
0100
0000
0000
0000
,
0010
0000
0001
0000
0010
0000
1000
0000
0001
1000
0010
1000
0100
0010
0100
0010
,
0001
0000
1000
0001
0100
0000
0010
0000
1000
0001
0100
0001
1000
0000
0001
0000
,
0010
0000
0100
0010
0001
0000
1000
0000
0001
0100
0010
0100
0001
0000
1000
0000
,
0100
0000
1000
0001
0100
0000
0010
0000
0100
0001
1000
0001
0100
0000
0010
0000
,
1000
0000
0001
0010
0100
0000
0010
0000
0001
1000
0010
1000
0001
0000
0100
0000
,
0010
0000
1000
0001
0010
0000
0002
0003
0200
1300
0001
1000
0020
0030
0200
0300
,
1000
0000
0001
0010
0100
0000
2000
3000
0200
0301
1000
0001
0020
0030
0200
0300
,
1002
0103
2001
3100
2100
3001
0201
1000
,
0301
0100
0010
1000
0100
0010
0001
0200
0000
0000
0000
0000
0010
0000
0000
0000
,
0301
0000
1000
0100
0000
0010
0100
0000
1000
0001
0000
0010
0100
0000
1000
0000
,
0100
0000
0010
0001
0000
0100
0001
0000
0010
0100
0000
1000
0100
0000
0010
0000
,
0001
0000
1000
0010
0000
0100
0010
0000
1000
0001
0000
0100
0001
0000
0010
0000
,
0100
0000
0010
0001
0000
1000
0010
0000
0100
0001
0000
1000
0001
0000
0010
0000
,
0100
0000
0010
0001
0000
1000
0010
0000
0100
0001
0000
1000
0100
0000
0010
0000
,
0100
0000
1000
0001
0000
0010
0100
0000
0010
0001
0000
1000
0010
0000
0100
0000
,
0001
0000
1000
0100
0000
1000
0010
0000
0100
0001
0000
0010
0001
0000
0100
0000
,
0010
0000
1010
0000
1000
0100
0010
0100
1000
0010
0100
0010
0001
0010
0100
0001
,
1000
0000
0100
1000
0001
0000
0100
0010
1000
0001
0100
0010
1000
0000
1000
0001
,
0010
0000
0001
1000
0100
0000
1000
0001
0100
0010
1000
0001
0010
0000
0010
0100
,
1000
0000
1000
0001
0100
0000
0010
1000
0100
0010
0100
1000
0001
0000
0001
0100
,
0010
0000
1000
0001
0100
0000
0001
1000
0100
0010
0001
0100
0010
0000
0010
1000
,
0001
0000
0001
1000
0200
0300
0002
1003
0100
0010
0001
1000
0010
0000
0100
0001
,
1000
0000
1000
0001
0020
0030
2000
3001
0010
0100
1000
0001
0100
0000
0100
0000
,
0001
0100
0010
1000
0001
0010
0100
1000
0001
0100
0010
1000
0100
0010
0001
0100
,
0010
0000
0000
1000
0000
0000
0001
0000
0000
1000
0000
0000
0100
0000
0010
0000
,
0002
0000
2003
0000
,
3200
0000
0302
0000
,
0203
0000
2300
0000
,
3020
0000
0230
0000
,
0302
0000
0000
0000
,
0203
0000
0302
0000
,
0023
0000
0032
0000
,
2003
0000
3200
0000
,
2300
0000
0000
0000
,
3002
0000
2003
0000
,
3200
0000
0320
0000
,
0032
0000
0203
0000
,
2300
0000
0000
0000
,
3200
0000
0320
0000
,
2030
0000
3002
0000
,
0023
0000
0230
0000
,
1300
0000
0000
0001
0000
0000
0100
0000
0001
0000
0000
1000
0000
0000
0100
0000
,
2000
3000
0000
0020
0030
0000
0001
0000
1000
0000
0000
0002
0003
0000
0200
0300
,
1000
0000
0000
0001
0000
0000
0100
0000
0010
0000
0000
1000
0000
0000
0010
0000
,
0200
0300
0000
2000
3000
0000
0001
0000
1000
0000
0000
0020
0030
0000
0002
0003
,
1000
0000
0000
0100
0000
0000
1000
0000
0010
0000
0000
0100
0000
0000
0001
0000
,
0020
0030
0000
2000
3000
0000
0001
0000
0010
0000
0000
0200
0300
0000
0002
0003
,
1000
0000
0000
0010
0000
0000
0100
0000
0001
0000
0000
0010
0000
0000
0100
0000
,
2000
3000
0000
0020
0030
0000
0001
0000
1000
0000
0000
0200
0300
0000
0002
0003
,
1001
0000
0000
1000
0000
0000
0001
0100
0001
0000
0000
0020
0030
0000
2000
3000
,
0100
0000
0000
0010
0000
0000
0100
0010
0001
0000
0000
2000
3000
0000
0020
0031
,
1000
0000
0000
0010
0000
0000
0100
0001
0010
0000
0000
0200
0300
0000
0002
0003
,
1000
0000
0000
0001
0000
0000
0100
0001
0010
0000
0000
0200
0300
0000
0002
1003
,
0010
0000
0000
1000
0001
0000
0100
0010
2000
3000
0000
0020
0031
0000
1000
0001
,
0100
0000
0000
0010
1000
0000
0001
1000
0200
0300
0000
0002
1003
0000
0010
0100
,
0001
0000
0000
0100
0000
0000
0010
1000
0001
0000
0000
0020
0030
0000
2000
3000
,
0001
0000
0000
0200
0300
0000
2000
3000
0020
0030
0000
0002
0003
0000
1000
0000
0001
0000
0000
0000
0100
0000
0010
0000
0000
0000
1000
0000
0100
0000
0000
0000
,
0001
0000
0100
0010
0000
0100
1000
0000
0001
0010
0100
1000
0010
0100
0001
0010
,
0001
0100
0010
1000
0100
0010
0001
0100
0010
0000
1000
0100
0000
0010
0100
0010
,
0001
0000
1000
0010
0000
0100
0001
0100
0010
0000
1000
0100
0000
0010
0001
0010
,
1000
0000
0010
0002
0003
0200
1300
0001
0100
0000
0010
1000
0000
0001
0100
0000
,
1000
0000
0100
0001
0000
1000
0100
0000
1000
0001
0010
0001
1000
0010
1000
0001
,
0100
0001
0010
0100
1000
0010
0100
0001
0010
0000
0100
1000
0000
0001
1000
0010
,
0100
0000
0010
1000
0000
0100
0010
0001
0100
0000
0010
2000
3000
0200
0301
1000
,
0200
0300
0002
0103
0010
0001
0010
1000
0001
0000
1000
0100
0000
0100
0020
0030
,
2000
3000
0001
0100
0000
0100
0002
0003
0020
1030
0001
0010
0100
1000
0001
1000
,
0010
0100
0010
1000
0001
0010
0100
1000
0001
0010
0000
0010
0200
0300
0002
0003
,
1000
0010
0000
0010
0200
0300
2000
3000
0001
0010
0001
1000
0010
1000
0100
0010
,
0001
0100
0001
1000
0100
1000
0001
0100
0010
1000
0000
1000
0200
0300
0002
1003
,
0001
0010
0000
0010
0200
0300
0002
1003
0100
1000
0001
0100
0001
1000
0100
1000
,
0010
0001
0010
0100
0001
0010
1000
0010
0100
1000
0000
1000
0001
0000
0101
0000
,
0100
0010
0000
0010
1000
0000
1100
0000
0001
0100
0010
1000
0100
0010
0001
0100
,
0010
1000
0010
0100
0001
0100
0010
1000
0001
0000
0010
0000
0100
0000
0010
0000
,
0001
1000
0010
1000
0001
0000
0000
0000
1000
0000
0100
0000
0010
0000
0100
0000
,
1000
0001
0010
0001
1000
0000
0000
0000
0001
0000
0010
0000
1000
0000
0010
0000
,
0100
1000
0001
1000
0010
0000
0000
0000
1000
0000
0010
0000
0001
0000
0010
0000
,
0100
0001
1000
0001
0010
0000
0000
0000
0100
0000
1000
0001
0100
0000
0001
1000
,
0100
0010
0100
1000
0001
0000
0000
0000
1000
0000
0001
0100
0010
0000
1000
0001
,
0010
0001
1000
0010
0100
0000
0000
0000
0001
0000
1000
0001
0010
0000
0010
0100
,
1000
0100
0010
0001
2000
3000
0000
0000
0020
0030
0001
1000
0010
0000
0010
1000
,
0100
0010
0100
1000
0001
0100
0010
0001
0010
0000
0100
0001
0020
0030
2000
3100
,
0010
0100
1000
0001
0010
0000
0000
0000
0100
0000
0100
1000
0020
0030
0002
0103
,
0010
0100
0001
0010
0100
0000
0000
0000
1000
0000
1000
0001
0200
0300
2000
3001
,
0100
0010
0100
0001
1000
0000
0000
0000
0010
0000
0010
1000
0200
0300
0002
1003
,
0100
0010
0100
1000
0001
0000
0000
0000
1000
0000
0100
0010
1000
0000
0010
0100
,
1000
0001
0010
0001
1000
0000
0000
0000
0001
0000
0100
0010
0001
0000
0010
0100
,
0001
0100
0010
1000
0100
0000
0100
0000
1000
0010
0100
0001
0010
0001
0100
0010
,
1000
0100
1000
0010
0100
0001
1000
0001
0010
0000
0100
1000
0010
0000
0100
0001
,
0010
0000
1000
0010
0001
0000
0020
0200
0330
0000
0000
0000
0000
0000
0000
0000
;
