#TITLE:IMPACT;
#SUBTITLE:;
#ARTIST:USAO feat. 光吉猛修;
#TITLETRANSLIT:;
#SUBTITLETRANSLIT:;
#ARTISTTRANSLIT:USAO feat. Takenobu Mitsuyoshi;
#GENRE:IMPACTFUL HARDCORE;
#CREDIT:;
#BANNER:IMPACT.png;
#BACKGROUND:IMPACT-bg.png;
#LYRICSPATH:;
#CDTITLE:cdtitle.png;
#MUSIC:IMPACT.ogg;
#OFFSET:-0.383000;
#SAMPLESTART:107.811996;
#SAMPLELENGTH:15.000000;
#SELECTABLE:YES;
#BPMS:0.000000=210.000000
,72.000000=105.000000
,88.000000=210.000000
,152.000000=105.000000
,167.000000=210.000000
,280.000000=105.000000
,284.000000=210.000000
;
#STOPS:167.000000=0.286000,
346.000000=0.286000
;
#BGCHANGES:;
#KEYSOUNDS:;
#ATTACKS:;

//---------------dance-single - Team Henjin Impact (Daff_4K + hdm300)----------------
#NOTES:
     dance-single:
     Team Henjin Impact (Daff_4K + hdm300):
     Beginner:
     4:
     0.204545,0.389205,0.136364,0.000000,0.000000,189.000000,171.000000,18.000000,0.000000,0.000000,0.000000,0.204545,0.389205,0.136364,0.000000,0.000000,189.000000,171.000000,18.000000,0.000000,0.000000,0.000000:
0000
0000
0000
0000
,
0000
0000
0000
0000
,
0000
0000
0000
0000
,
0000
0000
0000
0000
,
0000
0000
0000
0000
,
0000
0000
0000
0000
,
0000
0010
0000
0010
,
0000
0100
0000
0100
,
0100
0000
1000
0000
,
1001
0000
0000
0000
,
0001
0000
0010
0000
,
0001
0000
0000
0000
,
1000
0000
0010
0000
,
1000
0000
0000
0000
,
0001
0000
0001
0000
,
1000
0000
1000
0000
,
0100
0000
0010
0000
,
1001
0000
0000
0000
,
0000
0001
0000
1000
,
0000
0001
0000
1000
,
0000
0010
0000
0100
,
0000
0010
0010
0000
,
1000
0000
1000
0000
,
0001
0000
0001
0000
,
0010
0000
0100
0000
,
0010
0000
0000
0000
,
0001
0000
0100
0000
,
0001
0000
0000
0000
,
1000
0000
0100
0000
,
1000
0000
0000
0000
,
0010
0000
0100
0000
,
0010
0000
0000
0000
,
1000
0000
0001
0000
,
1000
0000
0001
0000
,
0010
0000
0000
0000
,
0100
0000
1000
0000
,
0010
0000
0000
0000
,
0100
0000
0001
0000
,
1001
0000
0000
0000
,
0000
0000
0000
0000
,
0010
0000
0000
0000
,
0100
0100
0000
1001
,
0000
1000
0000
1000
,
0000
0001
0000
0001
,
0000
1000
0000
1000
,
0000
0001
0000
0001
,
0000
0100
0000
0010
,
0000
1000
0000
0001
,
0000
0010
0000
0100
,
0100
0000
0000
0010
,
0010
0000
0000
0000
,
0000
0000
0000
1000
,
1000
0000
0000
0000
,
0000
0000
0000
0000
,
1001
0000
0000
0000
,
0000
0000
0000
0010
,
0010
0000
0000
0000
,
0100
0100
0100
0000
,
0001
0000
0000
1000
,
0000
0000
0000
0000
,
0100
0000
0000
0010
,
0000
0000
0000
0000
,
0001
0001
0000
0100
,
0000
0010
0000
1000
,
0000
0001
0000
0000
,
1000
1000
1000
0000
,
1001
0000
0000
0000
,
0000
0000
0000
0000
,
0000
0000
0000
0000
,
0000
0000
0000
0000
,
0110
0000
0001
0001
,
0001
0000
0001
0000
,
0100
0000
0100
0000
,
1000
0000
1000
0000
,
0100
0000
0001
0000
,
0000
0110
0000
0110
,
0000
1001
0000
1001
,
0000
0110
0000
1001
,
0000
0110
0000
1001
,
0000
1000
1000
0000
,
0001
0001
0001
0000
,
0010
0000
0100
0000
,
1000
0000
0001
0000
,
1000
0000
0010
0000
,
0100
0000
0001
0000
,
1000
0000
0100
0000
,
0010
0010
0010
0000
,
0001
0000
1000
0000
,
0001
0001
0000
0000
,
0001
0000
0100
0000
,
0010
0010
0000
0000
,
1000
0000
0001
0000
,
1000
0000
0001
0001
,
0000
0100
0000
0110
,
0000
1001
0000
0001
,
0001
0001
0000
0100
,
0100
0100
0000
0010
,
0010
0010
0000
1000
,
1000
1000
0000
0001
,
0000
1000
0000
0000
,
0000
1000
0000
0001
,
0000
0010
0000
0100
,
0000
1000
0000
1001
;

//---------------dance-single - Team Henjin Impact (Daff_4K + hdm300)----------------
#NOTES:
     dance-single:
     Team Henjin Impact (Daff_4K + hdm300):
     Easy:
     8:
     0.414502,0.544886,0.507576,0.196970,0.000000,383.000000,316.000000,67.000000,26.000000,0.000000,0.000000,0.414502,0.544886,0.507576,0.196970,0.000000,383.000000,316.000000,67.000000,26.000000,0.000000,0.000000:
0000
0000
0000
0000
,
0000
0000
0000
0000
,
0000
0000
0000
0000
,
0000
0000
0000
0000
,
0000
0000
0000
0000
,
0000
0000
0000
0000
,
1000
1000
0001
0001
,
0100
0100
0010
0010
,
0100
0001
0010
0100
,
1000
0000
0000
0001
0000
0000
1000
0000
,
0001
0000
0000
0001
0000
0001
0000
0001
,
0000
0100
0010
0000
,
1000
0000
0000
1000
0000
1000
0000
1000
,
0000
0100
0010
0010
,
0001
0100
1000
0000
,
0100
0001
0010
1000
,
0001
0100
0010
0010
,
0100
0100
1000
0000
,
0001
0110
0001
0011
,
1000
0110
1000
1100
,
0100
0010
0000
0010
0001
1000
0000
1000
,
0010
0100
0000
0100
0001
0001
1000
0000
,
0001
1000
0001
1000
,
0100
0010
0100
0100
,
1000
0010
0100
0001
,
1000
0100
0010
0000
,
0110
0000
0011
0011
,
0011
0000
0001
0001
,
1001
0000
1010
1010
,
1010
0000
0100
0010
,
0110
0000
0101
1000
,
0001
1001
1000
1000
,
1001
0001
0011
0010
,
0001
0001
1000
1000
,
0001
0000
0000
0001
0000
0001
0000
0001
,
0000
0100
0010
0000
,
0100
0010
1000
0001
,
0010
0100
1000
1000
,
1001
0000
0000
0000
,
0000
0000
0000
0000
,
0000
0000
0000
0000
,
0001
1000
0000
0110
,
2000
0010
0001
3010
,
1000
0100
1001
0000
,
0002
0010
1000
0013
,
0001
0110
1001
0000
,
2000
0010
3002
0010
,
2003
0100
3002
0100
,
0013
0100
1000
0001
,
1001
0000
0000
0000
,
1000
0100
1000
0100
,
0001
0100
1000
0000
,
0001
0100
0001
0100
,
1000
0100
0001
0000
,
1000
0001
1000
0001
,
0010
0100
1000
0000
,
0010
0100
0010
0100
,
0001
0010
0100
1000
,
2020
0000
3030
0220
,
0330
0100
0001
0000
,
0022
0000
0033
0220
,
0330
0100
1000
0000
,
0220
0000
0330
2002
,
3003
1000
0001
0000
,
2002
3003
0220
0330
,
1001
0000
0000
0000
,
1000
1000
0001
0001
,
0100
0100
0010
0010
,
1000
0100
0010
0001
,
0100
0010
1000
0000
,
1001
0000
0000
0000
,
0001
0010
1000
0000
,
0010
0001
0100
0000
,
1000
0100
0001
1000
,
1100
0010
0101
0000
,
1000
0010
0001
0000
,
0010
1000
0100
0000
,
0001
0100
1000
0001
,
0101
0010
1100
0000
,
0001
0100
1000
0100
,
0101
0001
1100
0000
,
1000
0010
0100
0001
,
1001
0010
1001
0000
,
1000
0100
0001
0100
,
1100
1000
0101
0000
,
0002
0000
2003
0000
,
3010
0110
1001
0001
,
0100
0010
1000
1001
,
0011
1100
0000
1000
,
0010
0001
0010
0110
,
1001
1010
0000
1000
,
0100
0010
0001
1001
,
1010
0101
0000
0001
,
0010
1000
0010
0110
,
0110
1001
1001
0001
,
0100
0010
1000
1100
,
0011
1100
0000
1000
,
0100
0010
0001
0101
,
1010
0101
0000
2001
,
0000
3100
0000
0012
,
0000
1003
0000
0010
,
0010
0100
0100
0001
,
1000
0001
0000
1001
;

//---------------dance-single - Team Henjin Impact (Daff_4K + hdm300)----------------
#NOTES:
     dance-single:
     Team Henjin Impact (Daff_4K + hdm300):
     Medium:
     13:
     0.652597,0.739489,0.545455,0.303030,0.041667,603.000000,531.000000,72.000000,40.000000,0.000000,0.000000,0.652597,0.739489,0.545455,0.303030,0.041667,603.000000,531.000000,72.000000,40.000000,0.000000,0.000000:
0000
0000
0000
0000
,
0000
0000
0000
0000
,
0000
0000
0000
0000
,
0000
0000
0000
0000
,
0000
0000
0000
0000
,
0000
0000
0000
0000
,
1000
1100
0001
0101
,
1000
1010
0001
0011
,
1000
0100
0010
0001
0100
0010
1000
0000
,
2002
0000
0000
3003
,
1002
0000
0103
0020
0000
1000
0000
0130
,
0000
0001
1000
0000
1100
0000
0011
0000
,
2001
0000
3100
0020
0000
0001
0000
0130
,
0000
1000
0001
0000
0101
0000
1010
0000
,
1200
0001
0310
1001
,
0201
1000
0310
1001
,
1000
0001
1000
0100
0010
0001
1000
0000
,
2020
3030
0202
0303
,
0002
0010
0013
0100
2000
0010
3010
0100
,
0001
0000
0010
0000
1000
0000
0010
0100
0010
0000
0001
0000
1000
0000
1001
0000
,
0002
0000
0100
0000
0000
0000
0013
0000
0200
0000
1000
0000
0000
0000
0310
0001
,
2000
0100
0000
3010
0100
0001
1001
0000
,
2100
0001
0010
3001
,
0102
1000
0100
1003
,
0001
0100
0001
0100
0010
1000
0010
1000
,
0100
0010
0001
1000
0020
0000
0130
0001
,
0010
0000
0100
1000
0010
0000
0100
0000
,
0110
0000
1001
0000
1000
0001
1000
0000
,
0001
0000
0010
0100
0010
0000
1000
0000
,
0010
0001
0110
1001
,
1000
0000
0010
0100
0010
0000
0001
0000
,
0010
0000
1000
0000
0100
0010
0100
0010
,
0100
0000
1000
0001
1000
0000
0010
0000
,
0110
0110
1001
1001
,
2000
0100
0001
3100
,
1000
0001
1000
0000
0020
0000
0130
0000
,
0002
0100
1000
0103
,
0001
1000
0001
1000
0200
0000
0310
0000
,
2002
0000
0000
3000
,
0200
0003
0020
0300
,
2000
0030
0002
3000
,
0023
0200
0330
1001
,
1000
0000
0010
0000
1000
0100
0010
0000
,
0001
0000
0100
0000
0001
0010
0100
0000
,
0100
1000
0010
0000
0100
0000
0001
0000
,
0010
0100
1000
0000
0001
0100
0010
0000
,
0100
0101
0001
0011
,
0010
0000
0110
0000
0100
0000
1100
1000
,
2000
0010
3002
0010
,
1003
0000
0010
0100
0010
0000
0110
0000
,
1010
1000
0000
1000
0000
0001
0000
0001
,
0000
0010
0000
0010
0001
0000
0110
0000
,
0011
0001
0000
0001
0000
1000
0000
1000
,
0010
0100
0010
0000
0100
0001
1000
0001
,
0010
0100
1000
0010
0000
0100
0001
0010
,
0000
0100
1000
0001
1000
0010
0100
0000
,
1001
0011
1001
1010
,
1100
0110
0011
1001
,
1000
0000
0110
0000
1000
0100
0010
0000
,
0001
0000
0110
0000
0001
0010
0100
1000
,
0001
0000
0110
0000
0001
0010
0100
0000
,
1000
0010
0100
0000
0010
0100
1000
0100
,
0010
1000
0001
0000
1000
0001
0010
0000
,
0001
0010
0100
0000
0010
0100
1000
0000
,
0010
0100
0000
0010
1000
0100
0010
0000
,
0200
0001
1000
0301
,
0200
0010
1000
1300
,
0002
0000
0100
0000
1000
0000
0013
0100
,
1000
0010
1000
0010
0100
0001
0100
0001
,
1000
0001
0010
0100
1000
0010
0100
0000
,
1001
0000
0000
0000
0000
0000
0000
0000
0010
0100
0000
0001
0010
0100
1000
0000
,
0001
0100
0010
1000
0000
1000
0100
0010
,
0001
0100
0010
0100
0001
0000
0010
0100
,
0100
1000
0010
0100
0000
0100
0001
0000
,
0001
0000
1000
0000
0001
0000
0010
0000
0100
0000
0000
1100
0000
0000
1000
0000
,
0001
0100
0001
0100
0001
1000
0001
1000
,
0001
0010
0001
0010
0001
1000
0001
0001
,
0100
0010
0100
0001
0100
0010
0100
0001
,
1000
0000
0010
0000
1000
0000
0001
0000
0010
0000
0000
0110
0000
0000
0000
0000
,
0100
0100
0100
0000
1000
0010
0100
0001
,
0010
0100
1000
0000
0010
0000
1000
1000
,
0100
0100
0010
0000
0001
0010
0100
1000
,
0010
0000
0100
0000
0001
0000
0000
0000
0011
0000
0000
0110
0000
0000
1000
0000
,
0001
0100
1000
0000
1000
0100
0001
0000
,
0001
0010
1000
0000
1000
0010
0001
0000
,
1000
0010
0100
0010
0001
0010
0100
0010
,
1000
0000
0001
0000
1001
0000
1000
0100
,
0010
0110
0000
0011
0000
1001
0000
0001
,
0100
0000
0010
0010
1000
1000
0001
0100
,
0010
0000
0110
0000
0000
0000
1010
0000
0000
0000
1001
0000
0001
0000
0000
0010
,
0000
0000
0100
0000
1000
0000
0000
0010
0000
0000
0100
0000
0110
0000
0000
0000
,
1000
0010
0100
0100
0100
0110
0000
1000
,
0001
0000
1001
0000
1000
0100
0110
0000
,
0011
0000
1001
0001
0100
0010
0200
0000
,
1000
0302
1000
0013
,
0010
0100
1000
0010
0100
0001
1000
0100
,
0001
0000
0001
0100
1000
1000
0010
0100
,
0001
0010
1000
0010
0001
1000
0010
0100
,
0001
0000
0010
0000
0100
0000
0000
1100
0000
0000
1000
0000
0001
0000
0000
0000
,
0100
0110
0001
1000
,
0100
0000
0110
0000
1000
0000
0001
0100
,
0010
1000
0001
0010
0100
1000
0010
0100
,
0010
0100
0002
0000
1003
0000
1001
0000
;

//---------------dance-single - Team Henjin Impact (Daff_4K + hdm300)----------------
#NOTES:
     dance-single:
     Team Henjin Impact (Daff_4K + hdm300):
     Hard:
     16:
     0.796537,1.245455,0.803030,0.272727,0.174242,736.000000,630.000000,106.000000,36.000000,0.000000,0.000000,0.796537,1.245455,0.803030,0.272727,0.174242,736.000000,630.000000,106.000000,36.000000,0.000000,0.000000:
// measure 0
0000
0000
0000
0000
,  // measure 1
0000
0000
0000
0000
,  // measure 2
0000
0000
0000
0000
,  // measure 3
0000
0000
0000
0000
,  // measure 4
0000
0000
0000
0000
,  // measure 5
0000
0000
0000
0000
,  // measure 6
1000
0010
0100
0000
0001
0010
0100
0000
,  // measure 7
1000
0010
0100
0001
1000
0100
0010
0000
,  // measure 8
0100
0100
0010
0010
0001
0010
0100
1000
,  // measure 9
0001
0100
1000
0001
0010
1000
0001
0000
,  // measure 10
1000
0100
0010
0011
0000
1010
0000
0011
,  // measure 11
0000
0000
1000
0000
0010
0000
0100
0010
0100
0000
0000
0000
0010
0000
1000
0000
,  // measure 12
0001
0001
1000
1010
0000
0011
0001
0001
,  // measure 13
0001
0010
0100
0000
1000
1000
1001
0000
,  // measure 14
0001
0100
0010
0001
1000
0000
0100
0010
,  // measure 15
1000
0100
0010
1000
0010
0100
1000
0001
,  // measure 16
1000
0000
1000
0000
0100
0000
0100
0000
0010
0001
0010
0000
0001
1000
0001
0000
,  // measure 17
1000
0010
0001
1000
0100
0001
1000
0000
,  // measure 18
0200
0000
0010
0000
0001
0000
0310
0000
0100
1000
0010
0000
1010
0000
0110
0000
,  // measure 19
1000
0100
0010
0000
0011
0000
0100
0100
1000
0001
0100
0000
0010
0100
0101
0000
,  // measure 20
0110
0000
0101
0000
0011
0000
0010
0010
0100
0000
1100
0000
1000
1000
0010
0100
,  // measure 21
0001
0010
0100
0000
1100
0000
0010
0010
0110
0000
1001
0000
0110
0000
0000
0000
,  // measure 22
1000
0010
1000
0010
1000
0001
1000
0001
,  // measure 23
0010
0000
0001
0000
0010
0000
0001
0000
1000
0000
0001
1000
0001
0000
1000
0000
,  // measure 24
0010
0100
0001
1000
0100
0010
0001
0100
,  // measure 25
0010
0100
0010
0000
0100
0001
0100
0000
0001
1000
0001
1000
0001
0000
0001
0000
,  // measure 26
0011
0000
0110
0100
1100
0000
1010
0000
,  // measure 27
1100
0000
0000
0000
1010
0000
0000
0000
1100
0000
0100
0000
0100
0000
0010
0100
,  // measure 28
0010
0000
0011
0001
1001
0000
0110
0000
,  // measure 29
1001
0110
0101
0011
,  // measure 30
0110
0000
1100
1000
1001
0000
1010
0000
,  // measure 31
0110
0000
0000
0000
1010
0000
0000
0000
1001
0000
1000
0000
1000
0000
0100
1000
,  // measure 32
0100
0000
0000
0000
0110
0000
0010
0000
0011
0000
0001
0100
0010
0000
0100
0000
,  // measure 33
0002
0010
2003
0010
,  // measure 34
3001
0010
0100
1000
0000
1100
0000
1001
,  // measure 35
0000
0001
0100
0000
0110
0000
0101
0000
,  // measure 36
0001
0010
0100
1000
0010
0100
0001
1000
,  // measure 37
0100
1000
0100
0000
0010
0100
0010
0000
0001
0000
0010
0000
0100
0000
0000
0000
,  // measure 38
2002
0000
0000
0000
,  // measure 39
0000
0000
0000
3003
,  // measure 40
2000
3200
0320
0032
,  // measure 41
0203
0000
0020
0000
0330
0010
0010
0000
,  // measure 42
2001
0010
0100
0010
,  // measure 43
3001
1000
0010
0000
0101
0000
0001
0010
,  // measure 44
1000
0010
0002
0000
0100
0000
1003
0001
,  // measure 45
0010
0100
1000
0001
0100
0000
0110
0000
,  // measure 46
1002
0010
0100
0010
,  // measure 47
1003
0001
0010
0000
1100
0000
1001
0000
,  // measure 48
0201
0310
1200
0310
,  // measure 49
2002
0000
0000
3003
,  // measure 50
0001
0100
0010
0100
1000
0100
0010
0100
,  // measure 51
0001
1000
0100
0010
0001
0000
1001
0000
,  // measure 52
1000
0100
0010
0100
0001
0100
0010
0100
,  // measure 53
1000
0001
0100
0010
1000
0000
1001
0000
,  // measure 54
0001
0010
1000
0010
0001
0100
0010
0100
,  // measure 55
0001
1000
0100
0010
0001
0000
1100
0000
,  // measure 56
1000
0010
0001
0010
1000
0100
0010
0000
,  // measure 57
0011
1100
1010
0101
,  // measure 58
0001
0010
1000
0000
0110
0000
1001
0000
,  // measure 59
0001
0100
1000
0001
0010
1000
0001
0000
,  // measure 60
1000
0100
0001
0000
0110
0000
1001
0000
,  // measure 61
0001
0000
1000
0000
0100
0000
1000
0000
0001
0000
0010
0100
0010
0000
0100
0000
,  // measure 62
1000
0010
0001
0000
0110
0000
1001
0000
,  // measure 63
1000
0100
0001
1000
0010
0001
1000
0000
,  // measure 64
1010
0101
0011
1100
,  // measure 65
2002
0000
0000
3003
,  // measure 66
0001
0010
0001
1000
0001
0100
0010
1000
,  // measure 67
0100
0000
1000
0000
0001
0000
1000
0000
0010
0000
0100
0000
0001
0000
1000
0001
,  // measure 68
1000
0100
0010
0001
0100
0010
1000
0001
,  // measure 69
0010
0001
0010
0000
0100
1000
0100
0000
1000
0001
1000
0001
1000
0000
0000
0000
,  // measure 70
2002
0000
0000
3003
,  // measure 71
0001
0100
0010
1000
0000
1100
0000
0011
,  // measure 72
0000
0000
0001
1000
0001
0000
1000
0000
0020
0000
0000
0000
0130
0000
0001
0000
,  // measure 73
1000
0100
0001
0100
0000
1000
0001
0100
,  // measure 74
0010
0000
0100
0000
0001
0000
1000
0000
0100
0010
0000
0100
0010
0000
0001
0000
,  // measure 75
1000
0100
0010
0001
0000
0101
0000
1010
,  // measure 76
0000
0000
1000
0001
1000
0000
0001
0000
0020
0000
0000
0000
0130
0000
1000
0000
,  // measure 77
0001
0100
0010
0100
0001
1000
0100
0010
,  // measure 78
0100
0000
1000
0000
0001
0000
0100
0000
0010
0100
0000
0010
1000
0000
0001
0000
,  // measure 79
1000
0100
0010
0100
1000
0001
1000
0100
,  // measure 80
0001
0000
0100
0000
1000
0000
0000
0000
1020
0000
0000
0000
0130
0000
0001
1000
,  // measure 81
0001
0010
0100
0010
0001
1000
0001
0010
,  // measure 82
0100
0000
1000
0000
0001
0000
0100
0000
0010
1000
0000
0010
1000
0000
0001
1000
,  // measure 83
0001
0100
0010
0100
0001
1000
0001
0100
,  // measure 84
1000
0100
0001
0000
0021
0000
0130
1000
,  // measure 85
1002
0103
2010
3001
,  // measure 86
1000
0100
0001
0000
0110
0000
1002
0000
,  // measure 87
0103
1000
0000
0110
0000
1001
0000
1000
,  // measure 88
0001
0000
1000
0000
0100
0010
0100
0000
0010
0000
0001
0000
1000
0000
0010
0000
,  // measure 89
0000
0110
0000
1001
0000
0011
0000
1100
,  // measure 90
1000
0001
0100
0010
1000
0001
2001
0000
,  // measure 91
3100
0001
0000
0110
0000
1001
0000
0001
,  // measure 92
1000
0000
0001
0000
0100
0010
0100
0000
0010
0000
1000
0000
0100
0000
0001
0000
,  // measure 93
0100
0000
0010
0000
0001
0000
0100
0000
1000
0000
0100
0000
0010
0000
1000
0001
,  // measure 94
1000
0001
0010
0100
1000
0000
1002
0000
,  // measure 95
0103
0010
1000
0100
0000
0012
0000
0103
,  // measure 96
0010
0000
1010
0000
1001
0000
0001
1000
,  // measure 97
0100
0010
0000
0110
0000
1001
0000
1000
,  // measure 98
0001
0101
1010
1002
,  // measure 99
0013
2001
3010
1002
,  // measure 100
0103
0000
2001
0000
3100
0000
1000
0010
,  // measure 101
0100
0000
0001
0000
1000
0000
0100
0000
0010
0000
0001
0000
0100
0000
0010
0100
,  // measure 102
0010
0000
1000
0001
1000
0001
1000
0001
0010
0000
0000
0000
0110
0000
0000
0000
;

//---------------dance-single - Team Henjin Impact (Daff_4K + hdm300)----------------
#NOTES:
     dance-single:
     Team Henjin Impact (Daff_4K + hdm300):
     Challenge:
     18:
     0.963203,1.287500,0.840909,0.356061,0.537879,890.000000,779.000000,111.000000,47.000000,12.000000,0.000000,0.963203,1.287500,0.840909,0.356061,0.537879,890.000000,779.000000,111.000000,47.000000,12.000000,0.000000:
0000
0000
0000
0000
,
0000
0000
0000
0000
,
0000
0000
0000
0000
,
0000
0000
0000
0000
,
0000
0000
0000
0000
,
0000
0000
0000
0000
,
0001
0000
1000
0000
0010
0000
1000
0000
0100
0000
1000
0000
0010
0000
0100
0001
,
1000
0000
0001
0000
0010
0000
0001
0000
0100
0000
0001
0000
0010
0000
0100
1000
,
0001
0000
0100
0000
1000
0000
0100
0000
0001
0010
0001
0010
0100
1000
0100
1000
,
0020
0100
0130
1001
,
0002
0000
0100
0000
1003
0000
0002
0010
0000
0000
2003
0010
0000
0000
3200
0010
,
0000
0000
1300
0000
0001
0000
0100
0010
0100
0000
0000
0000
1001
0000
0000
0000
,
2000
0000
0100
0000
3001
0000
2000
0010
0000
0000
3002
0010
0000
0000
0203
0010
,
0000
0000
0301
0000
1000
0000
0100
0000
0010
0000
0001
0000
1000
0001
1000
0000
,
0010
0000
0100
0000
0010
0000
1000
0000
0010
0000
0100
0000
0001
1000
0001
0000
,
0010
0000
0100
0000
0010
0000
0001
0000
0010
0000
0100
0000
1000
0001
1000
0000
,
0010
0000
0010
0000
0100
0000
0100
0000
0001
1000
0001
1000
0001
1000
0001
1000
,
0200
0310
2002
3003
,
0101
1100
1010
0011
1100
0101
0011
1010
,
1000
0100
0001
0000
0110
0000
1001
1000
0010
0100
0001
0010
0100
1000
0001
0000
,
0110
0000
1001
0000
1000
0010
0010
0001
0110
0000
1001
0000
0001
0010
0010
1000
,
0110
0000
1001
0000
1000
0100
0010
0001
0101
0000
1010
0000
2002
0000
3003
0000
,
0002
0010
2003
0010
3002
0100
2003
0100
,
3020
0100
2030
0100
3002
0100
0023
0100
,
0031
0001
1000
1000
0010
0100
0001
1000
,
0100
0010
0100
0010
0100
0010
0001
1000
0001
1000
0001
0000
0101
0000
0110
0000
,
0101
0000
1100
0110
1100
0000
1001
0000
,
0110
0000
0000
0000
1001
0000
0000
0000
0001
0000
0001
0000
1000
0000
1000
0010
,
0100
0000
0101
1001
0101
0000
1001
0000
,
0110
0000
0000
0000
1001
0000
0000
0000
0002
0010
0000
0000
2003
0010
0000
0000
,
3001
0000
1100
1001
1100
0000
1001
0000
,
0110
0000
0000
0000
1001
0000
0000
0000
0110
0000
0110
0000
1001
0000
1000
0001
,
0200
0000
0000
0000
0310
0000
1000
0000
0001
1000
0001
0000
0010
0000
0100
0000
,
1000
0010
0100
0001
1000
0100
0001
0100
,
1000
0001
0000
0101
0000
1010
0000
1100
,
0000
0000
0011
0000
0001
0000
1000
0001
1000
0000
0010
0000
0100
0000
0001
0000
,
0010
0010
0100
0100
1000
0001
0100
0010
,
1000
0100
1000
0100
0010
0001
0010
0001
1000
0010
1000
0010
0100
0001
0100
0002
,
2000
0000
0000
0000
,
0000
0000
0000
0000
,
0000
0000
0000
0000
0000
0000
0000
3003
,
0200
0000
0020
0000
0000
0330
MMMM
0000
,
1000
0001
0011
0010
0100
1000
1001
0000
,
0001
1000
1010
0010
0100
0001
1001
0001
,
0010
0100
1100
1000
0001
0100
0110
0000
,
0010
0100
0101
0001
0010
0110
0011
0000
,
0001
0010
0110
0000
0100
1000
1010
0000
,
0010
0000
0100
0000
0101
0000
0000
0000
0001
0000
1000
0000
0100
0010
0100
0010
,
0002
0100
2003
3010
,
0110
0000
0010
1000
1001
0000
0011
0000
,
0110
0001
0010
0001
0010
0100
0010
0100
,
1000
0100
0010
0001
0100
0010
1010
0000
,
0110
1000
0010
1000
0010
0100
0010
0100
,
0001
0000
0010
0000
0100
0000
1000
0000
0010
0000
0100
0000
0001
1000
0001
1000
,
0001
0010
0001
0010
0001
1000
0001
1000
,
0010
1000
0010
1000
0001
0010
0110
0000
,
0011
0100
0010
0100
0010
0100
0010
0001
,
0202
0303
2020
3030
0220
0330
1001
0000
,
1000
0000
0001
0000
0021
0000
0000
0000
0130
1000
0100
0000
2000
0000
0000
0000
,
3010
1001
0110
1001
,
0001
0000
1000
0000
1020
0000
0000
0000
0130
0001
0100
0000
0002
0000
0000
0000
,
0013
0000
0000
0000
1001
0000
0000
0000
0110
0000
0000
0000
0001
1000
0001
1000
,
0001
0000
1000
0000
1100
0000
0100
0010
0001
0000
1000
0000
1001
0000
0000
0000
,
1000
0000
0001
0000
0101
0000
0100
0010
1000
0000
0001
0000
1001
0000
0000
0000
,
1000
0100
0010
0001
0100
0010
1000
0001
,
1001
1100
0011
1001
,
1000
0000
0100
0000
0010
0000
0001
0000
1000
0000
0001
0010
0001
0000
1000
0000
,
0001
0000
0100
0000
0010
0000
1000
0000
0001
0000
1000
0010
1000
0000
0001
1000
,
0001
0010
0010
0100
0100
1000
0010
0100
,
0001
0010
0001
0010
0100
1000
0100
1000
0010
0100
0001
1000
0001
0000
0000
0000
,
1001
0000
0000
0000
0000
0000
0000
0000
0000
0000
0000
0000
0000
0000
0000
0000
1000
0010
1000
0000
0010
0000
0100
0001
0100
0000
0001
0000
1001
0000
0000
0000
,
1000
0100
0010
0001
1000
0001
0010
0001
,
1000
0010
0100
0000
0001
0000
1000
0100
0010
0000
0001
0000
1000
0000
1000
0000
,
0001
0000
0010
0000
0100
1000
0001
0000
0100
0000
0010
0000
1000
0000
0001
1000
,
0001
0000
0010
0000
0100
0000
1000
0000
0010
0100
0000
0001
1000
0000
1000
0000
,
0100
0010
0011
0001
0100
0010
1010
1000
,
0001
0000
0010
0000
0110
0000
0100
0000
1000
0000
0010
0000
0100
0000
0001
1000
,
0001
0010
0100
0010
0001
1000
0010
0100
,
0010
0000
1000
0000
0001
0000
1000
0000
0100
0010
0000
0010
0100
0000
1000
0000
,
0001
1000
0100
0000
0110
0000
1001
1000
,
0010
0000
0100
0000
1000
0000
0100
0000
0010
0000
0000
0000
1000
0000
0001
1000
,
0001
0010
1000
0000
0110
0000
1001
0001
,
0010
0000
0100
0000
0001
0000
0100
0000
0010
0001
0000
1000
0010
0000
0010
0000
,
1000
0010
1000
0000
0010
0000
0100
0000
0001
0010
0001
0000
0010
0000
0100
0000
,
1000
0010
1000
0000
0001
0010
0001
0000
0100
0000
0010
0000
1000
0000
1001
0000
,
0021
0000
0130
0000
1020
0000
0130
0010
,
0110
0000
0000
0000
1001
0000
0000
0000
MMMM
0000
0000
0000
0001
0000
0001
0100
,
0010
0000
0100
0001
0100
0000
0001
1000
0001
0000
0010
0001
0010
0000
0100
0000
,
0010
0001
0010
0000
0100
0010
0100
0010
0100
1000
0100
1000
0001
0000
0001
0100
,
0010
0000
0100
0010
1000
0001
0010
0100
1000
0001
1000
0001
1000
0000
0010
0100
,
0001
0000
0010
0000
0100
0000
0010
0100
1000
0000
0001
1000
0001
0000
0000
0000
,
1000
0000
1000
0010
0100
0000
0100
0000
0110
0000
0010
1000
0010
0000
0100
0000
,
0010
1000
0010
0000
0100
0010
0100
0010
0100
0001
0100
0001
1000
0000
0000
0000
,
1001
0000
0001
0000
1000
0000
0010
0100
0001
0000
0010
0100
2000
0000
0000
0000
,
3001
0201
1300
0110
,
1001
0000
1000
0000
0010
1000
0010
1000
0010
1000
0001
0000
1000
0001
1000
0001
,
1000
0001
0010
0000
0001
0010
0001
0010
0001
0000
0001
0000
0010
0000
0100
1000
,
0010
0000
0100
0010
1000
0001
0010
0100
1000
0001
1000
0001
1000
0000
0100
0000
,
0010
0001
1000
0000
0010
0100
0000
0001
1000
0000
1000
0000
0100
0000
0010
0000
,
0001
0100
0110
0001
1000
0010
0100
0001
,
1000
0000
0100
0000
0110
0000
1000
0000
0001
0000
1000
0000
0001
0100
0001
0100
,
0010
1000
0010
1000
0001
0010
0001
0010
0100
1000
0010
0100
0001
0000
0000
0000
,
1000
MMMM
0000
0220
,
0330
0000
0000
0000
;
