#TITLE:IMAGINE;
#SUBTITLE:;
#ARTIST:SOUND ASSASINS;
#TITLETRANSLIT:;
#SUBTITLETRANSLIT:;
#ARTISTTRANSLIT:;
#GENRE:;
#CREDIT:KAYSTAR;
#MUSIC:imagine.ogg;
#BANNER:imaginebn.png;
#BACKGROUND:imaginebg.png;
#CDTITLE:;
#SAMPLESTART:78.367;
#SAMPLELENGTH:10.000;
#SELECTABLE:YES;
#OFFSET:0.000;
#BPMS:0.000=171.500
,32.000=85.750
,64.000=171.500
;
#STOPS:;
#BGCHANGES:;
#FGCHANGES:;

//--------------- dance-single - KAYSTAR ----------------
#NOTES:
     dance-single:
     KAYSTAR:
     Beginner:
     3:
     0,0,0,0,0:
0000
0000
0000
0000
,
0000
0000
0000
0000
,
0000
0000
0000
0000
,
0000
0000
0000
0000
,
1000
0000
1000
0000
,
0001
0000
0001
0000
,
1000
0000
0001
0000
,
0100
0100
0100
0100
,
0100
0000
0010
0000
,
1000
0000
0001
0001
,
0001
0000
0010
0000
,
0100
0000
1000
1000
,
1000
0000
0010
0000
,
0100
0000
0001
0001
,
0001
0000
0010
0000
,
0100
0000
2000
3000
,
0001
0000
0001
0000
,
0001
0000
0000
0000
,
1000
0000
1000
0000
,
1000
0000
0000
0010
,
0010
0000
0010
0000
,
0010
0000
0000
0000
,
0100
0000
0100
0000
,
0200
0000
0300
0000
,
1001
0000
0001
0000
,
0001
0000
0000
0000
,
1000
0000
1000
0000
,
1000
0000
0000
0000
,
0010
0000
0100
0100
,
0100
0000
0010
0010
,
0010
0000
0100
0000
,
1001
0000
0000
0000
,
0001
0001
0001
0000
,
1000
1000
1000
0000
,
0010
0010
0010
0000
,
0100
0100
0100
0000
,
0001
0001
0001
0000
,
0010
0010
0010
0000
,
0100
0100
0100
0000
,
1000
0000
1000
1000
,
1000
0000
0001
0001
,
0001
0000
0100
0100
,
0100
0000
0010
0010
,
0010
0000
1000
1000
,
1000
0000
0001
0000
,
1000
0000
0001
0000
,
0100
0000
0010
0000
,
0200
0000
0300
0000
,
0001
0000
1000
1000
,
1000
0000
0100
0100
,
0100
0000
0010
0000
,
0001
0000
1001
0000
,
1000
0000
0010
0010
,
0010
0000
0100
0100
,
0100
0000
0001
0000
,
1000
0000
1001
0000
,
0001
0000
0010
0010
,
0010
0000
0100
0100
,
0100
0000
1000
0000
,
0001
0000
1001
0000
,
1000
0000
0010
0010
,
0010
0000
0100
0000
,
0001
0000
0000
0000
,
2002
0000
0000
0000
,
3003
0000
0000
0000
;

//--------------- dance-single - KAYSTAR ----------------
#NOTES:
     dance-single:
     KAYSTAR:
     Easy:
     6:
     0,0,0,0,0:
0000
0000
0000
0000
,
0000
0000
0000
0000
,
0000
0000
0000
0000
,
0000
0000
0000
0000
,
1000
0000
0010
0100
,
0001
0000
0010
0100
,
1000
0000
1001
0000
,
0001
0100
0010
1000
,
0001
0001
1000
1000
,
0100
0000
0100
0000
0010
0000
0001
1000
,
0001
0001
0100
0100
,
0010
0000
0010
0000
1000
0000
0100
1000
,
0100
0100
0010
0010
,
0001
0000
0001
0000
1000
0000
0010
1000
,
0010
0010
0100
0100
,
0001
0000
0001
0000
2000
0000
3000
0001
,
1000
0000
0010
1000
,
0001
0000
0010
0001
,
1000
0000
0010
0100
,
0001
0000
0010
0100
,
1000
1002
0000
0100
,
0103
0010
1000
1000
,
0001
0000
0010
0000
,
0220
0000
0330
0000
,
1000
1000
0001
0000
,
0100
0000
0100
0000
,
0001
0001
1000
0000
,
0100
0000
0100
0110
,
0010
0001
1000
1000
,
0010
1000
0001
0001
,
0010
0000
0100
0000
,
2002
0000
3003
0000
,
1000
0010
1000
0010
,
0100
0001
0100
0001
,
1000
0100
1000
0100
,
0010
0001
1000
1000
,
0010
0100
0010
0100
,
0001
1000
0001
1000
,
0100
0010
0100
0010
,
0001
0001
0001
0000
,
1000
0010
1000
0000
,
0001
0100
0001
0000
,
1000
0100
0010
0000
,
0001
0100
0010
0010
,
1000
0001
0010
0010
,
0001
1000
0010
0010
,
1000
0000
1001
0000
,
0220
0000
0330
0000
,
0002
0000
0103
0010
,
2000
0000
3100
0010
,
0001
0100
0010
1000
,
0100
0000
1100
0000
,
2000
0000
3010
0100
,
0002
0000
0013
0100
,
2000
0000
3010
0100
,
0001
0001
1000
1000
,
0200
0000
0310
0001
,
0200
0000
0310
1000
,
0200
0000
0310
0001
,
0100
0000
0101
0000
,
0002
0000
0013
0100
,
0002
0000
0103
0010
,
0001
0000
1000
0010
,
0200
0000
0000
0000
,
0300
0000
0000
0000
;

//--------------- dance-single - KAYSTAR ----------------
#NOTES:
     dance-single:
     KAYSTAR:
     Medium:
     10:
     0,0,0,0,0:
0000
0000
0000
0000
,
0000
0000
0000
0000
,
0000
0000
0000
0000
,
0000
0000
0000
0000
,
2100
3001
0102
1003
,
2010
3001
0012
1003
,
1010
0000
0110
0000
,
0001
0100
0010
1000
,
0001
0010
0100
0010
0001
0010
0100
0010
,
0001
0000
0100
0000
0010
0000
0100
0000
0001
0000
0100
0000
0010
1000
0001
0000
,
1000
0100
0010
0100
1000
0100
0010
0100
,
1000
0000
0010
0000
0100
0000
0010
0000
1000
0000
0010
0000
0100
0001
1000
0000
,
0100
0001
0100
1000
0100
0001
0100
1000
,
0010
0000
0001
0000
0010
0000
1000
0000
0010
0000
0001
0000
0010
1000
0001
0000
,
0010
1000
0010
0001
0100
1000
0100
0001
,
0010
0100
1000
0001
0200
0000
0300
0010
,
2000
0000
0100
0000
3001
0000
1000
0100
,
2000
0000
0001
0000
3010
0000
0100
0010
,
2000
0001
3100
0010
,
0002
0000
1000
0000
0103
0010
1000
0000
,
0001
0021
0100
0031
,
2000
0100
0001
3002
,
0100
1000
0100
1003
,
2002
0000
3003
0000
,
1000
0010
1000
0020
0000
0100
0000
0130
,
0001
0000
2000
0100
0000
3001
0000
0010
,
0001
0010
0001
0020
0000
0100
0000
0130
,
1000
0000
0002
1000
0000
0100
0103
0000
,
0010
1000
0010
0000
0100
0001
0100
0000
,
0001
0010
0001
0000
1000
0100
1000
0000
,
0001
0010
0100
0000
1000
0010
0100
0000
,
2002
0000
3003
1001
,
1000
0010
0100
0002
0000
0023
0000
2030
,
0000
3010
0001
1000
0010
0100
0001
0000
,
1000
0100
0010
0002
0000
0203
0000
2300
,
0000
3100
0001
1000
0100
0000
0110
0000
,
0010
0001
1000
0020
0000
0032
0000
0023
,
0000
1030
0001
0010
0100
1000
0001
0000
,
0100
0001
1000
0200
0000
0302
0000
0103
,
1000
1100
0001
0101
,
1000
0010
0200
0001
0000
0010
0000
0301
,
1000
0100
0020
0001
0000
0130
0000
1000
,
0001
0100
0020
1000
0000
0100
0000
1030
,
0001
0010
0100
1000
0001
0000
1001
0000
,
1000
0010
0100
0000
0001
0010
0100
0000
,
0010
0001
1000
0000
0010
0100
0001
0000
,
1000
0010
1000
0010
0100
0001
0100
0001
,
0020
0000
0030
0000
,
0012
1003
2010
3001
,
0102
1003
2100
3001
,
1000
0010
0100
0001
0010
0100
1000
0000
,
2100
3010
0102
0013
,
2001
3010
0120
1030
,
1002
0013
0120
0031
,
1020
0130
0102
0013
,
0001
0010
0100
1000
0001
0000
0110
0000
,
2010
3100
0120
0031
,
0201
0310
2010
3100
,
0010
0001
1000
0010
0100
0001
1000
0000
,
2100
3010
0102
0013
,
2001
3010
1002
0013
,
2001
3100
1002
0103
,
0120
0000
1030
0001
,
0020
0000
0000
0000
,
0030
0000
0000
0000
;

//--------------- dance-single - KAYSTAR ----------------
#NOTES:
     dance-single:
     KAYSTAR:
     Hard:
     14:
     0,0,0,0,0:
0000
0000
0000
0000
,
0000
0000
0000
0000
,
0000
0000
0000
0000
,
0000
0000
0000
0000
,
0001
0000
0100
0000
1000
0000
0100
0000
0100
0000
0010
0000
1000
0001
0000
1000
,
0001
0000
0010
0000
1000
0000
0010
0000
0010
0000
0100
0000
1000
0001
0000
1000
,
0002
0000
0010
0013
0002
1000
0000
0100
,
0103
0000
0010
1000
0010
0000
0100
0001
1000
0000
0001
1000
0001
0000
0010
0001
,
2000
3200
0302
0023
,
2030
0000
0000
0000
3200
0000
0000
0000
0320
0000
0000
0000
0031
0100
0010
0100
,
0002
0203
2300
3020
,
0032
0000
0000
0000
0203
0000
0000
0000
0320
0000
0000
0000
1030
0001
0010
0001
,
2000
3200
0302
0023
,
2030
0000
0000
0000
3200
0000
0000
0000
0302
0000
0000
0000
0103
1000
0010
1000
,
0200
2300
3020
0032
,
0203
0000
2300
0000
3002
0000
0003
0110
,
2000
0000
3100
1000
0020
0000
0130
0001
,
0020
0000
0130
1000
0010
0001
0010
1000
,
0002
0000
0013
0001
0200
0000
0310
1000
,
0200
0000
0000
0000
0310
0000
0100
0000
0001
0000
0100
0000
1000
0001
1000
0000
,
0001
0000
0201
0000
1300
0100
0001
1000
,
0200
0000
1300
0010
0100
0001
0101
0000
,
1000
0000
0010
0000
0100
0000
0001
0000
0001
0000
0010
0000
0100
1000
0000
1000
,
0002
0000
0003
0000
,
1001
0000
0001
0000
0010
0000
0001
0000
0100
0000
0010
0000
1000
0100
0000
1000
,
0100
0001
0100
1000
1000
0001
0000
0001
,
1000
0000
1000
0000
0010
0000
1000
0000
0100
0000
0010
0000
0001
0100
0000
0001
,
0100
0000
1000
0000
0100
0000
0001
0000
0001
0000
1000
0000
0100
1000
0001
0000
,
1001
1000
0010
0100
0001
0001
1000
0100
,
1000
0001
1000
0000
0010
0000
0100
0000
0001
0000
0010
0000
0100
1000
0001
0000
,
1001
0000
1000
0001
0101
0100
0000
0010
,
2000
3200
0302
0023
,
1030
0000
0100
0000
0010
0001
0010
0000
0100
0000
1000
0000
0010
1000
0010
0000
,
0100
0000
0001
0000
0010
0001
0010
0000
0001
0000
0100
0000
1000
0000
0100
0000
,
0001
0000
0010
0000
0100
1000
0100
0000
1000
0000
0010
0000
0100
0001
0100
0000
,
0001
0000
0010
0000
0100
1000
0001
0000
1001
0000
0000
0000
1000
0001
0010
0000
,
0001
0000
0100
0000
0010
1000
0010
0000
1000
0000
0100
0000
0010
0001
0010
0000
,
0100
0000
1000
0000
0010
1000
0010
0000
1000
0000
0100
0000
0001
0000
0100
0000
,
1000
0000
0010
0000
0100
0001
0100
0000
0001
0000
0010
0000
0100
1000
0001
0000
,
0100
0000
0010
0000
1010
0000
0000
0000
0101
0000
0000
0000
1000
0001
1000
0000
,
0001
0000
0010
0000
0100
0000
0001
0100
0000
0000
0100
1000
0000
0000
0001
0000
,
0001
0000
0100
0000
0010
0000
0021
0000
0000
0000
1030
0000
0001
1000
0001
0000
,
1000
0000
0100
0000
0010
0000
1000
0010
0000
0000
0010
0001
0000
0000
1000
0000
,
1000
0000
0010
0000
0100
0000
1000
0000
1200
0000
0000
0000
0310
0100
0010
0100
,
0001
0000
1000
0000
0100
0010
0100
0000
1000
0000
0001
0000
0100
0010
0100
0000
,
0001
0000
1000
0000
0100
0010
0100
0000
1000
0000
0001
0000
0100
0000
0010
0000
,
1000
0010
1000
0000
0001
1000
0100
0000
0010
0001
0010
0000
0001
1000
0010
0000
,
0200
0000
0300
0000
,
0001
0010
1000
0000
1001
0000
0001
0100
,
1000
0010
0001
0000
1001
0000
1000
0100
,
0001
1000
0001
0010
1000
0010
0001
0000
,
2100
0000
0000
0000
3010
0000
0000
0000
0102
0000
0000
0000
0013
0001
1000
0000
,
0001
0100
1000
0000
1001
0001
0010
0000
,
1000
0000
0000
0000
0001
0000
1000
0100
1000
0000
0001
0000
0101
0000
0000
0000
,
0012
0103
2010
3100
,
0010
0001
0010
0000
0001
1000
0010
0000
1020
0000
0000
0000
0130
0010
1000
0000
,
0010
1000
0100
0000
0101
0000
0001
0100
,
1000
0010
0100
0000
1100
0000
0100
0010
,
1000
0100
0001
1000
0010
0001
1000
0000
,
1020
0000
0000
0000
0031
0000
0000
0000
1200
0000
0000
0000
0310
1000
0001
0000
,
0010
0100
0001
0000
0101
0000
0100
1000
,
0010
0100
1000
0000
1100
0000
0110
0000
,
1001
0000
0001
0010
,
0200
0000
0000
0000
,
0300
0000
0000
0000
;
