#TITLE:IDSMILE;
#SUBTITLE:;
#ARTIST:25-ji, Nightcord de.;
#TITLETRANSLIT:;
#SUBTITLETRANSLIT:;
#ARTISTTRANSLIT:;
#GENRE:;
#CREDIT:;
#MUSIC:IDSMILE.ogg;
#BANNER:IDSMILE.png;
#BACKGROUND:IDSMILE-bg.png;
#CDTITLE:;
#SAMPLESTART:38.070;
#SAMPLELENGTH:16.842;
#SELECTABLE:YES;
#OFFSET:-0.000;
#BPMS:0.000=171.000;
#STOPS:;
#ORIGIN:;
#PREVIEWVID:;
#JACKET:IDSMILE-jacket.png;
#CDIMAGE:;
#DISCIMAGE:;
#BGCHANGES:0.000=IDSMILE.avi=1.000=1=0=0=StretchNoLoop==CrossFade==,
99999.000=-nosongbg-=1.000=0=0=0=StretchNoLoop====
;
#FGCHANGES:;

//--------------- dance-single - ----------------
#NOTES:
     dance-single:
     :
     Beginner:
     2:
     0.09304,0.169758,0.029604,0,0,88,84,4,0,0,0,0,0,0,0.09304,0.169758,0.029604,0,0,88,84,4,0,0,0,0,0,0:
0000
0000
0000
0000
,
0000
0000
0000
0000
,
0000
0000
0000
0000
,
0000
0000
0000
0000
,
0001
0000
0000
0000
,
0100
0000
0000
0000
,
1000
0000
0000
0000
,
0100
0000
0000
0000
,
1000
0000
0000
0000
,
0001
0000
0000
0000
,
1000
0000
0000
0000
0000
0000
0000
0010
,
0000
0010
0000
0000
,
0000
0000
1000
0000
,
0000
0000
0010
0000
,
0000
0000
0001
0000
,
0000
0000
0010
0000
,
0000
0000
0001
0000
,
0000
0000
1000
0000
,
0000
0000
0001
0000
,
0000
0000
0100
0000
,
0100
0000
0010
0000
,
0000
0000
0000
0000
,
1000
0000
0000
0000
,
0000
0000
0001
0000
,
0000
0000
0000
0000
,
0010
0000
0010
0000
,
0000
0000
0100
0000
,
0000
0000
1001
0000
,
0000
0000
0001
0000
,
0000
0000
1000
0000
,
0000
0000
1000
0000
,
0000
0000
0100
0000
,
0000
0000
0010
0000
,
0000
0000
0001
0000
,
0000
0000
1000
0000
,
0000
0000
0010
0000
,
0000
0000
0010
0000
,
0010
0000
0100
0000
,
0000
0000
0100
0000
,
0100
0000
0001
0000
,
0000
0000
1000
0000
,
0000
0000
0001
0000
,
0000
0000
1000
0000
,
1000
0000
0100
0000
,
0000
0000
0000
0000
,
0100
0000
0000
0000
,
0000
0000
0010
0000
,
0000
0000
0000
0000
,
0010
0000
0000
0000
,
0000
0000
0001
0000
,
0000
0000
0000
0000
,
1000
0000
0000
0000
,
0000
0000
0001
0000
,
0000
0000
0000
0000
,
1000
0000
0000
1001
,
0000
0000
0001
0000
,
0000
0000
0000
0000
,
0100
0000
0000
0000
,
0000
0000
0010
0000
,
0000
0000
0000
0000
,
1000
0000
0000
0000
,
0000
0000
0001
0000
,
0000
0000
0000
0000
,
0010
0000
0000
0000
,
0000
0000
0100
0000
,
0000
0000
0000
0000
,
1000
0000
0000
0001
,
0000
0000
0000
1001
,
0000
0000
0000
0000
,
0000
0000
0000
0000
,
0000
0000
0000
0000
,
0000
0000
0000
0000
,
0000
0000
0000
0000
,
0000
0000
0000
0000
,
0000
0000
0000
1001
,
0000
0000
0000
1000
,
0000
0000
0000
0001
,
0000
0000
0000
0001
,
0000
0000
0000
0100
,
0000
0000
0000
0010
,
0000
0000
0000
1000
,
0000
0000
0000
0001
,
0000
0000
0000
0010
,
0000
0000
0000
0010
,
0000
0010
0000
0100
,
0000
0000
0000
0100
,
0000
0100
0000
1000
,
0000
0000
0000
0001
,
0000
0000
0000
1000
,
0000
0000
0000
0001
,
0000
0001
0000
0100
,
0000
0100
0000
0010
;

//--------------- dance-single - ----------------
#NOTES:
     dance-single:
     :
     Easy:
     4:
     0.151189,0.273833,0.118414,0,0,143,127,16,0,0,0,0,0,0,0.151189,0.273833,0.118414,0,0,143,127,16,0,0,0,0,0,0:
0000
0000
0000
0000
,
0000
0000
0000
0000
,
0000
0000
0000
0000
,
0000
0000
0000
0000
,
1001
0000
0000
0000
,
1000
0000
0100
0000
,
1001
0000
0000
0000
,
0001
0000
0100
0000
,
1001
0000
0000
0000
,
0001
0000
0010
0000
,
0001
0000
0001
0000
,
1000
1000
0000
0000
,
0000
0000
0001
0000
,
0001
0000
0100
0000
,
0100
0000
1000
0000
,
1000
0000
0100
0000
,
0100
0000
1000
0000
,
1000
0000
0010
0010
,
0010
0000
0001
0000
,
0001
0000
0010
0010
,
0010
0000
0001
0000
,
0000
0000
0000
0000
,
1000
0000
0000
0000
,
0000
0000
0010
0000
,
0000
0000
0000
0000
,
0100
0000
0100
0000
,
0001
0000
0001
0000
,
0000
0000
1001
0000
,
0000
0000
1000
0000
,
1000
0000
0001
0000
,
0001
0000
0001
0000
,
0000
0000
0010
0000
,
0000
0000
0010
0000
,
0000
0000
0100
0000
,
0000
0000
0100
0000
,
0100
0000
1000
0000
,
0000
0000
1000
0000
,
0000
0000
0001
0000
,
0000
0000
0001
0000
,
0000
0000
1001
0000
,
1000
0000
1001
0000
,
0001
0000
1000
0000
,
0000
0000
0010
0000
,
0010
0000
0100
0000
,
0000
0000
0000
0000
,
0100
0000
0000
0000
,
0000
0000
0001
0000
,
0000
0000
0000
0000
,
1000
0000
0000
0000
,
0000
0000
0001
0000
,
0000
0001
0000
0000
,
0100
0000
0000
0100
,
0000
0000
1001
0000
,
0000
0000
0000
0000
,
0110
0000
0000
0000
,
0000
0000
1000
1000
,
1000
0100
0000
0000
,
0001
0001
0001
0100
,
0000
0000
0010
0010
,
0010
1000
0000
0000
,
0001
0001
0001
0010
,
0000
0000
0110
0000
,
0000
0000
0110
0000
,
1001
0000
0000
1001
,
0000
0000
0000
0000
0001
0000
0000
0001
,
0000
0000
0100
0000
0000
0100
0000
0000
,
0010
0000
0000
0010
0000
0000
1000
0000
,
1000
0001
0001
1001
,
0000
0000
0000
0000
,
0000
0000
0000
0000
,
0000
0000
0000
0000
,
0000
0000
0000
0000
,
0000
0000
0000
0000
,
0000
0000
0000
0000
,
0000
0000
0000
1001
,
0000
0000
0000
0001
,
0000
0001
0000
1000
,
0000
1000
0000
1000
,
0000
0000
0000
0010
,
0000
0000
0000
0010
,
0000
0000
0000
0100
,
0000
0000
0000
0100
,
0000
0100
0000
0001
,
0000
0000
0000
0001
,
0000
0000
0000
1000
,
0000
0000
0000
1000
,
0000
0000
0000
1001
,
0000
0001
0000
1001
,
0000
1000
0000
0001
,
0000
0000
0000
0010
,
0000
0010
0000
0100
,
0000
0100
0000
1000
,
0000
0000
1000
0000
;

//--------------- dance-single - ----------------
#NOTES:
     dance-single:
     :
     Medium:
     7:
     0.245286,0.309311,0.037004,0.281234,0,232,227,5,38,0,0,0,0,0,0.245286,0.309311,0.037004,0.281234,0,232,227,5,38,0,0,0,0,0:
0000
0000
0000
0000
,
0000
0000
0000
0000
,
0000
0000
0000
0000
,
0000
0000
0000
0000
,
1001
0000
0000
0000
0000
0000
0000
0001
,
0000
0100
0000
0001
0000
0000
0000
0000
,
1001
0000
0000
0000
0000
1000
0000
0100
,
0000
0100
0000
0000
0010
0000
0001
0000
,
1001
0000
0000
0000
0000
0000
0000
0001
,
0000
1000
0000
0001
0000
0000
0000
0000
,
2000
3000
0200
0300
,
0010
0002
0000
0000
,
0000
0003
1001
0000
,
0001
0000
0100
0100
,
0010
0000
1000
0000
,
0100
0000
0010
0010
,
0001
0000
1000
0000
,
0010
0000
0100
0100
,
0002
0003
1000
0000
,
0001
0000
1000
1000
,
0100
0000
0100
0000
1000
0000
0000
0010
,
0000
0000
1000
0000
0000
0001
0000
0000
,
0100
0000
0000
0001
0000
0000
0010
0000
,
0000
0001
0000
0000
1000
0000
0000
0100
,
0000
0000
0010
0000
0000
0100
0000
0000
,
1000
0001
2000
0000
,
0000
0000
3010
0000
,
0000
0000
0002
0000
,
0100
0103
2000
0000
,
0100
3100
0001
0001
,
0010
0010
0100
0100
,
1000
0001
1000
0010
,
1000
0000
1000
0010
,
0100
0001
0020
0030
,
0200
0300
1000
0100
,
0010
0001
2000
0000
,
0010
0000
3001
1000
,
0001
0000
0002
0000
,
0010
0000
1003
0001
,
1000
0000
1000
0100
,
0010
0000
0010
0100
,
1000
0000
0001
0100
,
0010
0000
0010
0100
,
0001
1000
0001
0000
,
0000
0001
0000
0000
,
1000
0000
0000
1000
,
0000
0000
0010
0000
,
0000
0010
0000
0000
,
0100
0000
0000
0100
,
0000
0000
0000
0000
0001
0000
0000
0001
,
0000
0001
0001
0001
,
1000
0000
0000
1000
0000
0000
1000
0000
,
1000
0100
0020
0000
,
0000
0030
0000
0000
,
0001
0000
0000
0100
0000
0000
0010
0000
,
0010
0010
1000
0100
,
0010
2000
3200
0320
,
0031
0100
0010
0002
,
0203
0320
1030
0001
,
0010
2000
3002
0023
,
0031
1000
0010
0002
,
2003
0000
3020
0000
1030
0000
0000
0100
,
0000
0100
0000
0100
0010
0000
0010
0000
,
0001
0000
0000
0100
0000
0000
0010
0000
,
0010
0000
1000
0000
0002
0000
0000
0003
,
0000
0000
2000
0000
0000
3000
0000
0000
,
0200
0000
0000
0300
0000
0000
0020
0000
,
0000
0000
0000
0031
,
0000
0000
0000
0000
,
0000
0000
0000
0000
,
0000
0000
0000
0000
,
0000
0000
0000
0000
,
0000
0000
0000
0200
,
0000
0000
0000
0020
,
0000
0000
0330
2001
,
0000
0100
3100
0002
,
0000
0100
0103
1000
,
1000
0010
0010
0100
,
0100
0001
1000
0001
,
0010
0001
0000
0001
,
0010
0100
1000
0020
,
0030
0200
0300
0001
,
0100
0010
1000
0002
,
0000
0010
0000
1003
,
0001
1000
0000
2000
,
0000
0010
0000
3001
,
1000
0001
0000
0001
,
0100
0010
0000
0010
,
0100
0001
0000
1000
,
0100
0010
0000
0010
,
0100
1000
0001
2000
,
0000
3002
0000
0013
,
0000
0010
0000
0000
0001
0000
0000
1000
;

//--------------- dance-single - ----------------
#NOTES:
     dance-single:
     :
     Hard:
     11:
     0.412335,0.515518,0.222026,0.814097,0,390,360,30,110,0,0,2,0,0,0.412335,0.515518,0.222026,0.814097,0,390,360,30,110,0,0,2,0,0:
0000
0000
0000
0000
,
0000
0000
0000
0000
,
0000
0000
0000
0000
,
0000
0000
0000
2000
,
3001
0100
0002
0000
0000
1003
0000
0010
,
0000
0000
0000
1010
0000
0000
0002
0000
,
1003
0100
2000
0000
0000
3002
0000
0013
,
0020
0030
0000
0000
0011
0000
0110
0000
,
1001
1000
0002
0000
0000
0103
0000
0010
,
0000
2000
0000
0100
0000
0000
3002
0000
,
0013
0000
0001
1000
0000
0010
0000
1000
,
0000
0200
0020
0000
0000
0000
0000
0000
,
0000
0330
0000
0000
1000
0001
0010
0000
,
0010
0001
1000
0010
0000
0100
0001
0010
,
0000
0100
2000
0000
3001
0100
0010
0000
,
0010
0100
0001
1000
0000
1001
0000
1000
,
0200
0000
0320
0000
0031
1000
0010
0000
,
0010
1000
0200
0010
0000
0010
0000
0010
,
0000
2300
0000
3001
0100
0000
0100
0010
,
0000
0110
0000
0001
1000
0000
1001
0000
,
2000
0000
3200
0000
0320
0000
0031
1000
,
0000
1000
0002
0000
0203
0000
0320
0000
,
2030
0000
3100
0010
0000
0010
0200
0000
,
2300
0000
3002
0000
0013
0000
0010
0100
,
0000
0100
2000
0000
3002
0000
0103
0000
,
0110
2001
0200
0300
,
0020
0030
0002
0000
,
0000
0000
3003
0000
1001
0000
0001
0100
,
0000
0101
0000
0010
2000
0000
0000
3002
,
0010
0000
0000
2003
0100
0000
0000
3002
,
0100
0000
0000
1003
0100
0000
0010
0000
,
0001
0000
0100
0000
0010
0100
0010
0100
,
0010
0000
1000
0010
1000
0000
0002
0000
,
0203
0000
2300
0000
3200
0000
0301
1000
,
0100
0000
0100
0020
0000
0032
0000
0023
,
0000
1030
0010
0001
1000
0000
0001
0100
,
0000
0100
0002
0000
2003
0000
3100
0000
,
0220
0000
0330
0000
0001
0000
1000
0010
,
0000
0010
2000
0000
3002
0000
0013
0000
,
0220
0330
2001
3200
,
0302
0023
2030
3002
,
0203
2300
3200
0302
,
0023
0230
2300
0010
,
3002
0010
1003
0000
,
1000
0100
0010
0000
0000
0000
0000
0000
,
0001
0000
0000
0000
0001
0100
0010
0000
,
0000
0000
0000
0000
1000
0000
0000
0001
,
0000
0011
0000
1000
,
0010
0000
0000
0010
0000
0000
1010
0000
,
0000
0000
0002
0000
0103
0000
0100
0010
,
0000
0010
1000
0000
0001
0000
1000
0000
,
0100
0000
0100
0010
0000
0010
0001
0000
,
1000
0010
0220
0000
,
0000
0330
0000
0000
,
2002
0000
0000
3003
,
0000
0000
0000
0000
1000
0100
1000
0100
,
0020
0000
0031
0100
0001
0100
0020
0000
,
1030
0001
1000
0001
0020
0000
0031
1000
,
0001
1000
0020
0000
0130
0001
0100
0001
,
0020
0000
0130
1000
0100
1000
0020
0000
,
0130
0001
0100
0010
2000
0000
3100
0010
,
0001
1000
0010
0100
0002
0000
0000
4000
,
0000
0000
3003
0110
,
1001
0000
0000
2100
0000
0000
0004
0000
,
0000
0000
3003
0000
0001
0000
0100
2000
,
0000
0000
3100
0000
1000
0020
0000
0000
,
1030
0000
0010
0002
0000
0000
1003
0000
,
0010
0100
0001
1001
,
0000
0000
0000
2000
,
0000
0000
0000
0200
,
0300
0002
0003
3020
,
0000
0200
0300
2000
,
0000
0000
3030
0000
0000
0000
0001
0100
,
0001
0100
0001
0000
1000
0010
2000
0000
,
0000
0000
3000
2001
,
3100
0010
0000
0110
0000
0010
0002
0000
,
0000
2003
0010
0000
0000
3002
0100
0000
,
0000
2003
0100
0000
0000
3001
0100
0000
,
0010
0000
1000
0000
0100
0000
0010
0100
,
0010
0100
0010
0000
0001
0010
0001
0000
,
2000
3200
0302
0203
,
1300
0001
0100
0000
0100
0020
0000
2030
,
0000
3020
0000
0031
0010
1000
0001
0000
,
1000
0100
0000
0100
2000
0000
3002
0000
,
0103
0220
0330
1000
,
0001
0010
0000
0010
0002
0000
2003
0000
,
3010
0220
0330
1002
,
0203
2300
3020
0032
,
2003
3200
0302
0203
,
2300
3020
0230
0302
,
0010
2003
0010
3002
,
0100
2003
3200
0310
,
0010
0001
0000
1000
0010
0000
0100
0001
;

//--------------- dance-single - ----------------
#NOTES:
     dance-single:
     :
     Challenge:
     14:
     0.53815,0.790461,0.185022,0.777093,0.033304,509,484,25,105,0,0,0,0,0,0.53815,0.790461,0.185022,0.777093,0.033304,509,484,25,105,0,0,0,0,0:
0000
0000
0000
0000
,
0000
0000
0000
0000
,
0000
0000
0000
0000
,
0000
0000
0000
0000
0000
1000
0001
1000
,
0010
0010
0020
0000
0030
0000
0000
2000
,
0000
3200
0000
0302
0000
0103
0010
0001
,
0100
0100
0200
0000
0000
0320
0000
1030
,
0010
0002
0000
0013
1000
0001
0010
0100
,
1000
1000
2000
0000
0000
3001
0000
0100
,
0000
0110
0000
1001
0000
0000
0000
0001
,
1000
0000
0100
0010
0000
0001
0000
1000
,
0000
0001
0200
0000
0000
0000
0000
0000
,
0000
0000
0300
0000
1001
1000
0100
0000
,
0100
0010
0001
1000
0000
0001
0100
2000
,
0000
3100
0010
1000
0001
0001
0010
0000
,
0010
0001
1000
0200
0000
0302
0000
0103
,
0010
0001
1000
0010
0100
0100
0001
0000
,
1000
0001
0010
0100
0000
0110
0000
1000
,
0002
0000
0000
0100
0203
0000
0310
1000
,
0000
0001
0000
0010
0020
0000
0032
0000
,
2003
0000
0100
0000
3001
0100
0010
0100
,
0001
0010
0200
0000
1300
0100
0010
0001
,
2000
0000
3010
0200
0000
0310
2000
0000
,
3001
0010
0100
1000
0010
0000
0010
0100
,
0000
0100
0001
1000
0100
0010
0002
0000
,
0203
0000
0302
0000
0023
0000
0000
0031
,
0200
0000
0000
0301
2000
0000
0000
0000
,
0000
0000
3000
0000
1001
0000
0001
0010
,
0000
0010
0100
1000
0020
0000
1030
0010
,
0002
0000
0013
0100
0002
0000
0013
0100
,
0002
0000
0103
1000
0020
0000
2030
0000
,
3200
0000
0320
0000
0031
1000
0010
1000
,
0001
0000
1000
0100
1000
0000
1010
0000
,
0110
0000
0102
0000
0023
0000
0130
1000
,
0001
1000
0100
0010
0000
0001
0000
1000
,
0000
0010
1000
0001
0100
0000
0100
0020
,
0000
0130
0001
1000
0000
1000
0100
0000
,
0110
0000
1001
1000
0001
0000
1000
0010
,
0000
0010
1000
0002
0000
0013
0100
1000
,
0010
1010
2000
3020
,
0032
0000
0013
0100
0001
0020
0000
0130
,
2000
0000
3002
0000
0203
0000
0301
1000
,
0020
0000
0130
0001
0020
0000
0130
1000
,
0020
0000
0130
0001
2000
0000
3100
1000
,
0001
1000
0002
0000
0003
0000
0000
1000
,
0020
0000
1030
0001
0010
0001
0020
0000
,
0030
0000
0000
0001
0200
0000
0301
1000
,
0000
1000
0200
0000
0320
0000
0031
0001
,
2000
0000
3010
0100
0000
0100
0001
0000
,
1002
0000
0103
0100
0020
0000
0130
0001
,
0000
0001
1000
0000
1100
0000
1000
0100
,
0010
0000
0010
0001
0000
0001
2000
0000
,
3020
0230
0302
0100
,
0100
2000
3003
0002
,
0023
0000
0130
1000
0000
1000
0020
0000
,
0230
0000
0302
0000
1003
0100
0001
0100
,
1000
0010
1000
0100
0001
0100
1000
0010
,
0100
1000
0100
0001
0010
0001
0100
1000
,
0100
0001
0010
0001
1000
0001
0010
1000
,
0001
0100
1000
0010
0001
1000
0100
0001
,
1000
0001
0100
1000
0001
0010
1000
0100
,
0001
0000
1000
0000
0010
0000
0001
0000
1000
0000
0001
0000
0010
0000
0001
0100
,
0010
0000
0000
0100
0000
0000
0001
0000
0000
0100
0000
0000
0010
0000
0000
0100
0000
0000
0001
0000
0000
0100
0000
0000
0020
0000
0030
0000
0000
0000
1000
0000
0000
0000
0000
0000
2200
0000
3300
0000
0000
0000
0100
0000
0000
0000
0000
0000
,
0202
0000
0303
0000
0000
0000
0001
0000
0000
0000
0000
0000
0010
0000
0000
0000
0000
0000
0022
0000
0033
0000
0000
0000
0010
0000
0000
0000
0000
0000
0100
0000
0000
0000
0000
0000
1000
0000
0000
0100
0000
0000
0010
0000
0000
0100
0000
0000
,
1000
0100
0010
0100
1000
0000
0001
0000
0200
0000
0000
0000
0310
0000
0110
0000
,
0000
0000
2000
0000
3001
1001
0000
0000
,
0002
0000
0013
0011
0000
1000
1020
0000
,
0230
0302
0013
1001
,
0000
0000
0000
2000
,
0000
0000
0000
0000
0000
0100
0100
0000
,
0000
0010
3010
0000
0000
1000
0002
0000
,
0000
0010
0010
0000
0000
0100
0100
0000
,
0000
0000
0000
0000
0003
0000
1000
0001
,
1000
0001
1000
0000
0001
1000
0200
0000
,
0000
0000
0300
1001
,
1000
0010
0000
0010
0100
0001
0020
0000
,
0031
0010
2000
0000
3010
0100
2000
0000
,
3010
0100
2000
0000
3100
0001
0020
0000
,
0230
0000
2300
0000
3002
0000
1003
0001
,
0010
0001
1000
0000
0001
0100
0001
0000
,
0011
0110
2100
3020
,
0130
0001
1000
0001
0100
0010
0000
1000
,
0000
0001
0000
0010
0001
1000
0100
0000
,
0100
0020
0000
0130
1000
0001
0000
0001
,
0100
0000
0110
0000
1001
0001
1000
0000
,
0001
0010
0000
0010
0001
2000
0000
3010
,
0100
0001
0010
0000
0011
0000
0002
0000
,
0023
0000
2030
0000
3010
0100
1000
0010
,
0000
0010
0200
0000
0302
0000
2003
0000
,
3100
1000
0020
0000
0130
0001
0020
0000
,
0130
1000
0020
0000
0130
0001
2000
0000
,
3100
0010
0002
0000
0103
0010
1000
0000
,
0010
1000
0000
0001
0010
0000
0100
1000
;
