#TITLE:Hypernaid;
#SUBTITLE:;
#ARTIST:KATOMORI;
#TITLETRANSLIT:;
#SUBTITLETRANSLIT:;
#ARTISTTRANSLIT:;
#GENRE:;
#CREDIT:SOUND TEAM STARRY NIGHT;
#MUSIC:Hypernaid.ogg;
#BANNER:Hypernaid-banner.avi;
#BACKGROUND:Hypernaid-bg.png;
#CDTITLE:;
#SAMPLESTART:76.267;
#SAMPLELENGTH:14.242;
#SELECTABLE:YES;
#OFFSET:-0.109;
#BPMS:0.000=150.000
,158.000=300.000
,160.000=150.000
;
#STOPS:158.000=0.200
,159.000=0.200
;
#DISPLAYBPM:150.000;
#BGCHANGES:-0.273=Hypernaid.avi=1.000=0=0=1,
99999.000=-nosongbg-=1.000=0=0=0=StretchNoLoop====
;
#FGCHANGES:;

//--------------- dance-single - ----------------
#NOTES:
     dance-single:
     :
     Beginner:
     3:
     0,0,0,0,0:
0000
0000
0000
0000
,
0000
0000
0000
0000
,
0000
0000
0000
0000
,
0000
0000
0000
0000
,
0000
0000
1000
0000
,
0100
0000
0010
0000
,
0001
0000
1000
1000
,
0000
0000
0000
0010
0000
0000
0000
0000
,
0100
0000
1001
0000
,
0000
1000
0000
1000
0000
0000
0000
0002
,
0000
0003
0000
0000
1001
0000
0000
0000
,
0000
0100
0000
0100
0000
0000
0000
0020
,
0000
0030
0000
0000
1000
0000
0000
0000
,
0010
0000
0100
0000
,
0001
0000
0000
0000
2000
3000
0000
0000
,
0002
0003
0000
0000
0010
0000
0010
0000
,
0010
0000
0001
0000
,
1000
0000
0010
0000
,
0100
0100
0100
0000
,
0001
0000
1000
0000
,
0100
0100
0000
0000
,
0010
0000
0001
0000
,
1000
1000
1000
0000
,
0001
0000
0100
0100
,
0200
0300
0000
0000
0020
0000
0000
0000
,
0230
0000
0302
0000
,
1003
0000
0002
0000
,
0023
0000
0230
0000
,
1300
0000
0001
0000
,
0001
0000
1000
0000
,
1000
0000
0100
0000
,
0010
0000
0001
0000
,
0001
0000
1000
0000
,
1000
0000
0010
0000
,
0010
0000
0100
0000
,
0100
0000
0001
0000
,
0001
0000
1000
1000
,
1000
0000
0001
0001
,
0001
0000
0020
0000
,
0000
0000
0030
0000
,
0000
0000
0100
0100
,
0100
0000
0010
0010
,
0010
0000
0001
0000
,
1001
0000
2000
3000
,
0020
0030
0100
0100
,
0100
0000
0001
0001
,
0001
0000
1000
1000
,
1000
1000
1000
0000
,
0000
0000
0100
0000
,
1000
0000
0010
0000
,
0100
0000
0001
0001
,
0001
0000
1000
1000
,
1000
0000
0001
0000
,
0010
0000
0100
0000
,
1000
0000
0002
0000
,
0203
0000
0320
0000
,
1030
0000
0001
0001
,
0000
0000
0000
1000
0000
0000
0000
0000
,
0010
0000
0100
0100
,
0000
0000
0000
0000
0002
0000
0000
0003
,
0000
0000
1001
0000
,
0110
0000
1001
0000
,
0001
0001
0000
0000
1000
0000
0000
0000
,
0100
0000
1000
0000
,
0010
0000
1000
0000
,
0001
0000
0010
0000
,
0100
0000
1000
0000
,
0010
0000
0100
0100
,
0100
0000
0001
0001
,
0001
0000
0100
0000
,
0010
0000
0001
0000
,
0010
0000
1000
0000
,
0100
0000
0001
0000
,
0100
0000
1000
0000
,
0020
0030
1001
0000
,
0110
0000
1000
1000
,
1000
0000
0001
0000
,
0200
0300
0000
0000
0000
0000
0000
0000
0000
0000
0000
0000
0020
0030
0000
0000
0000
0000
0000
0000
0000
0000
0000
0000
0000
0000
0000
0000
0000
0000
0000
0000
0000
0000
0000
0000
0000
0000
0000
0000
0000
0000
0000
0000
0000
0000
0000
0000
;

//--------------- dance-single - ----------------
#NOTES:
     dance-single:
     :
     Easy:
     7:
     0,0,0,0,0:
0000
0000
0000
0000
,
0000
0000
0000
0000
,
0000
0000
0001
0001
,
0200
0000
0320
0000
,
1030
0001
2000
0000
,
3020
0000
0230
0000
,
0302
0000
1003
1000
,
0200
0000
1300
0100
,
0010
0000
0001
1000
0001
0000
0000
0000
,
0000
0011
0000
1001
0000
0000
0000
2000
,
0000
0010
3010
0000
,
0000
1001
0000
0101
0000
0000
0000
0001
,
0000
1000
0001
0000
2000
0000
0000
0000
,
3200
0000
2300
0000
,
3010
0000
1000
1000
0001
0000
0010
0000
,
0011
0001
1000
0001
,
0100
0020
1030
0001
,
0010
0001
1000
0010
,
0100
0001
0100
0010
,
1000
0001
0010
0001
,
0100
0110
0000
1000
,
0100
1000
0001
0010
,
0001
1000
0010
0100
,
0001
0000
0010
0000
0001
1000
0001
1000
,
0001
1001
2000
0000
,
3020
0000
0230
0000
,
0302
0000
2003
0000
,
3200
0000
0310
0001
,
1000
0001
0200
0000
,
0302
0000
0023
0230
,
2300
3002
0203
0000
,
0320
0000
2030
0001
,
3100
1000
0002
0003
,
0200
0300
0020
0030
,
2000
3001
0020
0030
,
0002
0003
0100
0010
,
2000
3010
1000
0100
,
1000
0100
0010
0001
,
0010
0001
0100
0010
,
0100
0010
1000
0000
,
0000
0000
0001
0100
,
0101
0000
1000
0100
,
1100
0000
0001
0010
,
0001
0100
0010
1000
,
2002
3003
0000
0000
1000
0000
0100
0000
,
0001
0000
0001
0100
,
1000
0000
1100
0000
,
0101
0000
1001
1000
,
0001
0001
0010
0000
0001
0000
0100
0000
,
0010
1000
0001
0010
,
0100
1000
0002
0100
,
1003
0001
2000
0100
,
3001
1000
0100
0010
,
0001
1000
0001
0000
1000
0000
0010
0000
,
0100
0010
0100
0000
0020
0000
0000
0000
,
0230
0000
0301
0010
,
0100
1000
0001
0001
,
0200
0000
0320
0000
,
2030
0000
3001
0001
,
0020
0000
0031
0000
,
1000
1000
0010
0000
2020
3030
0000
0000
,
2002
3003
0000
0000
0022
0033
0000
0000
,
0001
0001
0000
0000
1200
0000
1300
0000
,
0001
0010
0001
0100
,
0001
0001
1000
0010
,
1000
0100
1000
0010
,
0100
0010
1000
0001
,
0010
0100
0010
0001
,
2000
0000
3010
0000
1000
1000
0001
0000
,
0010
0100
0001
0100
,
0010
0000
0001
0000
1000
1000
0010
0000
,
0100
1000
0100
0010
,
1000
0001
1000
0000
0001
0001
1000
0000
,
0100
0001
0010
0001
,
0100
0000
1000
0000
2200
3300
0000
0000
,
0202
0303
0000
0000
0001
0000
0100
0000
,
0010
2000
3100
0010
,
0002
1003
0000
0000
;

//--------------- dance-single - ----------------
#NOTES:
     dance-single:
     :
     Medium:
     10:
     0,0,0,0,0:
0000
0000
0000
0000
,
0000
0000
0000
0000
,
0000
0000
1000
1000
,
0001
0000
0000
0100
0000
0000
0001
0000
0000
0000
1000
0000
0001
0000
0000
0000
,
1000
0000
0000
0100
0000
0000
1000
0000
0001
0000
0000
0000
0001
0000
0000
0000
,
0010
0000
0000
0100
0000
0000
0010
0000
0000
0000
0001
0000
1000
0000
0010
0000
,
0000
0000
0000
0100
0000
0000
0001
0000
1000
0000
0000
0000
1000
0000
0000
0000
,
0001
0000
0000
0100
0000
0000
0001
0000
0000
0000
1000
0000
0100
0000
1000
0000
,
0001
0010
0100
0000
2002
0000
3003
0000
,
0000
0000
0000
0000
0000
0000
0202
0303
0000
0000
0000
0000
0000
0000
0000
0000
0000
0000
2020
3030
0000
0000
0000
0000
0000
0000
0000
0000
0000
0000
0000
0000
0000
0000
0000
0000
0000
0000
0000
0000
0000
0000
0220
0000
0000
0000
0000
0000
,
0000
0330
2002
3003
,
0000
0000
0000
0000
0000
0000
2200
3300
0000
0000
0000
0000
0000
0000
0000
0000
0000
0000
0022
0033
0000
0000
0000
0000
0000
0000
0000
0000
0000
0000
0000
0000
0000
0000
0000
0000
0000
0000
0000
0000
0000
0000
2002
0000
0000
0000
0000
0000
,
0000
3003
1000
1000
,
0001
0010
0000
0001
0000
1000
0001
1000
,
0010
0100
0001
0000
2002
0000
3003
0000
,
0220
0330
1000
0001
,
0100
0000
0000
0000
0000
0000
0000
0000
0000
0000
0000
0000
2002
3003
0000
0000
0000
0000
0000
0000
0000
0000
0000
0000
0001
0000
0000
0000
0000
0000
0010
0000
0000
0000
0000
0000
0001
0000
0000
0000
0000
0000
0000
0000
0000
0000
0000
0000
,
1000
0010
1000
0100
1000
0001
0100
0000
,
0001
0010
0001
0100
0001
1000
0010
0000
,
0100
0001
1000
0001
0100
0010
1000
0000
,
0001
0001
0010
0000
0000
0000
0001
0000
,
1000
0010
1000
0100
1000
0010
0100
0000
,
0001
1000
0010
0100
0001
0000
1000
0000
,
0100
0000
0000
0100
0000
0000
0100
0000
1000
0000
0010
0000
0100
0000
0001
0000
,
0020
0130
2000
0000
,
3200
0000
0320
0000
,
0032
0000
0203
0000
,
0320
0000
0000
0000
0000
0000
0000
0000
0000
0000
0000
0000
0000
0000
0000
0000
0000
0000
0000
0000
0000
0000
0000
0000
2000
3030
0000
0000
0000
0000
0002
0003
0000
0000
0000
0000
2000
3000
0000
0000
0000
0000
0002
0003
0000
0000
0000
0000
,
2000
3000
0000
0000
0000
0000
0000
0000
0000
0000
0000
0000
0000
0000
0000
0000
0000
0000
0000
0000
0000
0000
0000
0000
0001
0000
0000
0000
0000
0000
0000
0000
0000
0000
0000
0000
0100
0000
0000
0000
0000
0000
0000
0000
0000
0000
0000
0000
,
0010
0100
0001
0010
,
1000
0010
0100
1000
,
0010
0000
0000
0100
0000
0000
0001
0000
1000
0000
0001
0000
,
0010
0000
0001
0001
,
0010
0010
0100
0100
,
1000
1000
0001
0001
,
0100
0100
0010
1000
,
0001
0000
0001
0000
1000
0001
1000
0001
,
0100
0010
1000
0000
0001
1000
0001
1000
,
0100
0010
0001
0000
1000
0001
1000
0001
,
1000
0001
1000
0001
1000
0000
0000
0000
,
0000
0000
0000
0000
0001
0100
1000
0100
,
0001
0000
1000
0000
0001
0010
1000
0010
,
0001
0000
0000
1000
0000
0000
0001
0000
0100
0000
0000
0000
0010
0000
0000
0000
,
1001
0000
1000
0100
0010
1000
0010
0001
,
2000
3002
0103
1010
,
0100
1001
0100
0011
,
1000
0000
0010
0100
0010
0000
1000
0000
,
0001
0000
0010
0100
0010
0000
0000
0000
,
0002
0000
1003
0000
0001
0010
0001
0000
,
1000
0010
0100
0001
0010
0001
0100
0000
,
0010
0000
0000
0000
0000
0000
1000
0000
0000
0000
0000
0000
0001
0000
0000
0000
0000
0000
0000
0000
0000
0000
0000
0000
1000
0000
0000
0000
0000
0000
0000
0000
0000
0000
0000
0000
2200
3300
0000
0000
0000
0000
0000
0000
0000
0000
0000
0000
,
0001
0000
0000
0000
0000
0000
0000
0000
0000
0000
0000
0000
0202
0303
0000
0000
0000
0000
0000
0000
0000
0000
0000
0000
1000
0000
0000
0000
0000
0000
0000
0000
0000
0000
0000
0000
2020
3030
0000
0000
0000
0000
0000
0000
0000
0000
0000
0000
,
0001
0010
0001
0000
1000
0010
1000
0010
,
0100
0001
0100
0001
1000
1000
0100
0100
,
1000
0000
0020
0030
2000
0000
0000
0000
,
3200
0000
0310
0001
,
2000
0000
3010
0010
,
0100
0001
0000
1000
0000
0100
1000
0000
,
0010
0100
0001
0000
0100
0000
0100
0000
,
0001
1000
0000
0100
0000
1000
0001
0100
,
0010
1000
0001
0000
2002
3003
0000
0000
,
0220
0330
0000
0000
2002
3003
0000
0000
,
1000
0001
1000
0000
0001
0010
0001
0000
,
1000
0010
0100
0001
1000
0100
1000
0000
,
0001
0010
0100
0000
1000
1000
0001
0000
,
0100
0010
1000
0010
0100
0001
1000
0000
,
0100
0001
0100
0010
0001
1000
0010
0000
,
0100
1000
0100
0010
1000
0000
0001
0000
,
0010
0000
1001
0000
0000
0000
1000
0100
,
0010
0100
1000
0001
0100
1000
0100
0010
,
1000
0001
0010
0100
1000
0000
0001
1000
,
0010
0100
0001
0010
0100
0010
0001
1000
,
0001
0100
0010
0100
0002
0000
1003
0100
,
1000
0001
0100
0001
0010
0100
1000
0001
,
0100
0100
0001
0001
2000
0000
3000
0000
,
0002
0000
0003
0000
1000
0100
0010
0001
,
0200
0000
0000
0000
0000
0000
0000
0000
0000
0000
0000
0000
0020
0330
0000
0000
0000
0000
0000
0000
0000
0000
0000
0000
1000
0000
0000
0000
0000
0000
0010
0000
0000
0000
0000
0000
0100
0000
0000
0000
0000
0000
0001
0000
0000
0000
0000
0000
,
1000
0000
0000
0000
0000
0000
0000
0000
0000
0000
0000
0000
0200
0300
0000
0000
0000
0000
0000
0000
0000
0000
0000
0000
0000
0000
0000
0000
0000
0000
0000
0000
0000
0000
0000
0000
0000
0000
0000
0000
0000
0000
0000
0000
0000
0000
0000
0000
;

//--------------- dance-single - ----------------
#NOTES:
     dance-single:
     :
     Hard:
     13:
     0,0,0,0,0:
0000
0000
0000
0000
,
0000
0000
0000
0000
,
0000
0000
0000
0000
2000
3100
2000
3100
,
1000
0001
0000
0100
0000
0001
2000
3100
,
0020
0031
1000
0010
0100
0000
0001
0000
,
1000
0000
0000
0001
0000
0000
0010
0000
0000
0000
0100
0000
1000
0000
0010
0000
,
1000
0000
0000
0001
0000
0000
1000
0000
0002
0000
0103
0000
0002
0000
0103
0000
,
0001
1000
0000
0100
0000
1000
0002
0103
,
0002
0010
1003
0000
2100
0000
3001
0100
,
0010
0000
0000
0000
0000
0000
2020
3030
0000
0000
0000
0000
0000
0000
0000
0000
0000
0000
0022
0033
0000
0000
0000
0000
0000
0000
0000
0000
0000
0000
0010
0000
0000
0000
0000
0000
0001
0000
0000
0000
0000
0000
0102
0000
0000
0000
0000
0000
,
0000
0000
0000
0000
1003
0001
1000
0000
2100
0000
0000
0000
3010
0000
0100
0000
,
0001
0000
0000
0000
0000
0000
0202
0303
0000
0000
0000
0000
0000
0000
0000
0000
0000
0000
2200
3300
0000
0000
0000
0000
0000
0000
0000
0000
0000
0000
0001
0000
0000
0000
0000
0000
0010
0000
0000
0000
0000
0000
0001
0000
0000
0000
0000
0000
,
0200
0010
0301
0000
2000
3001
2000
3001
,
0100
0001
0000
1000
0000
0100
0020
0031
,
2000
0000
3010
0000
1000
0001
1000
0000
0002
0000
0000
0000
0000
0000
0000
0000
,
2003
0000
0000
0000
0000
0000
0000
0000
3100
0000
0000
0010
0001
0000
1000
0000
,
0100
0000
2010
0000
3001
0010
0001
0100
,
1000
0100
0010
1000
0001
0010
0100
0010
,
0002
0100
2003
0100
3001
0010
0001
0100
,
1000
0100
0010
1000
0001
0010
0100
1000
,
0002
0010
1003
0100
0001
0100
0010
0001
,
1000
0010
0100
1000
0100
0010
1000
0100
,
0020
0001
0230
1000
0310
0001
1000
0010
,
1000
0000
0000
0001
0000
0000
0100
0000
0001
1000
0001
0000
0010
0001
1000
0000
,
0200
0000
0000
0000
0000
0000
0000
0000
0000
0000
0000
0000
0020
0330
0000
0000
0000
0000
0000
0000
0000
0000
0000
0000
0002
0000
0000
0000
0000
0000
0000
0000
0000
0000
0000
0000
0000
0000
0000
0000
0000
0000
0000
0000
0000
0000
0000
0000
,
0203
0000
0320
0000
,
2030
0000
3200
0001
,
0320
0000
0000
0000
0000
0000
0000
0000
0000
0000
0000
0000
0001
0000
0000
0000
0000
0000
0000
0000
0000
0000
0000
0000
0200
0330
0000
0000
0000
0000
2000
3000
0000
0000
0000
0000
0002
0003
0000
0000
0000
0000
0200
0300
0000
0000
0000
0000
,
0020
0030
0000
0000
0000
0000
0000
0000
0000
0000
0000
0000
1000
0000
0000
0000
0000
0000
0000
0000
0100
0000
0000
0000
0010
0000
0000
0000
0000
0000
0000
0000
0000
0000
0000
0000
0001
0000
0000
0000
0000
0000
0000
0000
0100
0000
0000
0000
,
0010
0000
0000
1000
0000
0100
0010
0000
0010
0001
0000
0001
,
0100
0000
0000
0000
0100
0000
0010
0000
0000
0000
0010
0000
1000
0000
0000
0000
0000
0000
0001
0000
0000
0000
1000
0010
,
1000
0000
0001
1000
0000
1000
0001
0100
0001
1000
0100
1000
,
0002
0000
2003
0000
3001
0010
0001
1000
,
0002
0000
0000
0000
0103
0000
0001
1000
0001
0000
0010
0000
0100
0000
1000
0000
,
0010
0000
1000
0000
0001
1000
0001
1000
0001
0000
0010
0000
0001
0000
1000
0000
,
0002
0000
0000
0000
0103
0000
0010
1000
0010
0000
1000
0000
0100
0000
0010
0000
,
0002
0100
2003
0000
3001
0010
0001
0100
,
0002
0000
1000
0000
0103
0000
0010
1000
0010
0000
1000
0000
0100
0000
1000
0000
,
0020
0100
1030
0001
2000
3200
0320
0032
,
0203
0320
2030
3002
2M03
0000
000M
0000
,
30M0
0000
0001
1000
1010
0000
0011
0000
,
0210
0000
0301
0100
1000
0001
0110
0000
,
1001
0000
0000
0101
0000
0000
1000
0000
0100
00M0
0100
0000
0001
0000
0100
0000
,
0010
0000
0100
0000
0001
0000
0010
0M00
0010
0000
1000
0000
0100
00M0
0100
0000
,
0002
0000
0000
0000
2003
0000
0000
0000
3100
0000
0001
0000
0200
0000
0000
0310
,
0001
0000
1000
0000
0010
0000
0100
000M
0100
0000
1000
0000
0020
0000
0000
0130
,
0001
0010
0004
0000
2003
3010
2000
3010
,
0100
000M
0100
0000
0010
0000
0001
1000
0200
0000
0000
0000
0300
0000
0000
0000
,
4000
0000
0000
0000
3001
0000
1000
0000
0100
0000
0010
0000
0100
1000
0100
0000
,
1000
0000
0010
0000
1000
0000
0001
0000
0100
0000
0010
0000
0100
0001
0100
0000
,
0001
0000
0000
0000
0000
0000
0010
0000
0000
0000
0000
0000
0012
0000
0000
0000
0000
0000
0000
0000
0000
0000
0000
0000
1003
0000
0000
0000
0000
0000
0010
0000
0000
0000
0000
0000
2020
3030
0000
0000
0000
0000
1000
0000
0000
0000
0000
0000
,
0100
0000
0000
0000
0000
0000
0010
0000
0000
0000
0000
0000
0022
0033
0000
0000
0000
0000
0001
0000
0000
0000
0000
0000
0010
0000
0000
0000
0000
0000
0100
0000
0000
0000
0000
0000
2200
3300
0000
0000
0000
0000
1000
0000
0000
0000
0000
0000
,
0001
0000
0010
0000
1002
0000
0000
0000
0103
0000
0010
0000
1000
0010
1000
0000
,
0001
0000
0010
0000
0001
0010
0001
0000
1000
0000
0100
0000
0001
0000
0100
0000
,
1000
0010
0002
0000
2003
0000
0000
0000
,
3200
0000
0010
0000
0301
0100
0010
1000
,
0100
0001
0100
0000
0020
0031
0020
0031
,
1000
0010
0000
0100
0001
1000
0100
1000
,
0010
0M00
0010
0000
0002
0000
0000
0000
2003
0000
3100
0000
2000
0000
3100
0000
,
1000
0001
0000
0100
0000
1000
0100
0010
,
1000
0000
0001
0000
2000
0000
0000
0000
3002
0000
0000
0000
0013
0M00
0010
0000
,
2000
0000
0000
0000
3010
0M00
0010
0000
0002
0000
0000
0000
0013
0M00
0010
0000
,
2000
0000
0010
0000
3001
0100
0001
0000
1000
0000
0010
0000
0100
0000
0010
0000
,
1000
0001
0010
0001
1000
0100
0001
0100
,
1000
0000
0010
0000
0110
0000
1000
0000
0010
0M00
0010
0000
0001
0000
0100
0000
,
0001
0010
1000
0010
0100
1000
0001
0100
,
0020
1000
0230
1000
0310
1000
0001
0010
,
0100
0000
0001
0000
0100
0000
1000
0000
0001
1000
0010
0000
0100
0001
1000
0000
,
0200
0000
0000
0000
0310
0000
0000
0000
0004
0000
0000
0000
1003
0000
0001
1000
,
0010
0000
0100
0000
0001
0000
1000
0000
0100
000M
0100
0000
0010
0000
1000
0000
,
0001
0010
0200
M000
0301
0001
0100
0010
,
1000
0000
0001
0010
0000
0010
0100
0000
1000
0000
0001
0000
0100
0000
0001
0000
,
0010
0M00
0010
0000
1000
0000
0100
00M0
0200
0000
0000
0000
0301
0000
0010
0000
,
0100
0000
0001
0000
0100
0000
0010
0000
0001
0010
0001
0000
1000
0000
0010
0000
,
0100
000M
0100
0000
0100
0000
0100
0000
1000
0000
0001
0100
0010
0000
1000
0000
,
0100
0000
0010
000M
0010
0000
1000
0000
0001
0100
0010
0000
1000
0100
0010
0000
,
0002
0000
0000
0000
0000
0000
0000
0000
0000
0000
0000
0000
2000
3003
0000
0000
0000
0000
0000
0000
0000
0000
0000
0000
0100
0000
0000
0000
0000
0000
1000
0000
0000
0000
0000
0000
0010
0000
0000
0000
0000
0000
0100
0000
0000
0000
0000
0000
,
0001
0000
0000
0000
0000
0000
0000
0000
0000
0000
0000
0000
2002
3003
0000
0000
0000
0000
0000
0000
0000
0000
0000
0000
0000
0000
0000
0000
0000
0000
0000
0000
0000
0000
0000
0000
0000
0000
0000
0000
0000
0000
0000
0000
0000
0000
0000
0000
;

//--------------- dance-single - ----------------
#NOTES:
     dance-single:
     :
     Challenge:
     17:
     0,0,0,0,0:
0000
0000
0000
0000
,
0000
0000
0000
0000
,
0000
0000
0000
0000
0001
0100
0001
1000
,
0100
0000
1000
0001
0000
0000
0200
0000
0000
0000
1300
0000
0100
0000
0001
0000
,
0010
0000
0100
0000
1000
0000
0001
1000
0100
0000
1000
0000
0010
0000
0100
0000
,
0001
0000
1000
0200
0000
0301
0100
0020
,
0001
0000
0000
0130
0000
0000
0010
0000
0001
0000
0100
0000
0001
0000
1000
0000
,
0100
0000
1000
0001
0000
0000
0200
0000
0000
0000
1300
0000
0100
0000
0001
0000
,
0020
0000
0100
0000
0130
0000
1000
0001
0010
0000
0001
0000
1000
0010
0100
0001
,
1000
0000
1001
0000
0000
0000
1100
0000
0100
0000
0010
0000
0001
0100
0020
0000
,
0000
0000
1000
0000
0130
0001
0100
0000
0001
0000
0010
0000
0001
0010
0100
1000
,
0001
0000
1001
0000
0000
0000
0101
0000
0100
0000
0010
0000
1000
0100
0020
0000
,
0000
0100
0031
0000
1000
0100
1000
0001
,
0100
0002
0000
2003
0000
3100
0001
0100
,
0010
0000
0001
0000
1000
0001
1000
0000
1001
0000
0001
0000
0100
0010
1000
0000
,
1010
0000
0010
0000
0100
0000
0001
0000
1000
0001
0000
0001
1000
0100
0010
0000
,
0002
0000
0000
0000
0000
0000
0000
0000
0000
0000
0000
0000
0020
0033
0000
0000
0000
0000
0001
0000
0000
1000
0000
0000
0100
0000
0000
0000
0000
0000
0010
0000
0000
0000
0000
0000
0001
0000
0000
0100
0000
0000
0010
0000
0000
0100
0000
0000
,
0002
0000
1000
0000
0103
0000
0001
0000
1000
0000
0010
0000
1000
0100
0010
0100
,
2000
0000
0001
0000
3100
0000
1000
0000
0001
0000
0010
0000
0001
0100
0010
0100
,
0002
0000
0100
0000
1003
0000
0100
0000
1000
0000
0010
0000
1000
0100
0010
0100
,
1000
0000
0001
0000
0101
0000
0100
0010
1000
0000
1000
0000
0001
0010
0100
1000
,
0001
0000
0200
0000
0010
0000
0301
0000
1000
0000
0001
0000
1000
0100
0010
0001
,
1000
0020
0100
1030
0002
0010
2003
0100
,
3001
0000
0000
0101
0000
0000
1100
0000
0001
1000
0010
0100
0001
0010
0100
1000
,
0001
0000
0000
0000
0000
0000
0000
0000
0000
0000
0000
0000
2002
3003
0000
0000
0000
0000
0000
0000
0000
0000
0000
0000
2000
0000
0000
0000
0000
0000
0000
0000
0000
0000
0000
0000
0000
0000
0000
0000
0000
0000
0000
0000
0000
0000
0000
0000
,
3200
0001
2300
0010
,
3002
0000
0203
1000
,
0320
0000
0000
0000
0000
0000
0000
0000
0000
0000
0000
0000
0001
0000
0000
0000
0000
0000
0000
0000
0000
0000
0000
0000
0200
0330
0000
0000
0000
0000
0002
0003
0000
0000
0000
0000
2000
3000
0000
0000
0000
0000
0200
0300
0000
0000
0000
0000
,
0020
0030
0000
0000
0000
0000
0000
0000
0000
0000
0000
0000
0001
0000
0000
0000
0100
0000
0000
0000
0010
0000
0000
0000
1000
0000
0000
0000
0000
0000
0000
0000
0001
0000
0000
0000
1000
0000
0000
0000
0100
0000
0000
0000
0010
0000
0000
0000
,
0001
0000
1000
0010
0100
0001
0010
0000
0010
0001
1000
0010
,
0100
0000
0010
0000
0001
0000
0010
0000
0100
0000
0010
0000
1000
0000
0000
0000
0001
0000
1000
0000
0001
0000
0010
0100
,
1000
0000
0001
0100
0010
1000
0100
0010
1000
0010
0100
1000
,
0001
0000
0000
0000
0000
0000
0000
0000
1000
0000
0000
0000
0001
0000
0000
0000
0000
0000
0100
0000
0000
0001
0000
0000
1000
0000
0000
0000
0000
0000
0010
0000
0000
0000
0000
0000
1000
0000
0000
0000
0000
0000
0001
0000
0000
0000
0000
0000
,
0010
0000
0100
0001
0000
0000
0100
1000
0001
0000
1000
0000
0100
0000
2000
0000
,
0010
0000
3001
0000
0010
0001
1000
0001
0010
0000
0000
0000
0001
0000
1000
0000
,
0010
0000
0100
1000
0000
0000
0100
0001
1000
0000
0001
0000
0100
0000
0002
0000
,
0010
0000
1003
0000
0010
1000
0001
1000
0010
0000
1000
0000
0001
0000
1000
0000
,
0100
0000
0001
0000
0100
0000
1000
0001
1000
0000
0001
0000
0100
0000
0010
0000
,
0001
0000
0010
0000
1000
0000
0001
0010
0100
1000
0100
1000
0100
1000
0100
1000
,
0001
0010
0001
0010
0001
0010
0001
2000
0M00
0000
0000
0000
000M
0000
0000
0000
,
30M0
0000
0000
0000
0000
0000
0000
0000
0001
0000
0010
0M00
0010
0000
1000
0000
0001
0000
0000
0000
0101
0000
0000
0000
1000
0000
0000
0000
1100
0000
0000
0000
,
1002
0000
0000
0000
0000
0000
0000
0000
1003
0000
0000
0000
0010
0M00
0010
0000
0001
0000
0000
0000
1001
0000
0000
0000
0101
0000
0000
0000
1000
0000
0000
0000
,
0001
0000
0000
1000
0000
0000
0100
0000
1200
0000
0001
0000
0320
0000
1000
0000
,
0130
0000
0000
0000
0000
0000
0000
0000
0000
0000
0000
0000
1000
0000
0000
0000
0000
0000
0000
0000
0000
0000
0000
0000
0001
0000
0000
0000
1000
0000
0000
0000
0000
0000
0000
0000
0010
0000
0000
0000
0M00
0000
0010
0000
0000
0000
0000
0000
0000
0000
0000
0000
0000
0000
0000
0000
0001
0000
0000
0000
0000
0000
0000
0000
0100
0000
0000
0000
0000
00M0
0000
0000
0100
0000
0000
0000
0000
0000
0000
0000
0000
1000
0000
0000
0000
0000
0000
0010
0000
0000
0000
0000
0000
0000
0000
0000
,
2010
0000
0000
0000
0000
0000
0000
0000
0000
0000
0000
0000
0000
0000
0000
0000
3002
0000
0000
0000
0000
0000
0000
0000
0000
0000
0000
0000
0000
0000
0000
0000
1003
0000
0000
0000
0001
0000
0000
0000
0100
0000
0000
0000
0001
0000
0000
0000
1000
0000
0000
0000
0100
0000
0000
0000
0100
0000
0000
0000
0020
0030
0000
0000
,
1000
0000
0000
0000
0001
0000
0000
0000
0100
0000
0000
0000
0001
0000
0000
0000
1000
0000
0000
0000
0100
0000
0000
0000
1000
0000
0000
0000
0000
0000
0000
0000
0001
0000
0000
0000
1000
0000
0000
0000
0100
0000
0000
0000
1000
0000
0000
0000
0001
0000
0000
0000
0010
0000
0000
0000
0010
0000
0000
0000
0200
0300
0000
0000
,
0001
0000
1000
0000
0010
0010
0001
0100
0100
0000
1002
0000
0103
0000
2001
0000
,
3100
0000
0000
0000
0000
0000
0010
0000
0000
0000
0000
0000
1001
0000
0000
0000
0000
0000
1000
0000
0000
0010
0000
0000
0200
0300
0000
0000
0000
0000
0002
0000
0000
0000
0000
0000
2003
0000
0000
0000
0000
0000
3100
0000
0000
0000
0000
0000
,
0040
0000
0000
0000
0130
0000
0010
0001
0100
0000
0010
0000
1000
0001
0100
0100
,
2000
0000
0010
0000
3001
0000
0100
0001
0010
0000
0100
0000
1000
0100
0100
0001
,
2000
0000
0000
0000
0000
0000
0010
0000
0000
0000
0000
0000
3001
0000
0000
0000
0000
0000
1000
0000
0000
0001
0000
0000
1000
0000
0000
0000
0000
0000
0100
0000
0000
0000
0000
0000
0002
0003
0000
0100
0000
0000
0010
0000
0000
0100
0000
0000
,
1000
0000
0000
0000
0000
0000
0001
0000
0000
0000
0000
0000
0202
0303
0000
0000
0000
0000
1000
0000
0000
0000
0000
0000
0001
0000
0000
0000
0000
0000
0100
0000
0000
0000
0000
0000
2000
3000
0000
0100
0000
0000
0010
0000
0000
0100
0000
0000
,
0001
0000
0000
0000
0000
0000
1000
0000
0000
0000
0000
0000
2200
3300
0000
0000
0000
0000
0001
0000
0000
0010
0000
0000
0200
0000
0000
0000
0000
0000
0310
0000
0000
0001
0000
0000
0100
0000
0000
0001
0000
0000
0010
0000
0000
0001
0000
0000
,
0200
0000
0310
1000
0100
1000
0010
1000
0100
0010
0100
0010
0001
1000
0001
1000
,
0010
0100
1000
0100
0040
0000
0030
0000
2000
0000
0000
0000
0000
0000
0000
0000
,
3002
0000
0000
0000
0010
0000
0000
0000
1003
0010
0010
0001
1000
0001
0010
0100
,
1000
0001
0100
0010
1000
0010
0100
0001
0010
0000
0000
0000
0001
0000
0100
0000
,
0010
0000
1000
0000
0100
0000
0010
0001
1000
0000
0010
0000
0100
0000
0001
0000
,
0010
0000
0100
0000
1000
0000
0001
1000
0002
0000
0000
0000
0203
0000
0000
0000
,
0320
2030
0002
0000
,
3003
0000
0000
0000
M00M
0000
0000
0000
2100
0000
0001
0000
3010
1000
0010
1000
,
0200
0000
0001
0000
0310
0001
0010
0001
0200
0000
0010
0000
1300
0100
1000
0100
,
0010
0000
1000
0000
0100
0100
0001
0000
2000
0000
0010
0000
3001
0010
0100
1000
,
0020
0000
0130
0000
1001
0000
0001
0000
0010
0000
1000
0000
0010
0100
1000
0001
,
0100
0000
0010
0000
1001
0000
1000
0001
0010
0M00
0010
0000
1000
0010
0100
1000
,
0200
0000
0310
0000
1001
0000
0001
0000
2000
0000
0001
0000
3100
0001
0100
0010
,
0001
0000
0010
0M00
0010
0000
1000
0000
0002
0000
0100
0000
1003
0010
0100
0001
,
0020
0000
0130
0000
1001
0000
1000
0000
0001
1000
0100
0010
0001
1000
0010
0100
,
0002
0000
0000
0000
1003
0000
0001
1000
0100
0100
0100
0100
0001
0010
0100
1000
,
0010
1000
0001
0100
0001
1000
0100
1000
0010
0010
0001
1000
0001
0010
0100
1000
,
0001
0000
0000
0100
0000
0000
0001
0000
0000
1000
0000
0000
0200
0000
0000
0000
0000
0000
0000
0000
1300
0000
0001
0000
0010
0000
0000
0M00
0000
0000
0010
0000
0000
0000
0000
0000
1000
0000
0000
0100
0000
0000
0010
0000
0000
0001
0000
0000
,
1000
0010
0200
1000
0000
0310
0100
0001
1000
0100
0010
0001
1000
0010
0100
0100
,
1000
0000
0000
0001
0000
0000
0100
0000
0000
0010
0000
0000
0001
0000
0000
0010
0000
0000
0100
0000
0000
0001
0000
0000
2000
0000
0000
0000
0000
0000
0000
0000
0100
3000
0010
0000
0001
0000
0000
1000
0000
0000
0010
0000
0000
0100
0000
0000
,
0001
1000
0100
0010
0001
0100
0001
0010
0100
1000
0010
0010
0001
1000
0100
0010
,
0001
0100
0001
0100
1000
0100
1000
0100
0010
1000
0001
0010
0100
1000
0010
0100
,
0001
0010
0100
0010
1000
0010
0100
0010
0001
1000
0010
0100
0001
0010
0100
1000
,
0001
0000
0000
0000
0000
0000
0000
0000
0200
0300
0000
0000
0000
0000
0000
0000
0010
0000
1000
0000
0001
0000
0010
0000
0100
0000
1000
0000
0010
0000
0100
0000
,
0001
0000
0000
0000
0000
0000
0000
0000
0000
0000
0000
0000
2002
3003
0000
0000
0000
0000
0000
0000
0000
0000
0000
0000
0000
0000
0000
0000
0000
0000
0000
0000
0000
0000
0000
0000
0000
0000
0000
0000
0000
0000
0000
0000
0000
0000
0000
0000
;
