#TITLE:Hot Solid Juice;
#SUBTITLE:;
#ARTIST:Off Book--The Improvised Musical Podcast;
#TITLETRANSLIT:;
#SUBTITLETRANSLIT:;
#ARTISTTRANSLIT:;
#GENRE:;
#CREDIT:bpgbcg;
#BANNER:bn.png;
#BACKGROUND:bg.png;
#LYRICSPATH:;
#CDTITLE:;
#MUSIC:Hot Solid Juice.ogg;
#OFFSET:-0.100000;
#SAMPLESTART:35.319000;
#SAMPLELENGTH:15.975000;
#SELECTABLE:YES;
#BPMS:0.000000=115.000000
,7.979167=116.000000
,11.000000=118.000000
,16.000000=116.000000
,20.000000=114.000000
,27.000000=118.000000
,31.000000=117.000000
,36.000000=116.000000
,39.000000=114.000000
,44.000000=116.000000
,48.000000=118.000000
,52.000000=117.000000
,60.000000=113.000000
,64.000000=115.000000
,68.000000=118.500000
,72.000000=116.000000
,76.000000=115.000000
,84.000000=116.500000
,88.000000=118.000000
,96.000000=114.000000
,104.000000=115.000000
,107.000000=118.000000
,111.000000=117.000000
,116.000000=115.000000
,120.000000=114.000000
,124.000000=117.000000
,136.000000=113.000000
,138.000000=114.000000
,140.000000=116.000000
,144.000000=117.000000
,152.000000=116.000000
,156.000000=114.000000
,160.000000=115.000000
,164.000000=119.000000
,168.000000=117.000000
,172.000000=114.500000
,180.000000=116.000000
,184.000000=118.000000
,190.000000=115.000000
,200.000000=116.000000
,204.000000=118.000000
,208.000000=116.500000
,212.000000=114.500000
,218.000000=116.000000
,224.000000=119.000000
,228.000000=115.000000
,240.000000=117.000000
,251.000000=114.000000
,256.000000=116.000000
,260.000000=117.000000
,268.000000=116.000000
;
#STOPS:
;
#BGCHANGES:;
#KEYSOUNDS:;
#ATTACKS:;

//---------------dance-single - bpgbcg----------------
#NOTES:
     dance-single:
     bpgbcg:
     Beginner:
     5:
     0.212425,0.217081,0.000000,0.020748,0.000000,215.000000,215.000000,0.000000,3.000000,0.000000,0.000000,0.212425,0.217081,0.000000,0.020748,0.000000,215.000000,215.000000,0.000000,3.000000,0.000000,0.000000:
// measure 0
0000
0000
0000
0000
,  // measure 1
1000
0001
1000
0000
,  // measure 2
0010
0010
0010
0000
,  // measure 3
0100
0010
0100
0000
,  // measure 4
0001
0001
0001
0000
,  // measure 5
1000
0001
1000
0000
,  // measure 6
0100
0100
0100
0000
,  // measure 7
1000
0001
1000
0001
,  // measure 8
0100
0100
0100
0000
,  // measure 9
0000
0001
0100
0000
,  // measure 10
0010
0100
0010
0000
,  // measure 11
1000
0001
1000
0100
,  // measure 12
1000
0001
1000
0000
,  // measure 13
0010
0010
0010
0000
,  // measure 14
0100
0001
0100
0000
,  // measure 15
0001
0001
0001
0000
,  // measure 16
1000
0100
1000
0000
,  // measure 17
0000
0000
1000
0001
,  // measure 18
1000
0001
1000
0000
,  // measure 19
0000
0000
0010
0100
,  // measure 20
0010
0100
0010
0000
,  // measure 21
1000
0001
1000
0000
,  // measure 22
0010
0100
0010
0000
,  // measure 23
1000
0100
1000
0100
,  // measure 24
1000
0001
1000
0000
,  // measure 25
0001
0001
0001
0000
,  // measure 26
0010
0010
0010
0000
,  // measure 27
0100
0100
0100
0000
,  // measure 28
1000
1000
1000
0000
,  // measure 29
0001
1000
0001
1000
,  // measure 30
0010
0100
0010
0000
,  // measure 31
1000
0100
1000
0100
,  // measure 32
1000
0001
1000
0000
,  // measure 33
0010
0010
0010
0000
,  // measure 34
0100
0100
0100
0000
,  // measure 35
0001
1000
0001
1000
,  // measure 36
0010
0010
0010
0000
,  // measure 37
0000
1000
0001
1000
,  // measure 38
0100
0100
0100
0000
,  // measure 39
0010
0100
0010
0100
,  // measure 40
1000
1000
0001
0000
,  // measure 41
0100
0001
0100
0000
,  // measure 42
0001
1000
0001
0000
,  // measure 43
0010
0100
0010
0010
,  // measure 44
0100
0100
1000
0000
,  // measure 45
0001
1000
0001
0000
,  // measure 46
0100
0100
0100
0000
,  // measure 47
0001
1000
0001
0000
,  // measure 48
0010
0010
0010
0000
,  // measure 49
0001
0100
0001
0100
,  // measure 50
0010
0100
0010
0100
,  // measure 51
0001
1000
0001
1000
,  // measure 52
0100
0010
0010
0100
,  // measure 53
0000
0000
1000
0100
,  // measure 54
0010
0001
1000
0000
,  // measure 55
0001
0010
0100
1000
,  // measure 56
0001
1000
0001
0000
,  // measure 57
0100
0010
0100
0010
,  // measure 58
1000
1000
0001
0000
,  // measure 59
1000
0001
1000
0010
,  // measure 60
0100
0010
1000
0000
,  // measure 61
0001
0010
0001
0000
,  // measure 62
1000
0100
1000
0000
,  // measure 63
0001
0100
0001
0000
,  // measure 64
1000
0010
1000
0000
,  // measure 65
0001
0001
0001
0000
,  // measure 66
0010
0010
0010
0000
,  // measure 67
0100
0100
0100
0000
,  // measure 68
2000
3000
2000
3000
,  // measure 69
0002
0000
0000
0003
;

//---------------dance-single - bpgbcg----------------
#NOTES:
     dance-single:
     bpgbcg:
     Easy:
     7:
     0.285538,0.313561,0.000000,0.006916,0.000000,289.000000,289.000000,0.000000,1.000000,0.000000,0.000000,0.285538,0.313561,0.000000,0.006916,0.000000,289.000000,289.000000,0.000000,1.000000,0.000000,0.000000:
0000
0000
0000
0000
,
1000
0000
0001
0000
1000
0000
0000
0010
,
0100
0000
0100
0000
0001
0000
0000
1000
,
0001
0000
1000
0000
0001
0000
0000
0010
,
0100
0100
1000
0000
,
1000
0010
1000
0000
,
0100
0010
0001
0000
,
0100
0010
0100
0001
,
1000
0100
0010
0000
,
0000
0001
1000
0000
,
0010
0000
0100
0010
0100
0000
0000
0001
,
1000
0010
0100
0001
,
1000
0100
1000
0000
0001
0000
0000
0001
,
0100
0000
0001
0000
0100
0000
0000
0010
,
1000
0000
1000
0000
0001
0000
0000
1000
,
0100
0000
1000
0000
0100
0000
0000
0010
,
0001
0001
1000
0000
,
1000
0000
0000
0010
0100
0010
0100
0000
,
0001
1000
0100
0000
,
0000
0000
0000
0010
0001
0010
0001
0000
,
0000
1000
0100
0010
,
0100
0000
0000
1000
0001
1000
0001
0000
,
0100
0001
0100
0000
,
0010
1000
0100
0010
,
0001
0000
0010
0000
0000
0100
0000
1000
,
0001
0000
0001
0000
0001
0000
0000
1000
,
0010
0000
0010
0000
0100
0000
0000
0001
,
1000
0000
1000
0000
1000
0000
0000
0001
,
0010
0000
0010
0000
0100
0000
0000
1000
,
0001
0010
0100
1000
,
0010
0000
0100
0000
0010
0000
0000
1000
,
0001
0100
0010
1000
,
0100
0000
0010
0100
0010
0000
0000
0000
,
1000
0000
0010
1000
0010
0000
0000
0000
,
0100
0000
0001
0100
0001
0000
0000
0000
,
1000
0000
0100
0000
0010
0000
0001
0010
,
0001
0001
1000
0000
,
0010
0100
0010
1000
,
0100
0000
0100
0000
0010
0000
0000
0001
,
1000
0001
0100
0001
,
1000
0000
0010
0100
0010
0000
0000
1000
,
0001
0000
0010
0000
0100
0000
0000
1000
,
0001
0000
0100
0000
0001
0000
0000
1000
,
0010
0100
0010
1000
,
0100
0010
0100
0010
0000
0000
0000
0001
,
1000
0001
1000
0001
1000
0001
0000
0100
,
0010
0000
0010
0000
1000
0000
0000
0001
,
1000
0001
1000
0001
1000
0001
0000
0010
,
0100
0100
1000
0000
,
0000
0010
0100
0000
0010
0000
0100
0000
,
0001
1000
0001
1000
0001
0000
1000
0000
,
0100
0010
0100
0010
0100
0000
1000
0000
,
0001
0100
0001
1000
,
0000
0000
0000
0010
0100
0000
0010
0000
,
1000
0000
1000
0000
0001
0000
0000
0010
,
0001
1000
0010
0100
,
0010
0100
0001
0000
,
1000
0100
0010
0100
,
1000
0001
1000
0000
0100
0000
0000
0010
,
0001
1000
0100
0010
,
0001
0100
0001
0000
1000
0000
0000
0001
,
0100
0010
0100
0010
0100
0010
0000
1000
,
0100
0000
0100
0000
0010
0000
0000
0001
,
0010
0100
0010
0100
0010
0100
0000
1000
,
0010
0000
0010
0000
0100
0000
0000
0001
,
1000
0010
1000
0010
1000
0001
0000
0001
,
0100
0000
0100
0000
0100
0000
0000
0001
,
1000
0100
1000
0100
1000
0100
0000
0010
,
0001
0000
0000
0000
0001
1000
0000
0000
,
2000
0000
0000
3000
;

//---------------dance-single - bpgbcg----------------
#NOTES:
     dance-single:
     bpgbcg:
     Medium:
     10:
     0.367544,0.361801,0.000000,0.020748,0.131407,372.000000,372.000000,0.000000,3.000000,0.000000,0.000000,0.367544,0.361801,0.000000,0.020748,0.131407,372.000000,372.000000,0.000000,3.000000,0.000000,0.000000:
0000
0000
0000
0000
0000
0000
0000
0001
,
1000
0010
0100
0010
1000
0001
0000
0001
,
1000
0000
0000
0000
0100
0000
0000
1000
0000
0000
0000
0000
0000
0000
1000
0000
,
0001
0010
0100
0010
0001
1000
0000
1000
,
0001
0000
0000
0000
0100
0000
0000
0001
0000
0000
0000
0000
0000
0000
0000
0000
,
1000
0010
1000
0000
,
0001
0000
0010
0000
0100
0000
0000
1000
0000
0000
0000
0000
0000
0000
0001
0000
,
1000
0001
1000
0010
0100
0010
1000
0100
,
0010
0000
0000
0000
0001
0000
0000
1000
0000
0000
0000
0000
0001
0000
0000
0000
,
0100
0000
0010
0100
0010
0000
0000
0000
,
1000
0000
0000
0001
0000
0010
0000
0000
0100
0000
0000
0000
0000
0000
0000
0000
,
1000
0100
0010
0001
,
0100
0000
0010
0000
0100
0000
0000
0001
0000
0000
0000
0000
0000
0000
1000
0000
,
0001
0100
0010
0100
0001
1000
0000
1000
,
0001
0000
0000
0000
0010
0000
0000
0001
0000
0000
0000
0000
0000
0000
0001
0000
,
1000
0100
0010
0100
1000
0001
0000
0001
,
1000
0000
0000
0000
0010
0000
0000
1000
0000
0000
0000
0000
0000
0000
0000
0000
,
0010
0000
0000
0100
0010
0100
0010
1000
,
0001
0010
0100
0010
0001
1000
0001
0000
,
0100
0000
0000
0010
1000
0100
0010
0100
,
0000
0000
1000
0000
0001
0000
1000
0000
0000
0010
0000
0000
1000
0000
0000
0000
,
0000
0000
0000
0010
0100
0010
1000
0100
,
0010
0001
0010
0100
1000
0000
0000
0001
,
0100
0010
0100
0001
0010
0100
0010
0001
,
1000
0010
1000
0100
0000
1000
0000
0010
,
0100
0001
0100
0010
1000
1000
0000
0001
,
0010
0000
0000
0000
0010
0000
0000
0100
0000
0000
0000
0000
0000
0000
0010
0000
,
0100
1000
0100
0010
0001
0001
0000
1000
,
0010
0000
0000
0000
0010
0000
0000
0100
0000
0000
0000
0000
0000
0000
0001
0000
,
1000
0000
0010
0000
0100
0000
0001
0000
1000
0001
0000
0000
1000
0001
0000
0000
,
1000
0001
0000
0000
0100
0000
0000
0010
0000
0000
0000
0000
0000
0000
1000
0000
,
0001
0010
0100
1000
0010
0100
0010
0100
,
0001
1000
0100
0010
0100
0000
0000
0001
,
1000
0100
0010
0100
1000
0000
0000
1000
,
0001
0000
0000
0000
0100
0000
0000
0001
0000
0000
0000
0000
0000
0000
1000
0000
,
0001
0010
0100
1000
0100
0010
0001
1000
,
0010
0000
0000
0000
0010
0000
0000
0100
0000
0000
0000
0000
0000
0000
0000
0000
,
0000
0000
0001
0000
1000
0000
0000
0000
0001
0000
0000
0100
0000
0000
0000
0000
,
0001
0000
0000
0000
0001
0000
0000
1000
0000
0000
0000
0000
0000
0000
0100
0000
,
0010
0100
1000
0001
,
0100
0010
0100
0010
1000
0000
0000
0100
,
0010
0100
1000
0001
0010
0001
0000
1000
,
0010
0000
0100
0000
0100
0000
0000
0001
0000
0000
0000
0000
0000
0000
0001
0000
,
1000
0001
0010
0100
1000
1000
0010
1000
,
0100
0010
0100
1000
0000
0000
0000
0001
,
0100
0001
0100
0001
1000
1000
0000
0100
,
0010
0000
0000
0000
0010
0000
0000
0100
0000
0000
0000
0000
0000
0000
1000
0000
,
0010
1000
0010
1000
0010
0010
0000
0100
,
0001
0000
0000
0000
0001
0000
0000
1000
0000
0000
0000
0000
0000
0000
0000
0000
,
0000
0000
0001
0000
1000
0000
0000
0000
0100
0000
0000
0010
0000
0000
0100
0000
,
0000
0000
1000
0000
0001
0000
0010
0000
0100
0000
0000
1000
0000
0000
0000
0000
,
0000
0000
0001
0000
0010
0000
0100
0000
0010
0000
0000
0001
0000
0000
0000
0000
,
1000
0000
0010
0000
0100
0000
0010
0000
0100
0000
0000
0001
0000
0000
0000
0000
,
0000
0000
0000
1000
0001
0010
0100
1000
,
0010
0000
0010
0000
0100
0000
0000
0010
0000
0000
0000
0000
0000
0000
1000
0000
,
0001
0000
0000
0000
0100
0000
0000
0000
0001
0000
0000
1000
0000
0000
0010
0000
,
0100
0000
0000
0000
0010
0000
0000
1000
0000
0000
0000
0000
0000
0000
0000
0000
,
0001
0000
0000
0000
0000
0000
0010
0000
0001
0000
0010
0000
0001
0000
0010
0000
0000
0000
0001
0000
0000
1000
0000
0000
,
0100
0000
0010
0000
0010
0000
0000
0100
0000
0000
0000
0000
0000
0000
1000
0000
,
0010
1000
0010
1000
0010
0100
0010
1000
,
0001
0000
0010
0000
0100
0000
0000
1000
0000
0000
0000
0000
0000
0000
0001
0000
,
0010
0100
0010
0001
1000
1000
0000
0001
,
0100
0000
0000
0000
0100
0000
0000
0010
0000
0000
0000
0000
0000
0000
1000
0000
,
0010
0100
0010
1000
0001
0001
0000
1000
,
0100
0000
0000
0000
0100
0000
0000
0010
0000
0000
0000
0000
0000
0000
0001
0000
,
1000
0001
1000
0001
0100
0100
0000
0010
,
1000
0000
0000
0000
1000
0000
0000
0100
0000
0000
0000
0000
0000
0000
1000
0000
,
0001
1000
0001
1000
0100
0100
0000
0010
,
0002
0000
0003
0000
0001
0200
0000
0300
,
0200
0000
0000
0300
;

//---------------dance-single - bpgbcg----------------
#NOTES:
     dance-single:
     bpgbcg:
     Hard:
     12:
     0.433742,0.434162,0.020748,0.228233,0.304311,439.000000,436.000000,3.000000,33.000000,8.000000,0.000000,0.433742,0.434162,0.020748,0.228233,0.304311,439.000000,436.000000,3.000000,33.000000,8.000000,0.000000:
0000
0000
0000
0000
0000
0000
0000
0001
,
1000
0100
0010
0001
1000
2000
0000
0010
,
3001
0000
0000
0000
0001
0100
0000
0001
0000
0000
0000
0000
0000
0000
1000
0000
,
0001
0010
0100
1000
0001
0002
0000
0100
,
1003
0000
0000
0000
1000
0010
0000
1000
0000
0000
0000
0000
0000
0000
0000
0000
,
1000
0000
0001
0010
0100
0000
0000
0000
,
1000
0000
0010
0000
1000
0000
1000
0001
0000
0000
0000
0000
0000
0000
0100
0000
,
0001
0010
0100
1000
0010
0100
0010
1000
,
0001
0000
0000
0000
0001
0010
0000
0001
0000
0000
0000
0000
0000
0000
0000
0000
,
1000
0000
0010
0100
0010
0000
1000
0000
,
0001
0000
0000
0010
0000
0100
0000
0100
0010
0000
0000
0000
0001
0000
1000
0000
,
0010
0100
0010
1000
0010
0001
0010
1000
,
0100
0000
1000
0000
0001
0000
0001
1000
0000
0000
0000
0000
0000
0000
0001
0000
,
1000
0010
0100
0001
1000
2000
0000
0100
,
3001
0000
0000
0000
0001
0010
0000
0001
0000
0000
0000
0000
0000
0000
1000
0000
,
0001
0100
0010
1000
0001
0002
0000
0010
,
1003
0000
0000
0000
1000
0100
0000
1000
0000
0000
0000
0000
0010
0000
0000
0000
,
1000
0000
0000
0001
0010
0100
0010
0001
,
1000
0010
0100
1000
0100
0001
0010
0000
,
0100
0100
1000
0001
0100
0010
0100
0002
,
0000
0000
0000
0000
1000
0000
0003
0000
0000
0000
0000
0000
0100
0000
0000
0000
0000
0000
0010
0000
0000
0000
0000
0000
0000
0000
0000
0001
0000
0000
0000
0000
0000
0000
0000
0000
0010
0000
0000
0000
0000
0000
0000
0000
0000
0000
0000
0000
,
0001
0001
1000
0010
0100
0010
1000
0001
,
1000
0100
0001
0010
1000
0000
0000
0010
,
0100
0000
0010
0000
0001
0000
0010
0000
0100
0000
0100
0001
0000
0000
1000
0000
,
0001
0010
0000
0100
0000
2000
0000
0000
0000
0000
3001
0000
0000
0000
0010
0000
,
0001
0100
0010
1000
0001
0002
0000
1003
,
0010
0000
0000
0000
0010
0001
0000
0010
0000
0000
0000
0000
0000
0000
0100
0000
,
0001
0000
0010
0000
0100
0000
1000
0000
0001
0000
0002
0000
0003
0000
1000
0001
,
0100
0000
0000
0000
0100
1000
0000
0100
0000
0000
0000
0000
0000
0000
0010
0000
,
1000
0000
0001
0000
0010
0000
0100
0000
1000
0001
0000
0000
1000
0100
0000
0000
,
1000
0010
0000
0000
0100
0000
0100
0001
0000
0000
0000
0000
0000
0000
1000
0000
,
0001
0000
0010
0000
0100
0000
1000
0000
0010
0100
0000
0010
0000
0000
1000
0000
,
0001
0000
0010
0001
0000
0100
0000
0001
0000
0000
0000
0000
0000
0000
0001
0000
,
1000
0000
0010
0000
0001
0010
0000
1000
0000
0000
MMMM
0000
0000
0000
0001
0000
,
1000
0100
0000
0000
0001
0000
0100
1000
0000
0000
MMMM
0000
0000
0000
0001
0000
,
1000
0010
0100
1000
0100
0010
1000
0001
,
0010
0000
0000
0000
0010
0100
0000
1000
0000
0000
0000
0000
0001
0000
0000
0000
,
0010
0000
0001
0000
0100
0000
0000
0000
0001
0000
0010
0200
0000
0000
0300
0000
,
2000
0000
3000
0000
1000
0010
0000
2000
0000
0000
0000
0000
3000
0000
0010
0000
,
0002
0000
0000
0000
0023
0000
0000
0000
1030
0000
0000
0100
0000
0000
1000
0000
,
0001
0010
0100
0010
0100
0000
0000
1000
,
0010
0000
0000
0100
0000
0000
1000
0000
0100
0000
0010
0000
1000
0000
0000
0002
0000
0000
0003
0000
0000
0010
0000
0000
,
0100
0000
0001
0000
0001
0000
0100
0010
0000
0000
0000
0000
0000
0001
1000
0000
,
0001
0000
0100
0000
0010
0000
0100
0001
0000
0001
0000
1000
0001
0000
0010
0000
,
0100
1000
0010
2000
0000
3000
0000
0001
,
0100
0010
0100
0001
0100
0200
0000
0301
,
1000
0000
0000
0000
1000
0100
0000
0020
0000
0000
0000
0000
0030
0000
0001
0000
,
0010
0100
0010
0001
0010
0020
0000
0031
,
1000
0000
0000
0000
1000
0010
0000
0200
0000
0000
0300
0000
0001
0000
0000
0000
,
1000
0000
0001
0000
1000
0000
0000
0000
0100
0000
0100
1000
0000
0000
0010
0000
,
0000
0000
0100
0000
0010
0000
1000
0000
0001
0000
0001
0020
0000
0000
0030
0000
,
0000
0000
0001
0000
0010
0000
0100
0000
0010
0000
1000
0010
0000
0100
0000
1000
,
0001
0000
0100
0000
0010
0000
0100
0000
0100
0000
0001
1000
0000
0001
0000
0000
,
0000
0000
0000
0000
0000
0000
1000
0000
0001
0000
0001
0010
0000
0010
0001
0000
,
1000
0000
1000
0000
0010
0000
0000
1000
0000
0000
0000
0000
0000
0000
0100
0000
,
0020
0000
0000
0000
0230
0000
0000
0000
1300
0000
0000
0001
0000
0000
0100
0000
,
0010
0000
0000
0000
0100
0000
0001
1000
0000
0000
0000
0000
0000
0000
0000
0000
,
0001
0000
0000
1000
0000
0000
0000
0000
0000
0000
0000
0000
0100
0000
0000
0000
0010
0000
0000
0000
0100
0000
0000
0000
0010
0000
0000
0000
0100
0000
0000
0000
0000
0000
0000
0000
1000
0000
0000
0000
0000
0000
0001
0000
0000
0000
0000
0000
,
0100
0000
0010
0000
0010
0000
1000
0010
0000
0000
0000
0000
0000
0000
0100
0000
,
0001
0010
0100
1000
0010
0001
0010
1000
,
0001
0000
0100
0000
0010
0000
0010
1000
0000
0000
0000
0000
0000
0000
0001
0000
,
0100
1000
0100
0001
0100
0200
0000
0301
,
1000
0000
0000
0000
1000
0100
0000
0010
0000
0000
0000
0000
0000
0000
0001
0000
,
0010
1000
0010
0001
0010
0020
0000
0031
,
1000
0000
0000
0000
1000
0010
0000
0100
0000
0000
0000
0000
0000
0000
0001
0000
,
1000
0100
1000
0100
0010
0001
0010
0001
1000
0000
2000
0000
0000
0000
3001
0000
,
0100
0000
0000
0000
0010
0100
0000
0020
0000
0000
0000
0000
0030
0000
1000
0000
,
0001
0100
0001
0100
0010
1000
0010
1000
0001
0000
0002
0000
0000
0000
1003
0000
,
0202
0000
0303
0000
0102
2000
0000
3003
,
2002
0000
0000
3003
;

//---------------dance-single - bpgbcg----------------
#NOTES:
     dance-single:
     bpgbcg:
     Challenge:
     14:
     0.606646,0.603002,0.041497,0.380389,0.705448,614.000000,608.000000,6.000000,55.000000,8.000000,0.000000,0.606646,0.603002,0.041497,0.380389,0.705448,614.000000,608.000000,6.000000,55.000000,8.000000,0.000000:
0000
0000
0000
0000
0000
0000
0000
0000
0000
0000
0000
0000
0000
0000
1000
0001
,
1000
0100
0010
0001
1000
0100
0010
0001
1000
0000
2000
0000
0000
0000
3001
0000
,
0100
0000
0000
0000
0100
0010
0000
2000
0010
0000
0010
0000
3001
0000
0001
1000
,
0001
0010
0100
1000
0001
0010
0100
1000
0001
0000
0002
0000
0000
0000
1003
0000
,
0010
0000
0000
0000
0010
0100
0000
0002
1000
0000
1003
0000
0010
0000
0000
0000
,
1000
0000
1000
0000
0001
0100
0010
0000
0100
0000
0100
0000
0010
0000
0000
0000
,
1000
0000
0001
0000
0100
0000
0100
0020
1000
0000
1030
0000
0001
0000
0100
0000
,
0010
0000
0010
1000
0010
0100
0010
1000
0001
0010
0100
0010
0001
0100
0010
1000
,
0001
0000
0000
0000
0001
1000
0000
0200
1000
0000
1300
0000
0001
0000
1000
0000
,
0010
0000
0000
1000
0001
0000
0001
1000
0200
0000
0010
0000
0310
0000
0000
1000
,
0010
0100
0001
1000
0000
0001
0000
0001
0010
0000
0001
0000
1000
0000
0100
0000
,
0010
0001
1000
0010
0001
0010
0100
0001
,
1000
0100
1000
0000
0001
0000
0001
0020
0001
0000
0031
0000
0100
0000
0001
1000
,
0001
0100
0010
1000
0001
0100
0010
1000
0001
0000
0002
0000
0000
0000
1003
0000
,
0100
0000
0000
0000
0100
0010
0000
0002
1000
0000
1003
0000
1000
0001
1000
0001
,
1000
0010
0100
0001
1000
0010
0100
0001
1000
0000
2000
0000
0000
0000
3001
0000
,
0010
0000
0000
0000
0010
0100
0000
2000
0001
0000
3001
0000
0100
0000
0000
0000
,
0010
0000
0010
0000
0100
0000
0001
0010
0001
0100
0010
0000
0001
0000
0010
1000
,
0001
0000
1000
0000
0100
0000
0010
0100
0010
0000
0012
0000
1000
0000
0003
0000
,
1000
0000
1000
0000
0010
1000
0010
1000
0010
0100
1000
0100
0001
0000
0020
0000
,
0030
0000
0000
0000
0100
0000
0000
0000
0000
0000
0000
0000
1000
0000
0000
0000
0000
0000
0100
0000
0000
0000
0000
0000
0000
0000
0000
0001
0000
0000
0000
0000
0000
0000
0000
0000
0100
0000
0000
0000
0000
0000
0000
0000
0000
0000
0000
0000
,
1000
0000
0000
0000
1000
0000
0000
0000
0001
0000
0010
0000
0100
0000
0000
0000
0001
0000
0000
0100
0000
1000
0000
0100
0000
0000
0000
0000
1000
0000
0000
0000
,
0001
0000
0100
0001
0010
0001
0100
0020
0100
0000
0001
0000
0031
0000
1000
0100
,
0010
0100
1000
0010
0100
0000
0001
0000
1000
0000
1000
0100
0000
0000
1000
0000
,
0001
0100
0000
0010
0000
2000
0000
0000
3000
0000
0100
0000
0000
0000
0010
0001
,
1000
0100
0010
0001
1000
0100
0010
0001
1000
0000
2000
0000
3000
0000
0001
0000
,
0100
0000
0000
0000
0100
1000
0000
0200
0010
0000
0310
0000
1000
0000
0001
1000
,
0001
0010
0100
1000
0001
0010
0100
1000
0001
0000
0002
0000
0003
0000
0010
0001
,
0100
0000
0000
0000
0100
1000
0000
0200
0001
0000
0001
0000
0310
0000
1000
0000
,
0001
0000
0100
0000
0010
0000
1000
0000
0100
1000
0000
0000
0001
1000
0000
0000
,
0010
1000
0000
0000
0100
0000
0100
0020
0001
0000
0031
0000
0100
0000
0001
1000
,
0001
0000
0010
0000
0100
0000
1000
0000
0010
0100
0000
1000
0000
0100
0000
0010
,
1000
0000
0100
0010
0000
0100
0000
2000
0001
0000
3001
0000
0100
0000
0001
0000
,
1000
0000
0010
0000
0001
0010
0000
1000
0000
0000
MMMM
0000
0000
0000
0001
0000
,
1000
0100
0000
0000
0001
0000
0100
1000
0000
0000
MMMM
0000
0000
0000
0001
0000
,
0010
0000
0001
0000
0100
0000
0010
1000
0100
0010
0001
0000
1000
0000
0001
0000
,
0100
0000
0000
0000
0100
0010
0000
0200
0010
0000
0310
0000
0100
0000
1000
0000
,
0100
0000
0001
0000
1000
0000
0000
0000
0001
0000
0010
0200
0000
0000
0300
0000
,
2000
0000
3000
0000
1000
0100
0000
2000
0000
0000
0000
0000
3000
0000
0001
0010
,
0002
0000
0000
0003
0200
0000
0000
0300
0010
1000
0000
0010
0000
0100
0001
0010
,
0000
0100
0000
1000
0100
0010
0000
0200
0000
0000
0000
0000
0300
0000
1000
0001
,
1000
0000
0000
0010
0000
0000
0100
0000
0010
0000
1000
0000
0001
0000
0200
0000
0000
0000
0300
0000
0000
0001
0000
0000
,
1000
0000
0000
0000
0000
0000
0100
0000
0000
0000
0000
0000
0100
0000
0000
0000
0000
0000
1000
0000
0000
0020
0000
0000
0000
0000
0000
0030
0000
0000
0000
0000
0000
0000
0000
0000
0000
0000
0000
0000
0100
0000
0001
0000
0000
0000
0000
0000
,
1000
0000
0001
0000
0010
0000
0100
1000
0000
1000
0000
0001
0100
0000
0010
0000
,
0100
0000
0001
0000
0010
0000
0200
0000
1000
0000
1300
0000
0001
0000
1000
0001
,
0100
0010
0100
1000
0100
0010
0100
1000
0100
0000
0200
0000
0000
0000
0301
0000
,
0010
0000
0000
0000
0010
0100
0000
2000
0010
0000
3010
0000
1000
0000
0001
1000
,
0100
0010
1000
0010
0100
0010
1000
0010
0100
0000
0100
0000
0000
0000
1000
0000
,
0100
0000
0000
0000
0100
0010
0000
0002
0100
0000
0103
0000
0010
0000
0100
0000
,
0001
0000
0011
0000
2200
0000
3300
0000
0001
0000
0001
0100
0000
0000
0001
0000
,
0000
0000
1000
0000
0001
0100
0010
0100
0001
0000
0001
1000
0000
0000
0000
0000
,
0000
0000
1000
0000
0100
0000
1000
0000
0010
0100
1000
0100
0000
0010
0000
1000
,
0001
0000
0010
0000
0001
0000
1000
0000
1000
0000
0001
0100
0000
0001
0000
0000
,
1000
0000
1000
0000
0100
0000
1000
0000
0001
0000
0010
1000
0000
0010
0001
0000
,
1000
0000
1000
0000
0010
0100
0000
0020
0000
0000
0030
0000
0000
0100
0001
0000
,
0020
0000
0030
0000
0100
0000
0000
1000
0001
0100
0000
0010
0000
0000
0100
0000
,
0001
0100
0000
0000
0001
0000
0001
2000
0000
0000
3000
0000
0000
0000
0000
0000
,
0100
0000
0000
0010
0000
0000
0000
0000
0000
0000
0000
0000
0100
0000
0000
0000
1000
0000
0000
0000
0100
0000
0000
0000
0001
0000
0000
0000
0100
0000
0000
0000
0000
0000
0000
0000
1000
0000
0000
0000
0000
0000
0001
0000
0000
0000
0000
0000
,
1000
0000
1000
0000
0010
1000
0100
0020
0000
0000
0030
0000
0000
0000
0001
0010
,
0001
0000
1000
0000
1000
0000
0001
0100
0001
0000
1000
0000
0001
0010
0100
1000
,
0001
0000
0100
0000
0010
0000
0010
0200
0000
0000
0300
0000
0000
0000
0001
1000
,
0001
0010
0100
1000
0001
0010
0100
1000
0001
0000
0002
0000
0000
0000
1003
0000
,
0010
0000
0000
0000
0010
0100
0000
0020
1000
0000
1030
0000
0010
0000
1000
0001
,
1000
0100
0010
0001
1000
0100
0010
0001
1000
0000
2000
0000
0000
0000
3001
0000
,
0100
0000
0000
0000
0100
0010
0000
0200
0001
0000
0001
0000
0310
0100
0010
0100
,
0001
0100
1000
0100
0001
0100
1000
0100
0001
0000
0002
0000
0000
0000
1003
0000
,
0100
0000
0000
0000
0100
0010
0000
0002
1000
0000
1000
0000
0013
0000
1000
0001
,
1000
0100
0001
0100
1000
0100
0001
0100
1000
0000
2000
0000
0000
0000
3001
0000
,
0022
0000
0033
0000
0012
2000
0000
3003
,
0220
0000
0000
0330
;
