#TITLE:Hopeful Frontier!!!;
#SUBTITLE:;
#ARTIST:cosMo@暴走P;
#TITLETRANSLIT:;
#SUBTITLETRANSLIT:;
#ARTISTTRANSLIT:;
#GENRE:;
#CREDIT:;
#MUSIC:Hopeful Frontier!!!.ogg;
#BANNER:Hopeful Frontier!!!-bn.png;
#BACKGROUND:Hopeful Frontier!!!-bg.png;
#CDTITLE:;
#SAMPLESTART:0.000;
#SAMPLELENGTH:0.000;
#SELECTABLE:YES;
#OFFSET:-0.028;
#BPMS:0.000=149.000
,10.000=298.000
,66.000=149.000
,70.000=298.000
,245.000=149.000
,253.000=298.000
,281.000=149.000
,283.000=298.000
,347.000=149.000
,351.000=298.000
,415.000=149.000
,423.000=74.500
,427.000=149.000
,431.000=298.000
;
#STOPS:198.000=0.201
,526.500=0.403
,528.500=0.403
;
#JACKET:Hopeful Frontier!!!-jacket.png;
#BGCHANGES:;
#FGCHANGES:;

//--------------- dance-single - ----------------
#NOTES:
     dance-single:
     :
     Beginner:
     4:
     0,0,0,0,0:
0000
0000
0000
0000
,
0000
0000
0002
0000
,
1003
0000
0001
0000
,
0000
0000
1000
0000
,
0000
0000
0020
0000
,
0000
0030
0000
0000
,
0100
0000
0100
0000
,
0000
0000
0001
0000
,
0000
0000
0000
1000
,
0000
0000
0100
0000
,
0000
0000
0010
0000
,
0000
0000
0100
0000
,
0000
0000
2000
0000
,
0000
3000
0000
0001
,
0000
0000
0100
0000
,
0000
0000
0010
0000
,
0000
0000
0100
0000
,
0002
0003
1000
0000
,
0000
0000
0100
0000
,
0000
0000
0010
0000
,
0000
0000
0100
0000
,
0000
0000
0010
0000
,
0000
0000
0001
0000
,
0000
0000
1000
0000
,
0000
1000
0000
0000
,
1000
0000
0010
0000
,
0000
0000
0100
0000
,
0000
0000
0010
0000
,
0000
0000
1000
0000
,
0000
0000
0001
0000
,
0000
0000
0001
0000
,
0000
0000
1000
0000
,
0000
1001
0000
0000
,
0000
0000
0001
0000
,
0000
0000
0100
0000
,
0000
0000
0010
0000
,
0000
0000
0010
0000
,
0000
0000
0100
0000
,
0000
0000
0100
0000
,
0000
0000
0010
0000
,
0000
0020
0000
0030
,
0000
0000
0100
0000
,
0000
0000
0001
0000
,
0000
0000
0010
0000
,
0000
0000
0100
0000
,
0000
0000
0010
0000
,
0000
0000
0010
0000
,
0000
0000
0100
0000
,
0000
0000
2000
0000
,
0000
3000
0000
0000
,
1001
0000
0000
0000
,
0000
0001
0000
0000
,
0000
1000
0000
0000
,
0000
0010
0000
0000
,
0000
0010
0000
0000
,
0000
0100
0000
0000
,
0000
0100
0000
0000
,
0000
0010
0000
0000
,
0000
1000
0000
0000
,
0000
0001
0000
0000
,
0000
0001
0000
0000
,
0000
0010
0000
0100
,
0000
0010
0000
0100
,
0000
1000
0000
0000
,
0000
1000
0000
0000
,
0000
1000
0000
0000
,
0000
1000
0000
0000
,
0000
0002
0000
0003
,
0000
2000
0000
3000
,
0000
0200
0000
0300
,
0000
0010
0000
0100
,
0000
0000
0000
0010
,
0000
0000
0000
0001
,
0000
0000
0000
1000
,
0000
0000
0000
0010
,
0000
0000
0000
0100
,
0000
0000
0000
0020
,
0000
0000
0030
2000
,
0000
0000
3000
0001
,
0000
0000
0000
0010
,
0000
0000
0000
0100
,
0000
0000
0000
0010
,
0000
0000
0000
0001
,
0000
0000
0000
1000
,
0000
0000
0000
0020
,
0000
0000
0000
0000
,
0000
0000
0000
0030
,
0000
0000
0000
0100
,
0000
0000
0000
0010
,
0000
0000
0000
1000
,
0000
0000
0000
0001
,
0000
0000
0000
0010
,
0000
0000
0000
0100
,
0000
0000
0000
0010
,
0000
0000
0000
0001
,
0000
0000
0000
1000
,
0000
0000
0000
0010
,
0000
0000
0000
0100
,
0000
0000
0000
0010
,
0000
0000
0000
2000
,
0000
0000
3000
0200
,
0000
0000
0300
0020
,
0000
0000
0030
0002
,
0000
0000
0003
1000
,
1000
1000
1000
1000
,
0000
0010
0010
0010
,
0000
0000
0200
0000
0000
0300
0001
0000
,
0000
0010
0000
0001
,
0000
0000
0000
1000
,
0000
0000
0000
0010
,
0000
0000
0000
0100
,
0000
0000
0000
0010
,
0000
0000
0000
0010
,
0000
0000
0000
0100
,
0000
0000
0000
0001
,
0000
0000
0000
0010
,
0000
0000
0000
0100
,
0000
0000
0000
0010
,
0000
0000
0000
0010
,
0000
0000
0000
0010
,
0000
0000
0000
0010
,
0000
0000
0000
0002
,
0000
0000
0003
2000
,
0000
0000
3000
0020
,
0000
0000
0030
0200
,
0000
0300
0000
0010
,
0000
0000
0000
1000
,
0000
0000
0000
0100
,
0000
0000
0000
0010
,
0000
0000
0000
0200
,
0000
0000
0300
0000
,
2000
0000
0000
0000
0000
3000
0002
0000
,
0003
2000
3000
0000
;

//--------------- dance-single - Highflyer ----------------
#NOTES:
     dance-single:
     Highflyer:
     Easy:
     12:
     0,0,0,0,0:
0000
0000
0000
0000
,
0000
0000
2000
0000
,
3001
0000
0000
0000
1000
0000
0000
1000
,
0000
0000
0000
0000
0010
0000
0000
0010
,
0000
0000
0200
0000
,
0000
0300
0000
0010
0000
0000
1000
0000
,
0001
0000
1000
0000
0100
0000
0000
0100
,
0000
0000
0000
0000
0010
0000
0000
0010
,
0000
0000
0001
1000
,
0000
0010
0000
0000
0100
0000
0000
0001
,
0000
0001
0000
0000
0010
0000
0000
0010
,
0000
0000
0000
0000
0100
0000
0000
0100
,
0000
0000
2000
0000
,
0000
0000
3000
0010
0000
0000
0100
0000
,
0000
1001
0000
0000
0001
0000
0000
0001
,
0000
0000
0000
0000
0010
0000
0000
0010
,
0000
0000
0000
0000
0100
1000
0100
1000
,
0002
0203
0320
0000
,
1030
0000
0000
0001
0000
0000
0010
0000
,
0100
0000
0010
0000
0001
0000
0000
1000
,
0000
0010
0000
0200
0000
0000
0300
0020
,
0000
0030
1001
0000
,
1000
0000
0000
0100
0000
0000
0010
0000
,
0001
0000
0010
0000
0011
0000
0000
1010
,
0000
0000
1100
0000
0000
0101
0000
0000
,
0002
0000
2003
0000
3010
0000
0000
0200
,
0000
0000
0000
0310
0000
0000
0100
0000
,
0001
0000
0010
0000
0100
0000
0000
1000
,
0000
0001
0000
0200
0000
0000
0300
0000
,
0020
0000
0000
0000
1030
0000
0000
1000
,
0000
0000
1000
0000
0001
0000
0000
0001
,
0000
0000
0001
0000
0010
0000
0000
0010
,
0000
0020
0000
0030
,
1001
0000
0000
0000
1000
0000
0000
0010
,
0000
0000
0100
0000
0010
0000
0000
1000
,
0000
0000
0100
0000
0020
0000
0000
0031
,
0000
1000
0000
0010
0000
0000
0100
0000
,
0010
0000
1000
0000
0001
0000
0000
0001
,
0000
0000
0001
0000
0010
0000
0000
0010
,
0000
0010
0100
1000
,
0010
0000
0100
0000
0000
0002
0000
0000
,
0000
0000
0013
0200
,
0000
0000
0000
2300
0000
0000
3020
0000
,
0000
0000
0130
0001
,
0010
0000
0100
0000
1000
0000
0000
0002
,
0000
0000
0103
0000
,
0010
0000
0000
1000
0000
0000
0100
0000
,
0010
0100
2000
3020
,
0230
0302
0023
0230
,
2300
3020
0230
0310
,
1001
0000
0001
0000
0000
1000
0000
0000
,
0010
0000
0100
0000
0000
0001
0000
0010
,
0000
0100
0000
0000
1000
0000
0010
0000
,
0200
0310
0000
1000
,
0000
0001
0000
0000
0010
0000
0000
0100
,
0000
0000
1000
0000
0000
0001
0000
0000
,
0100
0000
0000
0010
0000
0000
0100
0000
,
0000
1001
0000
1000
,
0000
0200
0000
0000
0310
0000
0001
0000
,
1000
0010
0100
0010
,
0100
0000
0001
0000
0000
1001
0000
0000
,
0000
1000
0100
0010
,
0001
0100
0020
1030
,
0200
0310
0001
1000
,
0010
0100
0010
1000
,
0001
0010
0001
1000
,
0010
0200
0000
0302
,
0000
0023
0230
0320
,
0032
2003
3020
0230
,
0320
2030
3002
0023
,
0230
0000
1300
0001
1000
0001
0100
0000
,
0000
0000
0100
0000
0000
0020
0000
0000
,
0000
0130
0000
0010
,
2000
0000
0000
0000
3000
0001
0000
0000
,
0000
0010
0000
0100
0000
0000
0010
0000
,
0000
0001
0000
1000
0000
0001
0000
0000
,
0000
0010
0000
0200
,
0000
2300
0000
3020
,
0000
0230
0000
0301
,
0000
0001
0000
0000
0000
1000
0000
0000
,
0000
0100
0000
0010
0000
0100
0000
1000
,
0000
0010
0100
0001
,
0000
2000
0000
0000
0000
0000
3001
0000
,
0010
0100
1000
0010
,
0000
0010
0000
0100
0000
0000
0000
0001
,
0000
0010
0100
1000
,
0000
0002
0000
0000
0000
0000
0203
0000
,
0000
0000
0320
0130
,
0000
0000
0001
0000
0000
0020
0000
0000
,
0000
0030
0100
2000
,
3002
0203
0302
2003
,
3200
0320
0032
1003
,
0000
1000
0000
0000
0010
0000
0000
0010
,
0000
0100
0001
0010
,
0000
0100
0000
0010
0000
0001
0000
0100
,
0000
0020
0000
0000
0000
0000
0230
0000
,
0000
0302
0000
0013
,
0100
0010
0001
2000
,
0000
0000
0000
0000
3000
0010
0000
0000
,
0100
0001
1000
0100
,
0020
0000
0130
2000
,
0000
3001
0100
0020
,
0000
0000
0130
0002
,
0000
0013
0100
1000
,
0010
0100
0001
0010
,
0100
1000
0010
0200
,
0000
0302
2003
3100
,
0000
0000
0010
0000
0000
0001
0100
0000
,
0000
0010
0000
0100
0000
0001
0000
0000
,
1000
0100
0010
0001
,
0000
0001
0000
0000
1000
0000
0000
1000
,
0000
0010
0100
0001
,
0010
0100
2000
0000
,
3001
0100
0010
0100
,
0000
0000
0001
0000
0000
0010
0000
0000
,
0100
1000
0001
0100
,
0010
0100
0010
1000
,
0000
0002
0000
0000
0000
0000
1003
0000
,
0100
0001
0100
1000
,
0010
0001
0010
1000
,
0100
0001
1000
0010
,
0001
1000
0100
0002
,
0203
2300
3020
0230
,
0302
0023
0230
2300
,
3020
0230
0302
0023
,
0230
2300
0000
3001
,
0000
0100
0000
0000
0010
0000
0000
0100
,
0000
0001
0010
0100
,
0000
1000
0000
0000
0000
0001
0000
0000
,
0100
0000
0010
0000
0100
0000
0020
0030
,
2000
3000
0200
0300
0020
0000
0000
0000
,
0031
0000
1000
0000
0000
0010
0100
0000
,
0000
1001
0020
0000
0000
0130
0000
0000
;

//--------------- dance-single - Highflyer ----------------
#NOTES:
     dance-single:
     Highflyer:
     Medium:
     15:
     0,0,0,0,0:
0000
0000
0000
0000
,
0000
0000
0000
0000
1000
0010
0100
0001
,
0020
0000
0130
0000
1000
0000
0001
0100
,
0000
0000
0001
0000
1000
0000
0100
0010
,
0000
0100
0020
0000
,
0031
1000
0000
0010
0000
0100
0001
0000
,
1000
0000
0001
0000
0010
0000
0100
1000
,
0000
0000
0001
0000
0100
0000
0010
1000
,
0000
0010
0100
0001
,
0010
0100
0000
0000
0010
0000
0001
1000
,
0000
0010
0000
0100
0001
0000
0010
0100
,
0000
0000
0010
0000
0001
0000
1000
0010
,
0000
0000
0100
0000
0010
1000
0010
0000
,
0100
0000
0001
0010
0000
0100
0010
0000
,
0001
0100
0000
0000
0010
0000
0100
0001
,
0000
0000
1000
0000
0100
0000
0010
0100
,
0000
0000
1000
0000
0001
0100
0001
1000
,
0100
0010
1001
0000
0001
0000
0100
0000
,
0010
1000
0000
0100
0000
0000
0010
0000
,
0100
0000
1000
0000
0001
0000
0100
0010
,
0000
0100
0000
0002
0000
0000
0000
2003
,
0000
0000
3001
0010
,
0100
0010
0000
0001
0000
0000
1000
0000
,
0010
0000
0100
0000
0001
0010
0000
0001
,
1000
0000
0001
0100
0000
0001
1000
0000
,
0100
0010
0200
1300
,
0001
0100
0000
0010
0000
0000
0100
0000
,
0001
0000
1000
0000
0100
0000
0010
0100
,
0000
0010
0000
0002
0000
0000
0000
0000
,
0203
0000
0000
0000
0310
1000
0000
0010
,
1000
0000
0001
0010
0000
0001
0010
0000
,
0100
1000
0100
0000
0010
0000
0000
0001
,
0000
0200
0000
0000
,
0310
0000
1000
0000
0001
0000
0010
0100
,
0000
0000
0010
0000
0001
0000
1000
0010
,
0000
0000
0100
0000
0010
1000
0000
0001
,
0000
0010
0000
0100
0000
0000
0010
0000
,
0001
0000
1000
0000
0010
0000
1000
0100
,
0000
1000
0001
0000
1000
0010
0000
1000
,
0001
0010
0100
1000
,
0010
0000
0200
0000
0000
0310
1000
0000
,
0001
0010
0001
0000
0100
0000
0010
1000
,
0010
0000
0100
0001
0000
1000
0100
0000
,
0010
0001
1000
0010
,
0100
0000
0010
0000
1000
0001
0000
2002
,
0000
3003
0002
0000
,
1003
0010
0000
0100
0000
0000
0010
0000
,
0100
0000
0001
0000
0010
0100
0010
0000
,
0001
0000
1000
0000
0010
0100
0010
0000
,
1000
0001
1000
0000
0200
0000
0310
0001
,
1000
0000
0010
0000
0100
0001
0000
0100
,
0001
0000
1000
0000
0100
0010
0000
0100
,
0000
2000
0000
0000
3001
0000
0100
0000
,
0010
0000
0100
0001
0000
1000
0100
0000
,
0010
0001
0000
1000
0010
0000
0100
0001
,
0000
1000
0100
1000
0000
0001
0000
0100
,
0010
0100
0000
0001
0000
0010
0100
0010
,
0000
0001
1000
0000
0010
0000
0100
0001
,
0000
0100
0010
0000
1000
0100
1000
0000
,
0001
0100
0010
0100
,
0010
0000
1000
0001
0000
2002
0000
0000
,
0000
3003
1000
0000
0100
0000
1000
0000
,
0001
0000
0100
0000
0010
1000
0001
0000
,
2000
0000
3001
0000
1000
0010
0000
1000
,
0001
0000
1000
0100
0000
0010
0001
0000
,
1000
0010
0000
0100
0001
0000
1000
0100
,
0000
1000
0010
1000
0000
0001
0100
0001
,
0000
1000
0100
0010
0100
0010
0100
0000
,
0010
0000
0001
1000
0001
1000
0001
0000
,
0100
0000
0010
1000
0010
1000
0010
0000
,
1000
0000
0001
0010
0100
1000
0001
0000
,
0100
0000
0010
0100
0000
0010
0000
1000
,
0001
0000
1000
0100
0000
0010
0000
0000
,
0100
0000
1000
0000
0001
1000
0000
0010
,
0000
0100
0000
0001
0000
0000
0010
0100
,
0010
0000
0000
0001
0000
1000
0000
0010
,
0000
0100
0001
0000
1000
0000
0100
0000
,
0000
0010
0000
0001
0000
0000
0000
1000
0000
0010
0000
0000
,
0000
0000
0100
0000
0000
0000
0001
0000
0000
0000
0000
0000
0010
0000
0000
0000
0000
0000
0100
0000
0000
1000
0000
0000
,
0000
0010
0000
0000
0100
0001
0100
0000
,
0010
1000
0000
0001
0000
0010
0000
0200
,
0000
0300
0010
0000
0001
0000
1000
0010
,
0000
1000
0001
1000
0000
0100
0010
0100
,
0010
0000
0001
1000
0001
1000
0001
0100
,
0000
0100
0000
0100
0010
1000
0000
0100
,
0000
0000
0010
0000
0001
0000
1000
0010
,
0000
0100
0001
0100
0001
0000
1000
0000
,
0000
0000
0002
0013
,
0100
0000
0010
0100
0000
2000
0000
0000
,
0000
0000
3000
0001
0100
0000
0010
0000
,
1000
0001
0010
0000
0100
0000
1000
0001
,
0100
0000
0020
0000
0130
0000
0001
0010
,
0000
0001
0100
0000
0010
1000
0000
0010
,
0100
0000
0001
1000
0001
0000
0010
0000
,
0100
1000
0000
0001
0000
0100
0000
0010
,
0000
2000
0000
0000
0000
0000
3200
0000
,
0000
0320
0000
0230
,
2300
3002
0203
0310
,
1000
0001
1000
0000
0100
0010
0000
0100
,
1000
0001
0100
0010
,
1000
0010
0100
0000
0001
0000
1000
0100
,
0010
0001
1000
0001
,
0010
0100
1000
0000
0001
0000
0100
0010
,
1000
0001
0010
0200
,
2300
3002
0203
0320
,
0230
0302
2003
3200
,
0000
0000
0000
0000
0320
0000
0000
0000
0000
0000
0000
0000
0031
0000
0000
1000
,
0000
0000
0000
0000
0001
0000
0000
0100
0000
0000
0110
0000
0001
0000
0000
0000
,
1000
0100
0000
0010
0000
0200
0000
0000
,
1300
0001
0100
0001
,
0010
0100
0000
0010
0001
0000
1000
0010
,
0000
1000
0100
0000
0010
0000
0002
0000
,
2003
0000
3002
0000
2003
0000
0000
3010
,
0100
0000
0001
0010
0001
0000
0200
0000
,
0310
0000
1000
0001
0000
1000
0000
0100
,
0010
0000
0001
0100
0001
0000
1000
0000
,
0010
0000
0100
0000
0010
0000
1000
0001
,
0000
0020
0000
0000
0130
0000
1000
0010
,
1000
0000
0001
0000
0010
0000
0100
1000
,
0100
0000
0010
0000
0001
0000
1000
0010
,
1000
0000
0001
0000
0100
0000
0010
1000
,
0001
0000
0010
0001
1000
0000
0001
1000
,
0001
1000
0001
1000
0001
1000
0001
1000
,
0001
1000
0001
1000
0001
1000
0001
1000
,
0001
1000
0001
1000
0001
1000
0001
1000
,
0001
1000
0002
0000
0000
0000
1003
0000
,
0010
0100
0000
0010
0100
0000
0001
0010
,
0000
0100
0010
0000
0001
0000
1000
0010
,
1000
0000
0001
0000
0010
0100
0000
0010
,
0001
1000
0010
0200
,
0302
0000
2003
0000
3200
0000
0300
0010
,
0001
0000
1000
0001
1000
0001
1000
0010
,
1000
0010
0100
0001
0100
0001
0000
0000
;

//--------------- dance-single - Highflyer ----------------
#NOTES:
     dance-single:
     Highflyer:
     Hard:
     17:
     0,0,0,0,0:
0000
0000
0000
0000
,
0000
0000
0000
0000
0000
0000
0000
0000
1000
0010
1000
0000
0001
0000
0010
0000
,
0200
0000
0310
0000
0001
0000
1000
0100
,
0000
1000
0100
0000
0010
0000
0001
0100
,
0000
0001
0100
0000
0010
1000
0001
0010
,
0100
0010
0000
1001
0000
0001
0100
0000
,
1000
0000
0100
0000
0001
0000
0010
0100
,
0000
0010
0100
0000
0010
0000
0001
1000
,
0000
0001
1000
0000
0010
0000
0100
0001
,
0100
0010
0000
0100
0001
0010
0000
0100
,
0000
0001
0000
0100
1000
0000
0001
0100
,
0000
0010
0100
0000
0010
0000
1000
0100
,
0000
1000
0100
0000
0010
0001
1000
0001
,
0100
0010
1000
0001
0000
1000
0001
0010
,
0001
0100
0000
0010
1000
0000
0100
1000
,
0000
0001
0100
0000
0010
0000
0100
0001
,
0000
0100
0010
0000
1000
0001
0010
0100
,
1000
0001
0100
0001
0020
0000
0000
0000
0130
0000
0000
0000
1000
0000
0001
0000
,
0100
0001
1000
0200
0000
0000
0310
0000
,
0001
0000
0100
0000
0010
0000
0100
0001
,
0000
0010
0000
2000
0000
0000
0000
3010
,
0000
0100
1000
0001
0200
0000
0310
1000
,
0001
0010
0001
0100
0000
0000
0001
0000
,
0100
0000
1000
0000
0100
0001
0000
1000
,
0100
0000
0001
0100
0000
1000
0010
0000
,
0100
0000
1000
0000
0200
0000
0310
1000
,
0001
0010
0000
0200
0000
0000
1300
0000
,
0001
0000
0010
0000
0001
0000
1000
0100
,
0000
0001
0000
0200
0000
0000
0000
0000
,
0320
0000
0000
0000
0031
0100
0001
0100
,
0010
1000
0001
0010
0100
1000
0100
1000
,
0001
0100
0010
1000
0001
0000
0010
0100
,
0000
0010
0002
0000
0000
0000
0003
0000
,
1000
0100
0010
0001
0100
0000
0010
0100
,
0000
0010
0100
0000
0001
0000
1000
0100
,
0000
1000
0100
0000
0010
0001
0100
0010
,
0000
0100
0000
1001
0000
0000
1000
0000
,
0010
0000
0001
0000
0010
0100
0001
1000
,
0001
0010
0100
0010
0001
1000
0010
0100
,
0001
0100
0010
1000
0100
0000
0010
0000
,
1000
0000
0020
0000
0000
0130
1000
0001
,
1000
0010
0100
0010
2000
0000
3100
0010
,
0100
1000
0001
0200
0000
0310
1000
0001
,
1000
0100
0010
0100
1000
0000
0010
0000
,
0001
0000
0010
0000
0100
0010
0000
2002
,
0000
3003
2000
0000
,
3010
0100
0010
1000
0000
0001
1000
0000
,
0010
0000
0001
0000
0010
0100
0001
1000
,
0100
1000
0001
0100
0010
1000
0001
0010
,
0100
1000
0100
0010
0002
0003
0100
0001
,
0010
0000
0100
0000
1000
0001
0000
1000
,
0001
0000
0100
0010
1000
0001
0000
0010
,
0000
2000
0000
0000
3010
0000
0100
0000
,
1000
0000
0010
0100
0001
1000
0001
0010
,
0100
1000
0010
0100
0001
0010
0100
1000
,
0001
1000
0100
1000
0001
0010
0001
1000
,
0010
1000
0001
0010
0001
1000
0010
0100
,
0001
1000
0010
0000
0100
0001
1000
0001
,
0010
0200
0000
0310
0001
1000
0001
0100
,
0010
1000
0100
0000
0010
0000
1000
0000
,
0010
0000
0001
1000
0000
1001
0000
0000
,
0001
0100
0010
0000
1000
0000
0001
0000
,
0010
0000
0000
0100
0000
0000
1000
0001
0100
0010
0000
0000
,
0200
0000
0301
1000
0001
0010
0001
1000
,
0100
1000
0001
0100
0010
0100
0001
1000
,
0001
0100
0010
1000
0001
1000
0100
0010
,
0001
1000
0010
0100
0010
0100
0001
1000
,
0001
1000
0100
0010
0001
0100
0010
1000
,
0100
0010
0001
0100
0001
0010
0100
1000
,
0001
0010
0001
0100
0010
1000
0001
0010
,
0100
1000
0010
0100
0001
0010
1001
0000
,
0001
0000
0100
0010
0000
0100
0001
0010
,
0100
1000
0010
0100
0000
0010
0000
0000
,
0100
0001
1000
0100
0010
0001
1000
0010
,
0000
0100
0000
1000
0000
0000
0100
0010
,
1000
0001
0000
0010
0000
1000
0000
0010
,
0000
0000
0000
0100
0000
0000
1000
0000
0000
0001
0000
0000
0100
0000
0000
0010
0000
0000
1000
0000
0000
0000
0100
0000
,
0000
1000
0000
0001
0000
0100
0000
0001
0000
1000
0000
0010
,
0000
0000
1000
0000
0000
0000
0001
0000
0000
0010
0000
0000
0001
0000
0000
1000
0000
0000
0010
0000
0000
0100
0000
0000
,
0000
0001
0000
0010
0001
0100
0010
1000
,
0000
0100
0000
0001
0000
0100
0000
0010
,
0000
0000
0001
0000
1000
0000
0010
0100
,
0000
0001
1000
0100
0010
0001
1000
0010
,
1000
0010
0100
0001
0100
0001
1000
0100
,
0000
0100
0000
0100
0010
0001
0000
1000
,
0000
0000
0001
0000
0100
0000
1000
0100
,
0000
0010
1000
0001
0010
0100
2000
0000
,
0000
0000
3002
0103
,
0010
1000
0001
0010
0001
0200
0000
0000
,
0000
0000
0300
0010
0100
0001
1000
0100
,
0010
0001
0010
0100
1000
0001
1000
0010
,
0100
0001
0100
0010
1000
0100
0010
0001
,
1000
0001
0100
0010
0100
0001
1000
0100
,
0010
0100
1000
0001
1000
0010
0100
0000
,
0001
0010
0000
0100
0000
1000
0000
0010
,
0000
0002
0000
0000
0003
0000
0020
0000
,
0000
0230
0000
0302
,
2003
0000
3200
0000
0320
0000
0031
0100
,
0001
1000
0001
0010
0100
1000
0000
0100
,
0010
0001
1000
0001
0100
0010
1000
0001
,
0010
0001
0100
0010
1000
0001
1000
0100
,
1000
0010
0100
0001
1000
0100
1000
0001
,
0100
0001
0010
0100
1000
0001
0100
0001
,
0010
0001
1000
0010
0100
0001
2000
0000
,
3200
0320
0230
2300
,
3002
0203
0320
2030
,
0000
0000
0000
0000
3002
0000
0000
0000
2000
0000
0000
3003
0001
0000
0000
1000
,
0000
0000
0010
0000
0100
0000
0000
0001
0010
0001
0100
0000
0010
0000
1000
0000
,
0001
1000
0000
0100
0000
0002
0000
0000
,
0103
0000
0010
0000
0001
0000
1000
0010
,
1000
0001
0010
0100
1000
0001
0100
0001
,
1000
0100
1000
0001
0100
0010
1000
0000
,
0010
0000
0001
0000
0020
0000
0000
0130
,
0001
1000
0001
0010
0100
1000
0002
0000
,
1003
0010
0100
0010
1000
0002
0000
0013
,
0100
0010
0001
1000
0100
0010
0001
0000
,
0100
0000
1000
0000
0100
0000
0010
0100
,
0000
0002
0000
0000
1003
0100
1000
0001
,
1000
0001
0100
0010
0100
0010
1000
0100
,
1000
0100
0010
0001
0010
0001
1000
0010
,
1000
0010
0100
0001
0100
0001
0010
0100
,
1000
0001
1000
0100
0010
0001
1000
0010
,
0100
0001
0010
0100
1000
0010
0100
0001
,
0010
0001
0100
0010
1000
0001
0010
0001
,
1000
0010
1000
0100
0010
0001
0100
0010
,
0100
0001
0020
0000
0000
0000
0130
0000
,
1000
0010
0000
0100
0010
0000
1000
0100
,
0000
0010
1000
0000
0010
0000
0100
1000
,
0001
0100
0010
0100
0001
1000
0000
0000
,
0001
0100
1000
0200
,
0302
0000
0023
0000
0230
0000
0000
0310
,
0001
1000
0010
0100
0001
0010
0100
1000
,
0100
1000
0001
0100
0001
0100
0000
0000
;

//--------------- dance-single - Highflyer ----------------
#NOTES:
     dance-single:
     Highflyer:
     Challenge:
     19:
     0,0,0,0,0:
0000
0000
0000
0000
,
0000
0000
0000
0000
0000
0000
0000
0000
1000
0010
1000
0001
0010
0100
1000
0001
,
0200
0000
0310
0000
1000
0000
0001
0100
,
0000
0010
1000
0000
0001
0000
1000
0100
,
0000
0000
0000
0010
0000
0000
0001
0000
0000
0000
0000
0000
1000
0000
0001
0000
1000
0000
0001
0000
1000
0000
0001
0000
,
1000
0010
0000
0100
0000
0010
1000
0100
,
0001
0100
1000
0001
0010
0000
0100
0010
,
0000
0100
0010
0000
0001
0000
0100
0010
,
0000
0100
0010
0000
1000
0000
0010
0100
,
0001
0010
0000
0000
0100
1000
0000
1010
,
0000
1001
0000
0011
1000
0000
0001
0100
,
0000
0001
1000
0000
0100
0000
0010
0001
,
0000
0000
0000
0010
0000
0000
0100
0000
0000
0000
0000
0000
1000
0000
0100
0000
1000
0000
0001
0000
1000
0000
0010
0000
,
0100
0001
0100
1000
0000
0100
0001
1000
,
0100
0001
0000
0100
1000
0000
0010
0100
,
0001
1000
0100
0010
0001
0000
1000
0010
,
0100
0000
0001
0000
1000
0000
0100
0000
0010
0000
0001
0000
1000
0000
0000
0001
0000
0000
0100
0000
0000
0010
0000
0000
,
1000
0100
1000
0001
0100
0010
0200
0000
0000
0000
0000
0000
0310
0000
0000
0000
0000
0000
1000
0000
0000
0001
0000
0000
,
1000
0010
0100
2000
0000
0000
3100
0000
,
0001
0000
0010
0000
0100
0000
1000
1001
,
0000
0101
0000
0210
0000
0000
0301
2000
,
0000
0000
0000
3001
0020
0000
0031
1000
,
0001
0010
0100
0002
0000
0000
0103
0000
,
2000
3000
0010
0000
0100
0101
0000
1000
,
1100
0000
0001
0011
0000
1000
1010
0000
,
0010
0000
0000
0100
0000
0000
0001
0000
0000
0010
0000
0000
0100
0000
0000
0000
0000
0000
1000
0000
0001
0000
1000
0000
,
0010
0100
0000
2000
0000
0000
3100
0000
,
0001
0000
0010
0000
1001
0000
1000
0100
,
0000
1000
0000
0002
0000
0000
0000
1003
,
0100
0000
1000
0000
0001
0000
1000
0000
0010
0000
0100
0000
0001
0000
0000
1000
0000
0000
0100
0000
0000
0001
0000
0000
,
0100
0010
0001
1000
0010
0100
1000
0100
,
0001
1000
0100
0010
0011
0000
0000
1001
,
0000
2020
0000
3030
,
1000
0010
0100
0001
0010
0000
0100
1000
,
0000
0100
1000
0000
0001
0000
0100
0010
,
0000
0100
0010
0000
0100
0001
0010
0100
,
0000
1000
0000
1001
0000
0000
0001
0000
,
0100
0000
0010
0000
1000
0100
0001
1000
,
0010
0001
1000
0010
0100
0001
0100
1000
,
0001
0010
1000
0001
1001
0000
0011
0000
,
0110
0000
2100
0000
0000
3001
0100
0010
,
0100
0001
0010
0100
2000
0000
3010
0100
,
0001
1000
0100
2000
0000
3001
0100
0010
,
0100
1000
0100
0001
2000
0000
3200
0000
,
0320
0000
0031
0000
1000
0010
0000
2001
,
0000
0000
0000
3001
0100
0001
0200
0000
0000
0000
0000
0000
,
0310
1000
0001
0011
0000
0010
0001
0000
,
1000
0000
0010
0000
1000
0100
0010
0001
,
1000
0100
0001
0100
1000
0001
0100
0010
,
1000
0010
0001
0010
2000
0000
3001
0100
,
0110
0000
1000
0000
0001
0100
0000
0001
,
0100
0000
0010
1000
0100
0010
0000
0001
,
0000
0201
0000
0000
0310
0000
1000
0000
,
0100
0000
0010
0001
1000
0010
0100
1000
,
0100
0001
1000
0100
0010
1000
0010
0100
,
1000
0001
0100
0010
0001
0010
0100
0001
,
1000
0100
0010
1000
0010
0100
1000
0001
,
0100
0010
2000
0000
3010
0100
0010
1000
,
0001
0010
0000
0100
0010
0001
1000
0010
,
0100
0001
1000
0001
0000
0000
0011
0000
0000
0110
0000
0000
,
1100
0000
1000
0010
0000
2002
0000
0000
,
3003
0000
0000
1000
0010
0100
0001
0000
0000
1000
0100
0010
,
0001
0000
1000
0010
0000
0000
1000
0100
1000
0001
0000
0000
,
0100
0000
0010
0000
1000
0000
0001
0000
0000
0010
0000
0000
0001
0000
0000
1000
0000
0000
0001
0000
0000
0100
0000
0000
,
0010
1000
0001
0010
0100
0010
0001
1000
,
0001
0010
0100
1000
0001
1000
0010
0100
,
0001
0000
0000
1000
0000
0000
0010
0000
0100
0000
0010
0000
0100
0000
0000
0001
0000
0000
1000
0000
0100
0000
1000
0000
,
0100
0000
0000
0010
0000
0000
0001
0000
1000
0000
0001
0000
0100
0000
0010
0000
0100
0000
0001
0000
1000
0000
0100
0000
,
0010
0001
1000
0001
1000
0010
0100
0001
1000
0100
1000
0001
,
0100
0010
1000
0001
0010
0100
1000
0001
1000
0010
0100
0010
,
1000
0000
0001
0000
0010
0000
0100
0000
0000
1000
0000
0000
0001
0000
0000
0100
0000
0000
0010
0000
0000
0000
0000
0000
,
1000
0100
1000
0010
0100
0001
1000
0001
,
0100
0010
0100
1000
0000
0100
0000
0000
,
0001
0000
0000
1000
0000
0000
0100
0000
0010
0000
0001
0000
1000
0000
0000
0001
0000
0000
0100
0000
0000
0010
0000
0000
,
0000
0100
0001
0010
0100
1000
0001
0100
,
0010
1000
0000
0001
0000
0011
0000
0010
,
0000
0000
0000
0100
0000
0000
1000
0000
0000
0001
0000
0000
1000
0000
0000
0010
0000
0000
1000
0000
0000
0000
0010
0000
,
0000
0100
0000
0001
0000
0010
0000
1000
0000
0010
0000
0100
,
0000
0000
1000
0000
0000
0000
0001
0000
0000
1000
0000
0000
0010
0000
0000
0100
0000
0000
0001
0000
0000
0010
0000
0000
,
0000
0110
0000
0100
1000
0001
0100
0010
,
1000
0100
0000
0010
0000
0001
0000
0100
,
0000
0000
0010
0000
0100
0000
0001
0010
,
0000
0100
1000
0001
0100
0010
1000
0100
,
0010
1000
0010
0001
1000
0010
1000
0100
,
0010
1000
0000
1000
0010
0001
1000
0010
,
0000
0000
0100
0000
0100
0000
0010
1000
,
0001
0010
0100
1000
0001
0100
0020
0000
,
0000
0000
0230
0301
,
1000
0100
1000
0001
0100
0010
2000
0000
,
0000
0000
0000
0000
0000
0000
0000
0000
0000
3010
0000
0000
0100
0000
0000
0001
0000
0000
0010
0000
0100
0000
1000
0000
,
0001
0000
1000
0000
0010
0000
0100
0000
0000
0010
0000
0000
1000
0000
0001
0000
1000
0000
0010
0000
0100
0000
0001
0000
,
1000
0000
0000
0001
0000
0000
0010
0000
0100
0000
1000
0000
0100
0000
0010
0000
0001
0000
1000
0000
0000
0010
0000
0000
,
0100
1000
0100
0001
1000
0100
0010
1000
,
0010
0100
1000
0001
0100
0010
1000
0000
,
0001
0010
0000
0100
0000
0011
0000
1001
,
0000
0201
0000
0000
0000
0000
0320
0000
,
0000
2030
0000
3002
,
0023
0000
0230
0000
2300
0000
3001
0100
,
0010
1000
0001
0100
1000
0200
0000
0310
,
1000
0000
0000
0100
0000
0000
0010
0000
0001
0000
1000
0000
0001
0000
0000
0100
0000
0000
0010
0000
0000
1000
0000
0000
,
0001
0000
0010
0000
0001
0000
1000
0000
0000
0010
0000
0000
0100
0000
0000
0001
0000
0000
1000
0000
0100
0000
1000
0000
,
0001
0010
0001
1000
0010
0100
0010
1000
,
0100
0000
0010
0000
0100
0000
1000
0000
0000
0001
0000
0000
0100
0000
0000
0010
0000
0000
1000
0000
0001
0000
0100
0000
,
0010
1000
0001
0010
0100
1000
0002
0000
,
0010
1000
0100
2003
,
0010
0001
0100
3002
,
0000
0000
0000
0000
2003
0000
0000
0000
3040
0000
0000
0000
0130
0000
0000
0001
,
0000
0000
0000
0000
0000
0000
1000
0000
0000
0000
0000
0000
0001
0000
0000
0000
0000
0000
0000
0000
0000
0010
0000
0000
0100
0000
1000
0000
0001
0000
0100
0000
0000
0000
0000
0000
0010
0000
0000
0000
0000
0000
0100
0000
0000
0000
0000
0000
,
0001
1000
0000
0100
0000
0110
0000
0000
,
0010
0000
0001
0000
1000
0000
0001
0010
,
0100
0001
0100
1000
0001
0010
0001
1000
,
0010
0100
1000
0100
0001
0000
0011
0000
,
1001
0000
0101
0000
0120
0000
0000
0130
,
0001
1000
0100
0010
0100
1000
0001
0000
,
1000
0000
0010
0000
1000
0000
0010
0000
0000
0100
0000
0000
0001
0000
0000
0020
0000
0000
0000
0000
0000
0130
0000
0000
,
1000
0001
0100
0010
1000
0000
1010
0000
,
0110
0000
0101
0000
1001
0000
1000
0100
,
0000
0120
0000
0000
0130
1000
0001
0100
,
0010
0100
0001
1000
0010
0100
0001
1000
,
0100
0010
0100
1000
0001
0010
0100
0010
,
0001
1000
0010
0100
0010
1000
0001
0010
,
0100
0000
0000
1000
0000
0000
0100
0000
0000
0010
0000
0000
0001
0000
0000
1000
0000
0000
0010
0000
0100
0000
0001
0000
,
1000
0100
1000
0001
0100
0010
0100
0001
1000
0100
1000
0001
,
0010
0001
1000
0010
0100
0010
1000
0001
0010
0100
1000
0001
,
1000
0010
0100
0001
1000
0100
0010
0100
1000
0001
0100
0010
,
1000
0001
0010
0200
0000
0000
0000
0000
0000
1300
0000
0000
,
0001
0100
0000
0010
0001
0000
0010
1000
,
0000
0100
0001
0000
0100
0000
1000
0001
,
0100
0010
1000
0001
0010
0100
0000
0010
,
0001
0000
0000
1000
0010
1000
0001
0010
0001
2000
0000
0000
,
3020
0000
0230
0000
0302
0000
0003
1000
,
0100
0010
0100
1000
0001
1000
0001
0100
,
0010
1000
0001
0010
0100
1000
0000
0000
;
