#TITLE:Hop Step Adventure☆;
#SUBTITLE:;
#ARTIST:ああああ茶漬け;
#TITLETRANSLIT:;
#SUBTITLETRANSLIT:;
#ARTISTTRANSLIT:;
#GENRE:HAPPY CHIPTUNE;
#CREDIT:;
#BANNER:Hop Step Adventure.png;
#BACKGROUND:Hop Step Adventure-bg.png;
#LYRICSPATH:;
#CDTITLE:;
#MUSIC:Hop Step Adventure.ogg;
#OFFSET:-0.060480;
#SAMPLESTART:66.383049;
#SAMPLELENGTH:14.820000;
#SELECTABLE:YES;
#DISPLAYBPM:180.000000;
#BPMS:0.000000=180.000000
,108.000000=359.998993
,112.000000=180.000000
;
#STOPS:108.250000=0.167000,
109.250000=0.167000,
110.250000=0.167000,
111.250000=0.167000
;
#BGCHANGES:;
#KEYSOUNDS:;
#ATTACKS:;

//---------------dance-single - ----------------
#NOTES:
     dance-single:
     :
     Hard:
     17:
     0.861491,1.231900,0.189223,0.904977,0.761004,733.000000,710.000000,23.000000,110.000000,2.000000,0.000000,0.861491,1.231900,0.189223,0.904977,0.761004,733.000000,710.000000,23.000000,110.000000,2.000000,0.000000:
0000
0000
0000
0000
,
0000
0000
0000
0000
,
0000
0000
0000
0000
,
0000
0000
0000
0000
,
0102
1000
0010
1000
,
0100
1003
0001
1000
,
2100
0001
0010
0001
,
0100
0000
3001
0000
1000
0001
1001
0000
,
0001
0000
0000
0000
0000
0000
0000
0000
0100
0000
0000
0000
0000
0000
0000
0000
0010
0000
0000
0000
0000
0000
0000
0000
0100
0000
0000
0000
0000
0000
0000
0000
0001
0000
0000
0000
0000
0000
0000
0000
1000
0000
0000
0000
0100
0000
0000
0000
0020
0030
0000
0000
0000
0000
0000
0000
0000
0000
0000
0000
0000
0000
0000
0000
,
0002
0000
1003
0100
1000
0000
0001
0000
1000
0000
0010
0000
0100
0000
0001
0000
,
1000
0000
0000
0000
0000
0000
0000
0000
0100
0000
0000
0000
0000
0000
0000
0000
0010
0000
0000
0000
0000
0000
0000
0000
0100
0000
0000
0000
0000
0000
0000
0000
1000
0000
0000
0000
0000
0000
0000
0000
0001
0000
0000
0000
0100
0000
0000
0000
0020
0030
0000
0000
0000
0000
0000
0000
0000
0000
0000
0000
0000
0000
0000
0000
,
2000
0000
3001
0100
0001
0000
1000
0000
0001
0000
0010
0000
1000
0000
0010
0000
,
0001
0000
0000
0000
0000
0000
0000
0000
0100
0000
0000
0000
0000
0000
0000
0000
0010
0000
0000
0000
0000
0000
0000
0000
0100
0000
0000
0000
0000
0000
0000
0000
0001
0000
0000
0000
0000
0000
0000
0000
1000
0000
0000
0000
0100
0000
0000
0000
0020
0030
0000
0000
0000
0000
0000
0000
0000
0000
0000
0000
0000
0000
0000
0000
,
0002
0000
1003
0100
1000
0000
0001
0000
0101
0000
0000
0000
1010
0000
0000
0000
,
2000
0000
3010
0001
0010
0000
1000
0000
0002
0000
0013
0100
1000
0000
0001
0000
,
0100
0000
0100
0000
0020
0000
1030
0001
0010
0000
0010
0000
0100
1000
0100
1000
,
0001
0000
0000
0000
0000
0000
0000
0000
0100
0000
0000
0000
0000
0000
0000
0000
0010
0000
0000
0000
0000
0000
0000
0000
0100
0000
0000
0000
0000
0000
0000
0000
1000
0000
0000
0000
0000
0000
0000
0000
0100
0000
0000
0000
0001
0000
0000
0000
2000
3000
0000
0000
0000
0000
0000
0000
0000
0000
0000
0000
0000
0000
0000
0000
,
0002
0000
0013
1000
0010
0000
0001
0000
1000
0000
0010
0000
0100
0000
0001
0000
,
1000
0000
0000
0000
0000
0000
0000
0000
0010
0000
0000
0000
0000
0000
0000
0000
0100
0000
0000
0000
0000
0000
0000
0000
0010
0000
0000
0000
0000
0000
0000
0000
0001
0000
0000
0000
0000
0000
0000
0000
0010
0000
0000
0000
1000
0000
0000
0000
0002
0003
0000
0000
0000
0000
0000
0000
0000
0000
0000
0000
0000
0000
0000
0000
,
2000
0000
3100
0001
0100
0000
1000
0000
0001
0000
0100
0000
1000
0000
0100
0000
,
0001
0000
0000
0000
0000
0000
0000
0000
0010
0000
0000
0000
0000
0000
0000
0000
0100
0000
0000
0000
0000
0000
0000
0000
0010
0000
0000
0000
0000
0000
0000
0000
1000
0000
0000
0000
0000
0000
0000
0000
0010
0000
0000
0000
0001
0000
0000
0000
2000
3000
0000
0000
0000
0000
0000
0000
0000
0000
0000
0000
0000
0000
0000
0000
,
0002
0000
0103
1000
0100
0000
0001
0000
0011
0000
0000
0000
1100
0000
0000
0000
,
2000
0000
3001
0100
0010
0000
1000
0000
0002
0000
0013
0100
1000
0000
0001
0000
,
1000
0000
0001
1000
0010
0000
1000
0001
0010
0100
1000
0001
0010
0000
0000
0000
,
2100
0000
0000
0000
3001
0000
1000
0001
2000
0000
0000
3020
0000
0000
0230
0000
,
2300
0000
3100
0001
0020
0000
0130
0000
,
0012
2003
3020
0130
,
0202
0303
0000
0000
0000
0000
0000
0000
0000
0000
0000
0000
0000
0000
0000
0000
2020
3030
0000
0000
0000
0000
0000
0000
0000
0000
0000
0000
0000
0000
0000
0000
0022
0033
0000
0000
0000
0000
0000
0000
0000
0000
0000
0000
0000
0000
0000
0000
2200
3300
0000
0000
0000
0000
0000
0000
0000
0000
0000
0000
0000
0000
0000
0000
,
2001
0000
3001
0000
0100
0000
0001
0000
1000
0100
0000
0100
0010
0000
0100
0000
,
2000
0000
3001
0000
0010
0000
0001
0000
1000
0010
0000
0010
0100
0000
0001
0000
,
2000
0000
3001
0010
0100
0000
1000
0000
0002
0000
1003
0010
0100
0000
0001
0000
,
1000
0100
1000
0000
0001
0100
0001
0000
1000
0100
0010
0001
1000
0010
0100
0001
,
2000
3000
0010
0010
0001
0001
0020
0000
,
0130
0001
0100
0001
1000
0000
0100
0000
0001
0000
0100
0000
2000
0000
0000
0000
,
3002
0003
0100
0100
1000
1000
0200
0000
,
0310
0010
0010
0010
1010
0000
0101
0000
,
0002
0003
0010
0010
1000
1000
0020
0000
,
0130
1000
0100
1000
0001
0000
0100
0000
1000
0000
0100
0000
0002
0000
0000
0000
,
2003
3000
0100
0100
0001
0001
0200
0000
,
0310
0000
0010
0000
0010
0000
0010
0000
0011
0000
0000
1100
0000
0000
1001
0000
,
1000
0000
0010
0000
0100
0000
0001
0000
1000
0000
0001
1000
0010
0000
0010
1000
,
0002
0000
0000
0000
0003
0010
0100
0010
0100
0000
0100
1000
0000
1000
0001
0000
,
1000
0001
0100
0000
0010
0100
0000
0010
0000
0100
0001
0000
1000
0000
0001
0000
,
1000
0100
0010
0000
0100
0010
0000
0100
1000
0000
0010
0000
0001
0000
0010
0000
,
0100
0000
0010
0100
0000
0000
0001
0100
0001
1000
0100
1000
0001
1000
0002
0000
,
1003
0000
0000
0000
0100
0000
0000
0000
0010
0000
0000
0000
0001
0000
0000
0010
0000
0000
0100
0000
0000
1000
0000
0000
0001
0000
0000
0000
0000
0000
0100
0000
0000
0001
0000
0000
1000
0000
0000
0000
0000
0000
0010
0000
0000
1000
0000
0000
,
0010
1000
0000
1000
0000
0100
0020
0000
0000
0130
2000
0000
0000
3001
1000
0001
,
0100
0010
0000
1000
0000
0010
0100
0001
2000
0000
0000
0000
0002
0000
3003
0000
,
2002
0000
0000
0000
3003
0000
0000
0000
0M00
00M0
0000
0000
0000
0000
0000
0000
,
0001
1000
0000
0001
0000
1000
0000
0001
0100
0000
0100
0000
0001
0010
0100
1000
,
0001
0000
0100
0000
0010
0000
0100
0000
2000
0000
0000
0000
3100
0000
0001
1000
,
0001
0000
0001
0010
0000
0010
0100
0000
2000
0000
0000
0000
3001
0100
0010
1000
,
0002
0000
0000
0000
0013
0000
1000
0010
2000
0000
0000
0000
3020
0000
0000
0000
,
0031
0000
0100
0010
0000
0100
0001
0000
2000
0000
0000
0000
3200
0000
0000
0000
,
0302
0000
0000
0000
0103
0000
1000
0100
2000
0000
0000
0000
3001
0000
1000
0010
,
0100
0000
0001
0100
0010
0000
1000
0000
0002
0000
0000
0000
0023
0000
0000
0000
,
0230
0000
0310
0000
0001
0010
0001
0000
0100
0001
0100
0000
0010
0100
0010
0000
,
1000
0010
2000
0000
0000
0000
3001
0010
0100
0010
0100
1000
0100
1000
0001
1000
,
0001
0000
0100
0000
1000
0100
1000
0000
0200
0000
0000
0000
0310
0000
1000
0001
,
1000
0000
0100
0010
0000
0100
1000
0000
0002
0000
0000
0000
1003
0010
0100
0001
,
1000
0000
0100
0010
0000
0100
0001
0100
0020
0000
0000
0000
0130
0000
1000
0000
,
0001
0000
0100
0010
0000
0100
1000
0000
0100
0000
0001
0010
0100
1000
0100
0010
,
0002
0000
0003
1000
0010
1000
0010
0000
0200
0000
0301
0010
0100
1000
0001
1000
,
0200
0310
0002
1003
0002
0000
0203
0000
,
0320
0000
0130
0000
0001
0100
0010
0000
1000
0010
0100
0000
0001
0010
0100
0000
,
1000
0001
1000
0000
0010
1000
0100
0010
0001
0100
0010
1000
0001
0010
0001
1000
,
0002
0000
0000
0000
0013
0000
1000
0010
2000
0000
0000
0000
3010
0001
0010
0001
,
0020
0030
0000
0000
0200
0300
0000
0000
2000
3000
0000
0000
0002
0003
0000
0000
2000
0000
0000
0000
0000
0000
0000
0000
3020
0000
0000
0000
0000
0000
0000
0000
,
0032
0000
0000
0000
0013
0000
0100
0001
2000
0000
0000
0000
3200
0000
0000
0000
,
0310
0000
0010
0100
0000
0100
1000
0000
0001
0000
0100
0000
0010
0000
1000
0000
,
0002
0000
0010
0000
1003
0001
1000
0001
2000
0000
0100
0000
3001
1000
0001
1000
,
0002
0000
0010
0000
0103
0001
0100
0001
2000
0000
0010
0000
3100
1000
0100
1000
,
0001
0100
0010
1000
0001
0100
0010
1000
0001
0100
0010
1000
0001
0100
0010
1000
,
0001
0010
0100
1000
0001
0010
0100
1000
0001
0100
0010
1000
0001
1000
0100
0010
,
0002
0000
0000
0000
,
0000
0000
0000
0000
0000
0000
2003
3000
,
0000
0000
0000
0000
,
0000
0000
0000
0000
0001
1000
1001
0000
,
0001
0000
0000
0000
0100
0000
0000
0000
1000
0000
0000
0000
0100
0000
0000
0000
0010
0000
0000
0000
1000
0000
0001
0000
0200
0300
0000
0000
0000
0000
0000
0000
,
0002
0000
0013
1000
0010
0000
0100
0000
1000
0000
0010
0000
0100
0000
0001
0000
,
1000
0000
0000
0000
0010
0000
0000
0000
0001
0000
0000
0000
0010
0000
0000
0000
0100
0000
0000
0000
0001
0000
1000
0000
0020
0030
0000
0000
0000
0000
0000
0000
,
2000
0000
3100
0001
0100
0000
0010
0000
0001
0000
0100
0000
1000
0000
0100
0000
,
0001
0000
0000
0000
0010
0000
0000
0000
1000
0000
0000
0000
0010
0000
0000
0000
0100
0000
0000
0000
1000
0000
0001
0000
0020
0030
0000
0000
0000
0000
0000
0000
,
0002
0000
0103
1000
0100
0000
0010
0000
1010
0000
0000
0000
0001
0100
0001
0100
,
0010
0000
1000
0100
1000
0100
0010
0100
0010
0000
0001
1000
0020
0000
0130
0001
,
0010
0000
0100
1000
0010
0000
0100
0001
1000
0100
0010
0001
1000
0000
0000
0000
,
0002
0000
1003
0100
1000
0000
0001
0100
0001
0000
1000
0000
0001
0000
0000
0000
,
0020
0000
0031
1000
0020
0000
0130
0001
1000
0001
1000
0001
1000
0000
0000
0000
,
2002
0000
0000
0000
,
0000
0000
0000
0000
,
0000
0000
0000
3003
;

//---------------dance-single - ----------------
#NOTES:
     dance-single:
     :
     Medium:
     13:
     0.635835,0.858597,0.139860,0.567668,0.143974,541.000000,524.000000,17.000000,69.000000,2.000000,0.000000,0.635835,0.858597,0.139860,0.567668,0.143974,541.000000,524.000000,17.000000,69.000000,2.000000,0.000000:
0000
0000
0000
0000
,
0000
0000
0000
0000
,
0000
0000
0000
0000
,
0000
0000
0000
0000
,
1002
0010
0100
0010
,
1000
0013
0001
1000
,
2001
0010
0100
0010
,
0001
0000
3010
0000
1000
0001
0100
0000
,
0001
0000
0000
0000
0010
0000
0000
0000
0100
0000
0000
0000
1000
0000
0000
0000
0100
0000
0000
0000
0010
0000
0000
0000
0002
0003
0000
0000
0000
0000
0000
0000
,
1000
0010
0100
0001
1000
0100
1000
0001
,
1000
0000
0000
0000
0010
0000
0000
0000
0100
0000
0000
0000
0001
0000
0000
0000
0100
0000
0000
0000
0010
0000
0000
0000
2000
3000
0000
0000
0000
0000
0000
0000
,
0001
0010
0100
1000
0001
0100
0001
1000
,
0001
0000
0000
0000
0100
0000
0000
0000
0010
0000
0000
0000
1000
0000
0000
0000
0010
0000
0000
0000
0100
0000
0000
0000
0002
0003
0000
0000
0000
0000
0000
0000
,
1000
0100
0010
0001
0011
0000
1001
0000
,
0001
0100
0100
0001
1000
0100
0100
1000
,
0001
0001
0010
0001
1000
1000
0010
1000
,
0001
0000
0000
0000
0010
0000
0000
0000
0100
0000
0000
0000
1000
0000
0000
0000
0001
0000
0000
0000
1000
0000
0000
0000
0020
0030
0000
0000
0000
0000
0000
0000
,
1000
0100
0010
0001
1000
0010
0001
0010
,
1000
0000
0000
0000
0010
0000
0000
0000
0100
0000
0000
0000
0001
0000
0000
0000
1000
0000
0000
0000
0001
0000
0000
0000
0020
0030
0000
0000
0000
0000
0000
0000
,
0001
0100
0010
1000
0001
0100
1000
0100
,
0001
0000
0000
0000
0010
0000
0000
0000
0100
0000
0000
0000
1000
0000
0000
0000
0001
0000
0000
0000
1000
0000
0000
0000
0020
0030
0000
0000
0000
0000
0000
0000
,
1000
0100
0010
0001
0101
0000
1001
0000
,
0001
0010
0010
0001
1000
0100
0100
1000
,
0001
0100
1000
0100
0001
1000
0001
0000
,
2100
0000
0000
0000
3001
0000
0000
0000
1000
0000
0000
0100
0000
0000
0010
0000
,
0002
0100
2003
0100
,
3001
0100
1000
0100
,
0110
1001
0110
1001
,
2100
0000
0000
0000
3001
0000
0000
0000
1000
0000
0000
0100
0000
0000
0010
0000
,
0002
0000
0103
0100
2000
0000
3100
0000
,
0020
0000
0000
0000
0130
0000
0000
0000
0001
0000
0000
0010
0000
0000
0100
0000
,
2000
3020
0032
0023
,
0230
0000
0301
0000
1000
1000
0001
0000
,
1000
0100
0010
0001
1000
1000
0001
0000
,
0020
0000
1030
0000
0010
0010
0001
0000
,
0100
0100
0100
0100
0010
0000
1001
0000
,
0200
0000
1300
0000
0001
0001
1000
0000
,
0001
0100
0010
1000
0001
0001
1000
0000
,
0020
0000
0031
0000
0010
0010
1000
0000
,
0100
0000
0100
0000
0100
0000
0100
0000
0010
0000
0000
0010
0000
0000
0010
0000
,
0001
0100
0010
0100
0001
0010
0100
0010
,
0002
0000
0000
0000
1003
0000
0000
0000
0001
0000
0000
0100
0000
0000
0010
0000
,
1000
0000
0001
0000
0100
0000
0000
0001
0000
0000
1000
0000
0100
0000
0010
0000
,
0002
0000
0100
0000
0000
1000
0000
0000
0013
0000
0001
0000
0100
0000
0001
0000
,
1000
0000
0000
1000
0000
0000
0100
0000
0010
0000
0000
0001
0000
0000
1000
0000
,
0001
0000
0000
0000
0001
0000
1000
0000
0000
0000
1000
0000
0001
0000
0000
0100
0000
0000
0010
0000
0000
1000
0000
0000
,
0001
0000
0000
0010
0000
0000
2000
0000
0000
0000
3020
0000
0000
0000
0031
0000
,
1000
0000
0000
0010
0000
0000
0001
0000
0010
0000
1000
0000
0001
0000
0100
0000
,
0020
0000
0000
0000
0030
0000
0000
0000
M000
000M
0000
0000
0000
0000
0000
0000
,
1000
0000
0000
0001
0000
1000
0000
0001
0100
0000
0100
0000
0001
0000
1000
0000
,
0001
0010
1000
0010
0002
0000
1003
0000
,
0001
0000
0000
0100
0000
0000
0010
0000
2000
0000
0000
0000
3001
0000
1000
0000
,
0002
0000
0013
0010
0200
0000
0302
0000
,
0103
0000
0000
1000
0000
0000
0001
0000
2000
0000
0000
0000
3020
0000
0000
0000
,
0230
0000
0301
0001
0200
0000
1300
0100
,
0010
1000
0010
0100
0002
0000
0023
0000
,
0230
1300
0001
0010
0100
1000
0001
1000
,
0010
0020
0000
0031
0010
1000
0001
0100
,
0001
0010
1000
0010
0002
0000
1003
0000
,
0001
0000
0000
0100
0000
0000
0010
0000
0200
0000
0000
0000
0301
0000
1000
0000
,
0001
0000
0000
0010
0000
0000
0100
0000
0002
0000
0000
0000
0103
0000
1000
0000
,
0001
0000
0000
0100
0000
0000
0010
0000
0100
0000
1000
0000
0100
0000
0001
0000
,
1000
0000
0000
1000
0100
0000
1000
0000
0002
0000
0100
0000
0103
0000
0001
0000
,
2000
0010
3002
0010
2003
0000
3020
0000
,
0031
0010
1000
0100
1000
0001
0100
0001
,
1000
0000
0100
0000
0010
0000
0001
0000
1000
0010
1000
0000
0001
0010
0001
0000
,
2000
0000
0000
0000
3010
0000
0010
0000
0200
0000
0000
0000
0301
0100
0001
0000
,
1000
0100
0010
0100
0002
0000
0203
0000
,
2300
0000
3010
0010
0200
0000
0302
0000
,
1003
0000
0000
0100
0000
0000
0010
0000
0001
0000
1000
0000
0010
0000
0100
0000
,
0002
0100
1003
0000
2000
0100
3001
0000
,
0002
0010
1003
0000
2000
0010
3001
0000
,
1000
0010
1000
0000
0001
0000
1000
0000
0001
0010
0001
0000
1000
0000
0001
0000
,
1000
0100
0010
0000
0001
0000
1000
0000
0001
0100
0010
0000
1000
0100
0010
0001
,
2000
0000
0000
0000
,
0000
0000
0000
0000
0000
0000
3002
0003
,
0000
0000
0000
0000
,
0000
0000
0000
0000
1000
0001
0100
0000
,
0001
0000
0000
0000
0010
0000
0000
0000
1000
0000
0000
0000
0010
0000
0000
0000
0001
0000
0000
0000
1000
0000
0000
0000
0200
0300
0000
0000
0000
0000
0000
0000
,
1000
0010
0100
0001
1000
0100
0010
0100
,
1000
0000
0000
0000
0010
0000
0000
0000
0001
0000
0000
0000
0010
0000
0000
0000
1000
0000
0000
0000
0001
0000
0000
0000
0200
0300
0000
0000
0000
0000
0000
0000
,
0001
0010
0100
1000
0001
0100
0010
0100
,
1000
0000
0000
0000
0100
0000
0000
0000
0001
0000
0000
0000
0100
0000
0000
0000
0010
0000
0000
0000
1000
0000
0000
0000
0002
0003
0000
0000
0000
0000
0000
0000
,
1000
0100
0010
0001
0101
0000
1010
0000
,
2000
0010
3001
1000
0002
0010
1003
0001
,
1000
0100
0001
0100
1000
0001
1001
0000
,
0001
0100
0010
0100
1000
0100
0010
0000
,
1000
0000
0100
0000
0001
0000
0100
0000
1000
0001
1000
0001
1000
0000
0000
0000
,
2002
0000
0000
0000
,
0000
0000
0000
0000
,
0000
0000
0000
3003
;

//---------------dance-single - ----------------
#NOTES:
     dance-single:
     :
     Easy:
     8:
     0.441911,0.634615,0.312629,0.370218,0.000000,376.000000,338.000000,38.000000,45.000000,0.000000,0.000000,0.441911,0.634615,0.312629,0.370218,0.000000,376.000000,338.000000,38.000000,45.000000,0.000000,0.000000:
0000
0000
0000
0000
,
0000
0000
0000
0000
,
0000
0000
0000
0000
,
0000
0000
0000
0000
,
2000
0010
0010
0010
,
0010
0010
3010
1000
,
0002
0010
0010
0010
,
0010
0013
0001
1001
,
0001
0100
0010
1001
,
1000
0100
0001
0100
,
1000
0100
0010
1001
,
0001
0000
0100
0000
0010
1000
0010
0000
,
1000
0100
0010
1001
,
0001
0100
0110
0110
,
0020
0130
0002
1003
,
0200
0000
0310
0000
0001
0000
1000
0001
,
0100
0001
0010
1100
,
1000
0010
0001
0010
,
0100
0001
1000
0011
,
0001
0000
0010
0000
0100
1000
0001
0000
,
1000
0010
0100
1010
,
1000
0001
1001
1001
,
0002
0010
2003
0010
,
3001
0000
0010
0000
0100
1000
0001
0000
,
2002
3003
0001
0100
,
0020
0130
0002
0003
,
1000
0100
0010
0002
,
0100
0100
0100
0103
,
0001
0010
1000
0010
,
0001
0100
1000
0100
,
0010
0010
0100
0100
,
0001
1000
0001
1000
,
0102
1000
0010
0013
,
0001
0010
0100
1000
,
2100
0001
0010
3010
,
1000
0001
1001
1001
,
0012
1000
0100
0103
,
0001
0010
0100
1000
,
2010
0001
0100
3100
,
1000
0001
1001
1001
,
0001
0100
1000
0100
,
0020
0130
0001
0001
,
1000
0100
0010
0001
,
1000
1000
0001
0001
,
0010
0010
0001
0100
,
1000
0100
0010
1000
,
0001
0001
0010
0010
,
0100
1000
0001
0100
,
0220
0330
0000
0000
,
0010
0000
0010
0000
0100
0000
0100
0001
,
1000
0100
0002
0103
,
1000
0001
0200
0310
,
2000
0010
3002
0010
,
1003
0010
0100
0001
,
2000
0100
3001
1000
,
0001
0100
0110
0110
,
0200
0301
2000
3100
,
0010
0000
0001
0000
1000
0010
0100
0001
,
1000
0010
0002
0013
,
1000
0001
0020
0130
,
2000
0100
3002
0100
,
1003
0100
0010
0001
,
2000
0010
3001
1000
,
0001
0010
0110
0110
,
0020
0031
2000
3010
,
0100
0000
0001
0000
1000
0100
0010
0001
,
2000
3010
0002
0013
,
1000
0010
0100
0001
2000
0000
3002
0000
,
2003
3100
0002
0103
,
1000
0000
0100
0000
0010
0001
1000
0001
,
0100
0100
0000
0000
0010
0010
0000
0000
,
1000
1000
0000
0000
0001
0001
0000
0000
,
0011
1100
0011
1100
,
1010
0000
0101
0000
1000
0010
0100
0001
,
2000
0000
0000
0000
,
0000
0000
0000
0000
0000
0000
3002
0003
,
0000
0000
0000
0000
,
0000
0000
0000
1001
,
0010
1000
0100
0011
,
0001
0100
1000
0100
,
0010
1000
0001
1100
,
1000
0000
0100
0000
0010
0001
1000
0000
,
0001
0100
0010
0101
,
0001
1000
1001
1001
,
2000
0100
3002
0100
,
1003
0000
0100
0000
0010
0001
1000
0000
,
0001
0000
0100
0000
1000
0100
1000
0000
,
0100
0000
0010
0000
1000
1000
1000
0000
,
2002
0000
0000
0000
,
0000
0000
0000
0000
,
0000
0000
0000
3003
;

//---------------dance-single - ----------------
#NOTES:
     dance-single:
     :
     Beginner:
     4:
     0.240936,0.335973,0.008227,0.032908,0.000000,205.000000,204.000000,1.000000,4.000000,0.000000,0.000000,0.240936,0.335973,0.008227,0.032908,0.000000,205.000000,204.000000,1.000000,4.000000,0.000000,0.000000:
0000
0000
0000
0000
,
0000
0000
0000
0000
,
0000
0000
0000
0000
,
0000
0000
0000
0000
,
2002
0000
0000
0000
,
3003
0000
0000
0000
,
0000
0000
0000
0000
,
0000
0000
0000
0000
,
1000
1000
1000
0000
,
0010
0000
0100
0000
,
0001
0001
0001
0000
,
0010
0000
0100
0000
,
1000
1000
1000
0000
,
0001
0000
0100
0000
,
0010
0010
0010
0000
,
0100
0100
0100
0000
,
0001
0001
0001
0000
,
0010
0000
0100
0000
,
1000
1000
1000
0000
,
0010
0000
0100
0000
,
1000
1000
1000
0000
,
0100
0000
0001
0000
,
0010
0010
0010
0000
,
0100
0100
0100
0100
,
0100
0000
1000
0000
,
0001
0000
0100
0100
,
0100
0000
0010
0000
,
1000
0000
0000
0000
,
0000
0000
0000
0000
,
0001
0000
0001
0000
,
0010
0000
0010
0000
,
0100
0100
0100
0100
,
0100
0000
1000
0000
,
0001
0001
0001
0000
,
0100
0000
0010
0000
,
1000
1000
1000
1000
,
1000
0000
0001
0000
,
0010
0010
0010
0000
,
0100
0000
1000
0000
,
0001
0001
0001
0001
,
0001
0000
0100
0000
,
1000
0000
0100
0000
,
0010
0000
1000
0000
,
0001
0001
0001
0001
,
0001
0000
1000
0000
,
0100
0000
0001
0000
,
0100
0000
0010
0000
,
1000
1000
1000
1000
,
1000
0000
0001
0000
,
0100
0100
0100
0000
,
0010
0010
0010
0000
,
1000
0000
0001
0000
,
0010
0000
0100
0000
,
1000
1000
1000
1000
,
1000
0000
0001
0000
,
0100
0000
0010
0010
,
0010
0000
0100
0000
,
0001
0001
0001
0000
,
1000
1000
1000
0000
,
0100
0000
0010
0000
,
0001
0000
1000
0000
,
0010
0010
0010
0010
,
0010
0000
0100
0000
,
0001
0001
0001
0000
,
0010
0000
0100
0000
,
1000
1000
1000
1000
,
1000
0000
0001
0000
,
0100
0100
0100
0100
,
0100
0000
0010
0000
,
1000
1000
1000
1000
,
1000
0000
0001
0000
,
0010
0000
0100
0000
,
1000
1000
1000
1000
,
1000
1000
1000
1000
,
2000
0000
0000
0000
,
0000
0000
0000
3000
,
0000
0000
0000
0000
,
0000
0000
0000
0000
,
0001
0001
0001
0000
,
0100
0000
0010
0000
,
1000
1000
1000
0000
,
0100
0000
0010
0000
,
0001
0001
0001
0000
,
1000
0000
0010
0000
,
0100
0100
0100
0000
,
0010
0010
0010
0000
,
1000
1000
1000
0000
,
0001
0001
0001
0001
,
0002
0000
0000
0000
,
0000
0000
0000
0000
,
0000
0000
0000
0003
;
